  0
SECTION
  2
HEADER
  9
$ACADVER
  1
AC1015
  9
$ACADMAINTVER
 70
     6
  9
$DWGCODEPAGE
  3
ANSI_1252
  9
$INSBASE
 10
0.0
 20
0.0
 30
0.0
  9
$EXTMIN
 10
0.0
 20
0.0
 30
0.0
  9
$EXTMAX
 10
420.0
 20
297.0
 30
0.0
  9
$LIMMIN
 10
0.0
 20
0.0
  9
$LIMMAX
 10
420.0
 20
297.0
  9
$ORTHOMODE
 70
     0
  9
$REGENMODE
 70
     1
  9
$FILLMODE
 70
     1
  9
$QTEXTMODE
 70
     0
  9
$MIRRTEXT
 70
     1
  9
$LTSCALE
 40
1.0
  9
$ATTMODE
 70
     1
  9
$TEXTSIZE
 40
3.0
  9
$TRACEWID
 40
1.0
  9
$TEXTSTYLE
  7
STANDARD
  9
$CLAYER
  8
0
  9
$CELTYPE
  6
ByLayer
  9
$CECOLOR
 62
   256
  9
$CELTSCALE
 40
1.0
  9
$DISPSILH
 70
     0
  9
$DIMSCALE
 40
1.0
  9
$DIMASZ
 40
3.5
  9
$DIMEXO
 40
1.0
  9
$DIMDLI
 40
3.75
  9
$DIMRND
 40
0.0
  9
$DIMDLE
 40
0.0
  9
$DIMEXE
 40
1.0
  9
$DIMTP
 40
0.0
  9
$DIMTM
 40
0.0
  9
$DIMTXT
 40
3.0
  9
$DIMCEN
 40
2.5
  9
$DIMTSZ
 40
0.0
  9
$DIMTOL
 70
     0
  9
$DIMLIM
 70
     0
  9
$DIMTIH
 70
     1
  9
$DIMTOH
 70
     1
  9
$DIMSE1
 70
     0
  9
$DIMSE2
 70
     0
  9
$DIMTAD
 70
     1
  9
$DIMZIN
 70
     0
  9
$DIMBLK
  1

  9
$DIMASO
 70
     1
  9
$DIMSHO
 70
     1
  9
$DIMPOST
  1

  9
$DIMAPOST
  1

  9
$DIMALT
 70
     0
  9
$DIMALTD
 70
     3
  9
$DIMALTF
 40
0.0393700787
  9
$DIMLFAC
 40
1.0
  9
$DIMTOFL
 70
     1
  9
$DIMTVP
 40
0.0
  9
$DIMTIX
 70
     0
  9
$DIMSOXD
 70
     0
  9
$DIMSAH
 70
     0
  9
$DIMBLK1
  1

  9
$DIMBLK2
  1

  9
$DIMSTYLE
  2
ISO-25
  9
$DIMCLRD
 70
     0
  9
$DIMCLRE
 70
     0
  9
$DIMCLRT
 70
     0
  9
$DIMTFAC
 40
1.0
  9
$DIMGAP
 40
1.524
  9
$DIMJUST
 70
     0
  9
$DIMSD1
 70
     0
  9
$DIMSD2
 70
     0
  9
$DIMTOLJ
 70
     0
  9
$DIMTZIN
 70
     0
  9
$DIMALTZ
 70
     0
  9
$DIMALTTZ
 70
     0
  9
$DIMUPT
 70
     0
  9
$DIMDEC
 70
     3
  9
$DIMTDEC
 70
     3
  9
$DIMALTU
 70
     2
  9
$DIMALTTD
 70
     3
  9
$DIMTXSTY
  7
STANDARD
  9
$DIMAUNIT
 70
     0
  9
$DIMADEC
 70
     3
  9
$DIMALTRND
 40
0.0
  9
$DIMAZIN
 70
     0
  9
$DIMDSEP
 70
    44
  9
$DIMATFIT
 70
     3
  9
$DIMFRAC
 70
     0
  9
$DIMLDRBLK
  1

  9
$DIMLUNIT
 70
     2
  9
$DIMLWD
 70
    -2
  9
$DIMLWE
 70
    -2
  9
$DIMTMOVE
 70
     0
  9
$LUNITS
 70
     2
  9
$LUPREC
 70
     3
  9
$SKETCHINC
 40
1.0
  9
$FILLETRAD
 40
10.0
  9
$AUNITS
 70
     0
  9
$AUPREC
 70
     3
  9
$MENU
  1
.
  9
$ELEVATION
 40
0.0
  9
$PELEVATION
 40
0.0
  9
$THICKNESS
 40
0.0
  9
$LIMCHECK
 70
     0
  9
$CHAMFERA
 40
0.0
  9
$CHAMFERB
 40
0.0
  9
$CHAMFERC
 40
0.0
  9
$CHAMFERD
 40
0.0
  9
$SKPOLY
 70
     0
  9
$TDCREATE
 40
2459600.377839687
  9
$TDUCREATE
 40
2459600.336173021
  9
$TDUPDATE
 40
2459600.37784338
  9
$TDUUPDATE
 40
2459600.336176713
  9
$TDINDWG
 40
0.0000000116
  9
$TDUSRTIMER
 40
0.0000000116
  9
$USRTIMER
 70
     1
  9
$ANGBASE
 50
0.0
  9
$ANGDIR
 70
     0
  9
$PDMODE
 70
     0
  9
$PDSIZE
 40
-1.0
  9
$PLINEWID
 40
0.0
  9
$SPLFRAME
 70
     0
  9
$SPLINETYPE
 70
     6
  9
$SPLINESEGS
 70
     8
  9
$HANDSEED
  5
3D8
  9
$SURFTAB1
 70
     6
  9
$SURFTAB2
 70
     6
  9
$SURFTYPE
 70
     6
  9
$SURFU
 70
     6
  9
$SURFV
 70
     6
  9
$UCSBASE
  2

  9
$UCSNAME
  2

  9
$UCSORG
 10
0.0
 20
0.0
 30
0.0
  9
$UCSXDIR
 10
1.0
 20
0.0
 30
0.0
  9
$UCSYDIR
 10
0.0
 20
1.0
 30
0.0
  9
$UCSORTHOREF
  2

  9
$UCSORTHOVIEW
 70
     0
  9
$UCSORGTOP
 10
0.0
 20
0.0
 30
0.0
  9
$UCSORGBOTTOM
 10
0.0
 20
0.0
 30
0.0
  9
$UCSORGLEFT
 10
0.0
 20
0.0
 30
0.0
  9
$UCSORGRIGHT
 10
0.0
 20
0.0
 30
0.0
  9
$UCSORGFRONT
 10
0.0
 20
0.0
 30
0.0
  9
$UCSORGBACK
 10
0.0
 20
0.0
 30
0.0
  9
$PUCSBASE
  2

  9
$PUCSNAME
  2

  9
$PUCSORG
 10
0.0
 20
0.0
 30
0.0
  9
$PUCSXDIR
 10
1.0
 20
0.0
 30
0.0
  9
$PUCSYDIR
 10
0.0
 20
1.0
 30
0.0
  9
$PUCSORTHOREF
  2

  9
$PUCSORTHOVIEW
 70
     0
  9
$PUCSORGTOP
 10
0.0
 20
0.0
 30
0.0
  9
$PUCSORGBOTTOM
 10
0.0
 20
0.0
 30
0.0
  9
$PUCSORGLEFT
 10
0.0
 20
0.0
 30
0.0
  9
$PUCSORGRIGHT
 10
0.0
 20
0.0
 30
0.0
  9
$PUCSORGFRONT
 10
0.0
 20
0.0
 30
0.0
  9
$PUCSORGBACK
 10
0.0
 20
0.0
 30
0.0
  9
$USERI1
 70
     0
  9
$USERI2
 70
     0
  9
$USERI3
 70
     0
  9
$USERI4
 70
     0
  9
$USERI5
 70
     0
  9
$USERR1
 40
0.0
  9
$USERR2
 40
0.0
  9
$USERR3
 40
0.0
  9
$USERR4
 40
0.0
  9
$USERR5
 40
0.0
  9
$WORLDVIEW
 70
     1
  9
$SHADEDGE
 70
     3
  9
$SHADEDIF
 70
    70
  9
$TILEMODE
 70
     1
  9
$MAXACTVP
 70
    64
  9
$PINSBASE
 10
0.0
 20
0.0
 30
0.0
  9
$PLIMCHECK
 70
     0
  9
$PEXTMIN
 10
1.0000000000E+20
 20
1.0000000000E+20
 30
1.0000000000E+20
  9
$PEXTMAX
 10
-1.0000000000E+20
 20
-1.0000000000E+20
 30
-1.0000000000E+20
  9
$PLIMMIN
 10
0.0
 20
0.0
  9
$PLIMMAX
 10
420.0
 20
297.0
  9
$UNITMODE
 70
     0
  9
$VISRETAIN
 70
     1
  9
$PLINEGEN
 70
     0
  9
$PSLTSCALE
 70
     1
  9
$TREEDEPTH
 70
  3020
  9
$CMLSTYLE
  2
Standard
  9
$CMLJUST
 70
     0
  9
$CMLSCALE
 40
20.0
  9
$PROXYGRAPHICS
 70
     1
  9
$MEASUREMENT
 70
     1
  9
$CELWEIGHT
370
    -1
  9
$ENDCAPS
280
     0
  9
$JOINSTYLE
280
     0
  9
$LWDISPLAY
290
     1
  9
$INSUNITS
 70
     4
  9
$HYPERLINKBASE
  1

  9
$STYLESHEET
  1

  9
$XEDIT
290
     1
  9
$CEPSNTYPE
380
     0
  9
$PSTYLEMODE
290
     1
  9
$FINGERPRINTGUID
  2
{CAA056F2-D2E5-4624-AF44-BCA8CB52FC3C}
  9
$VERSIONGUID
  2
{FAEB1C32-E019-11D5-929B-00C0DF256EC4}
  9
$EXTNAMES
290
     1
  9
$PSVPSCALE
 40
0.0
  9
$OLESTARTUP
290
     0
  0
ENDSEC
  0
SECTION
  2
CLASSES
  0
CLASS
  1
ACDBDICTIONARYWDFLT
  2
AcDbDictionaryWithDefault
  3
ObjectDBX Classes
 90
        0
280
     0
281
     0
  0
CLASS
  1
VISUALSTYLE
  2
AcDbVisualStyle
  3
ObjectDBX Classes
 90
     4095
280
     0
281
     0
  0
CLASS
  1
MATERIAL
  2
AcDbMaterial
  3
ObjectDBX Classes
 90
     1153
280
     0
281
     0
  0
CLASS
  1
SCALE
  2
AcDbScale
  3
ObjectDBX Classes
 90
     1153
280
     0
281
     0
  0
CLASS
  1
TABLESTYLE
  2
AcDbTableStyle
  3
ObjectDBX Classes
 90
     4095
280
     0
281
     0
  0
CLASS
  1
MLEADERSTYLE
  2
AcDbMLeaderStyle
  3
ACDB_MLEADERSTYLE_CLASS
 90
     4095
280
     0
281
     0
  0
CLASS
  1
SUN
  2
AcDbSun
  3
SCENEOE
 90
     1153
280
     0
281
     0
  0
CLASS
  1
ACDBPLACEHOLDER
  2
AcDbPlaceHolder
  3
ObjectDBX Classes
 90
        0
280
     0
281
     0
  0
CLASS
  1
LAYOUT
  2
AcDbLayout
  3
ObjectDBX Classes
 90
        0
280
     0
281
     0
  0
ENDSEC
  0
SECTION
  2
TABLES
  0
TABLE
  2
VPORT
  5
8
330
0
100
AcDbSymbolTable
 70
     1
  0
VPORT
  5
29
330
8
100
AcDbSymbolTableRecord
100
AcDbViewportTableRecord
  2
*Active
 70
     0
 10
0.0
 20
0.0
 11
1.0
 21
1.0
 12
210.0
 22
148.5
 13
0.0
 23
0.0
 14
10.0
 24
10.0
 15
10.0
 25
10.0
 16
0.0
 26
0.0
 36
1.0
 17
0.0
 27
0.0
 37
0.0
 40
297.0
 41
1.4141414141
 42
50.0
 43
0.0
 44
0.0
 50
0.0
 51
0.0
 71
     0
 72
  2000
 73
     1
 74
     3
 75
     0
 76
     0
 77
     0
 78
     0
281
     0
 65
     1
110
0.0
120
0.0
130
0.0
111
1.0
121
0.0
131
0.0
112
0.0
122
1.0
132
0.0
 79
     0
146
0.0
  0
ENDTAB
  0
TABLE
  2
LTYPE
  5
5
330
0
100
AcDbSymbolTable
 70
     8
  0
LTYPE
  5
14
330
5
100
AcDbSymbolTableRecord
100
AcDbLinetypeTableRecord
  2
ByBlock
 70
     0
  3

 72
    65
 73
     0
 40
0.0
  0
LTYPE
  5
15
330
5
100
AcDbSymbolTableRecord
100
AcDbLinetypeTableRecord
  2
ByLayer
 70
     0
  3

 72
    65
 73
     0
 40
0.0
  0
LTYPE
  5
16
330
5
100
AcDbSymbolTableRecord
100
AcDbLinetypeTableRecord
  2
Continuous
 70
     0
  3
Solid line
 72
    65
 73
     0
 40
0.0
  0
LTYPE
  5
6E
330
5
100
AcDbSymbolTableRecord
100
AcDbLinetypeTableRecord
  2
SLD-Durchgehend
 70
     0
  3
SolidWorks Line Style
 72
    65
 73
     0
 40
0.0
  0
LTYPE
  5
6F
330
5
100
AcDbSymbolTableRecord
100
AcDbLinetypeTableRecord
  2
SLD-Gestrichelt
 70
     0
  3
SolidWorks Line Style
 72
    65
 73
     2
 40
1.905
 49
1.27
 74
     0
 49
-0.635
 74
     0
  0
LTYPE
  5
70
330
5
100
AcDbSymbolTableRecord
100
AcDbLinetypeTableRecord
  2
SLD-Phantom
 70
     0
  3
SolidWorks Line Style
 72
    65
 73
     6
 40
12.7
 49
6.35
 74
     0
 49
-1.27
 74
     0
 49
1.27
 74
     0
 49
-1.27
 74
     0
 49
1.27
 74
     0
 49
-1.27
 74
     0
  0
LTYPE
  5
71
330
5
100
AcDbSymbolTableRecord
100
AcDbLinetypeTableRecord
  2
SLD-Kette
 70
     0
  3
SolidWorks Line Style
 72
    65
 73
     4
 40
10.16
 49
6.35
 74
     0
 49
-1.27
 74
     0
 49
1.27
 74
     0
 49
-1.27
 74
     0
  0
LTYPE
  5
72
330
5
100
AcDbSymbolTableRecord
100
AcDbLinetypeTableRecord
  2
SLD-Punktstrich
 70
     0
  3
SolidWorks Line Style
 72
    65
 73
     4
 40
19.05
 49
15.24
 74
     0
 49
-1.27
 74
     0
 49
1.27
 74
     0
 49
-1.27
 74
     0
  0
LTYPE
  5
73
330
5
100
AcDbSymbolTableRecord
100
AcDbLinetypeTableRecord
  2
SLD-Naht
 70
     0
  3
SolidWorks Line Style
 72
    65
 73
     2
 40
0.635
 49
0.0
 74
     0
 49
-0.635
 74
     0
  0
LTYPE
  5
74
330
5
100
AcDbSymbolTableRecord
100
AcDbLinetypeTableRecord
  2
SLD-Dicke-Dünne-Kette
 70
     0
  3
SolidWorks Line Style
 72
    65
 73
     4
 40
10.16
 49
6.35
 74
     0
 49
-1.27
 74
     0
 49
1.27
 74
     0
 49
-1.27
 74
     0
  0
ENDTAB
  0
TABLE
  2
LAYER
  5
2
330
0
100
AcDbSymbolTable
 70
     1
  0
LAYER
  5
10
330
2
100
AcDbSymbolTableRecord
100
AcDbLayerTableRecord
  2
0
 70
     0
 62
     7
  6
Continuous
370
    -3
390
F
  0
ENDTAB
  0
TABLE
  2
STYLE
  5
3
330
0
100
AcDbSymbolTable
 70
     5
  0
STYLE
  5
11
330
3
100
AcDbSymbolTableRecord
100
AcDbTextStyleTableRecord
  2
STANDARD
 70
     0
 40
0.0
 41
1.0
 50
0.0
 71
     0
 42
3.0
  3
ARIAL.TTF
  4

1001
ACAD
1000
ARIAL
1071
       34
  0
STYLE
  5
85
330
3
100
AcDbSymbolTableRecord
100
AcDbTextStyleTableRecord
  2
SLDTEXTSTYLE0
 70
     0
 40
0.0
 41
0.948
 50
0.0
 71
     0
 42
3.0
  3
ARIAL.TTF
  4

1001
ACAD
1000
Arial
1071
      290
  0
STYLE
  5
134
330
3
100
AcDbSymbolTableRecord
100
AcDbTextStyleTableRecord
  2
SLDTEXTSTYLE1
 70
     0
 40
0.0
 41
1.0
 50
0.0
 71
     0
 42
3.0
  3
HLHI___.TTF
  4

1001
ACAD
1000
Helvetica 65 Medium
1071
 50331938
  0
STYLE
  5
136
330
3
100
AcDbSymbolTableRecord
100
AcDbTextStyleTableRecord
  2
SLDTEXTSTYLE2
 70
     0
 40
0.0
 41
1.0
 50
0.0
 71
     0
 42
3.0
  3
HLR____.TTF
  4

1001
ACAD
1000
Helvetica 55 Roman
1071
 16777506
  0
STYLE
  5
144
330
3
100
AcDbSymbolTableRecord
100
AcDbTextStyleTableRecord
  2
SLDTEXTSTYLE3
 70
     0
 40
0.0
 41
0.948
 50
0.0
 71
     0
 42
3.0
  3
ARIALBD.TTF
  4

1001
ACAD
1000
Arial
1071
 33554722
  0
ENDTAB
  0
TABLE
  2
VIEW
  5
6
330
0
100
AcDbSymbolTable
 70
     0
  0
ENDTAB
  0
TABLE
  2
UCS
  5
7
330
0
100
AcDbSymbolTable
 70
     0
  0
ENDTAB
  0
TABLE
  2
APPID
  5
9
330
0
100
AcDbSymbolTable
 70
     1
  0
APPID
  5
12
330
9
100
AcDbSymbolTableRecord
100
AcDbRegAppTableRecord
  2
ACAD
 70
     0
  0
ENDTAB
  0
TABLE
  2
DIMSTYLE
  5
A
330
0
100
AcDbSymbolTable
 70
     5
100
AcDbDimStyleTable
  0
DIMSTYLE
105
27
330
A
100
AcDbSymbolTableRecord
100
AcDbDimStyleTableRecord
  2
ISO-25
 70
     0
 41
2.5
 42
0.625
 43
3.75
 44
1.25
 73
     0
 74
     0
 77
     1
 78
     8
140
2.5
141
2.5
143
0.0393700787
147
0.625
171
     3
172
     1
178
     0
271
     2
272
     2
274
     3
278
    44
283
     0
284
     8
340
11
  0
DIMSTYLE
105
234
330
A
100
AcDbSymbolTableRecord
100
AcDbDimStyleTableRecord
  2
SLDDIMSTYLE0
 70
     0
 41
3.5
 44
0.0
 45
0.000000001
146
3.5
147
0.0
173
     1
178
     0
271
     0
272
     0
276
     2
340
11
  0
DIMSTYLE
105
23A
102
{ACAD_REACTORS
330
239
330
244
330
24E
330
258
330
2B2
330
2BD
102
}
330
A
100
AcDbSymbolTableRecord
100
AcDbDimStyleTableRecord
  2
SLDDIMSTYLE1
 70
     0
 41
3.5
 44
0.0
 45
0.000000001
 73
     0
 74
     0
 77
     1
 78
    12
 79
     3
140
3.0
147
0.75
173
     1
178
     0
271
     3
272
     3
276
     2
284
    12
340
85
  0
DIMSTYLE
105
264
102
{ACAD_REACTORS
330
263
330
26E
330
278
102
}
330
A
100
AcDbSymbolTableRecord
100
AcDbDimStyleTableRecord
  2
SLDDIMSTYLE2
 70
     0
 41
3.5
 44
0.0
 45
0.000000001
 73
     0
 74
     0
 77
     1
 78
    12
 79
     3
140
3.0
147
0.75
173
     1
178
     0
271
     0
272
     3
276
     2
284
    12
340
85
  0
DIMSTYLE
105
283
102
{ACAD_REACTORS
330
282
330
2A5
102
}
330
A
100
AcDbSymbolTableRecord
100
AcDbDimStyleTableRecord
  2
SLDDIMSTYLE3
 70
     0
 41
3.5
 44
0.0
 45
0.000000001
 73
     0
 74
     0
 77
     1
 78
    12
 79
     3
140
3.0
147
0.75
172
     1
173
     1
178
     0
271
     3
272
     3
276
     2
284
    12
289
     0
340
85
  0
ENDTAB
  0
TABLE
  2
BLOCK_RECORD
  5
1
330
0
100
AcDbSymbolTable
 70
    24
  0
BLOCK_RECORD
  5
1F
330
1
100
AcDbSymbolTableRecord
100
AcDbBlockTableRecord
  2
*Model_Space
340
22
  0
BLOCK_RECORD
  5
1B
330
1
100
AcDbSymbolTableRecord
100
AcDbBlockTableRecord
  2
*Paper_Space
340
1E
  0
BLOCK_RECORD
  5
23
330
1
100
AcDbSymbolTableRecord
100
AcDbBlockTableRecord
  2
*Paper_Space0
340
26
  0
BLOCK_RECORD
  5
75
330
1
100
AcDbSymbolTableRecord
100
AcDbBlockTableRecord
  2
Pfeil
340
0
102
{BLKREFS
331
10F
331
110
102
}
  0
BLOCK_RECORD
  5
7F
330
1
100
AcDbSymbolTableRecord
100
AcDbBlockTableRecord
  2
Text Zuluft
340
0
102
{BLKREFS
331
233
102
}
  0
BLOCK_RECORD
  5
82
330
1
100
AcDbSymbolTableRecord
100
AcDbBlockTableRecord
  2
SW_NOTE_0
340
0
102
{BLKREFS
331
8A
102
}
  0
BLOCK_RECORD
  5
8B
330
1
100
AcDbSymbolTableRecord
100
AcDbBlockTableRecord
  2
Text Abluft
340
0
102
{BLKREFS
331
236
102
}
  0
BLOCK_RECORD
  5
8E
330
1
100
AcDbSymbolTableRecord
100
AcDbBlockTableRecord
  2
SW_NOTE_1
340
0
102
{BLKREFS
331
95
102
}
  0
BLOCK_RECORD
  5
96
330
1
100
AcDbSymbolTableRecord
100
AcDbBlockTableRecord
  2
Änderungsindex a
340
0
  0
BLOCK_RECORD
  5
99
330
1
100
AcDbSymbolTableRecord
100
AcDbBlockTableRecord
  2
SW_NOTE_2
340
0
102
{BLKREFS
331
9E
102
}
  0
BLOCK_RECORD
  5
130
330
1
100
AcDbSymbolTableRecord
100
AcDbBlockTableRecord
  2
SW_NOTE_3
340
0
102
{BLKREFS
331
139
102
}
  0
BLOCK_RECORD
  5
13B
330
1
100
AcDbSymbolTableRecord
100
AcDbBlockTableRecord
  2
SW_NOTE_4
340
0
102
{BLKREFS
331
140
102
}
  0
BLOCK_RECORD
  5
23B
330
1
100
AcDbSymbolTableRecord
100
AcDbBlockTableRecord
  2
_D
340
0
  0
BLOCK_RECORD
  5
245
330
1
100
AcDbSymbolTableRecord
100
AcDbBlockTableRecord
  2
_D_1
340
0
  0
BLOCK_RECORD
  5
24F
330
1
100
AcDbSymbolTableRecord
100
AcDbBlockTableRecord
  2
_D_2
340
0
  0
BLOCK_RECORD
  5
259
330
1
100
AcDbSymbolTableRecord
100
AcDbBlockTableRecord
  2
_D_3
340
0
  0
BLOCK_RECORD
  5
265
330
1
100
AcDbSymbolTableRecord
100
AcDbBlockTableRecord
  2
_D_4
340
0
  0
BLOCK_RECORD
  5
26F
330
1
100
AcDbSymbolTableRecord
100
AcDbBlockTableRecord
  2
_D_5
340
0
  0
BLOCK_RECORD
  5
279
330
1
100
AcDbSymbolTableRecord
100
AcDbBlockTableRecord
  2
_D_6
340
0
  0
BLOCK_RECORD
  5
284
330
1
100
AcDbSymbolTableRecord
100
AcDbBlockTableRecord
  2
_D_7
340
0
  0
BLOCK_RECORD
  5
2A6
330
1
100
AcDbSymbolTableRecord
100
AcDbBlockTableRecord
  2
_D_8
340
0
  0
BLOCK_RECORD
  5
2B3
330
1
100
AcDbSymbolTableRecord
100
AcDbBlockTableRecord
  2
_D_9
340
0
  0
BLOCK_RECORD
  5
2BE
330
1
100
AcDbSymbolTableRecord
100
AcDbBlockTableRecord
  2
_D_10
340
0
  0
BLOCK_RECORD
  5
2C7
330
1
100
AcDbSymbolTableRecord
100
AcDbBlockTableRecord
  2
SW_CENTERMARKSYMBOL_0
340
0
102
{BLKREFS
331
2D2
102
}
  0
BLOCK_RECORD
  5
2D3
330
1
100
AcDbSymbolTableRecord
100
AcDbBlockTableRecord
  2
SW_CENTERMARKSYMBOL_1
340
0
102
{BLKREFS
331
2DE
102
}
  0
BLOCK_RECORD
  5
2DF
330
1
100
AcDbSymbolTableRecord
100
AcDbBlockTableRecord
  2
SW_CENTERMARKSYMBOL_2
340
0
102
{BLKREFS
331
2EA
102
}
  0
ENDTAB
  0
ENDSEC
  0
SECTION
  2
BLOCKS
  0
BLOCK
  5
20
330
1F
100
AcDbEntity
  8
0
100
AcDbBlockBegin
  2
*Model_Space
 70
     0
 10
0.0
 20
0.0
 30
0.0
  3
*Model_Space
  1

  0
ENDBLK
  5
21
330
1F
100
AcDbEntity
  8
0
100
AcDbBlockEnd
  0
BLOCK
  5
1C
330
1B
100
AcDbEntity
 67
     1
  8
0
100
AcDbBlockBegin
  2
*Paper_Space
 70
     0
 10
0.0
 20
0.0
 30
0.0
  3
*Paper_Space
  1

  0
ENDBLK
  5
1D
330
1B
100
AcDbEntity
 67
     1
  8
0
100
AcDbBlockEnd
  0
BLOCK
  5
24
330
23
100
AcDbEntity
  8
0
100
AcDbBlockBegin
  2
*Paper_Space0
 70
     0
 10
0.0
 20
0.0
 30
0.0
  3
*Paper_Space0
  1

  0
ENDBLK
  5
25
330
23
100
AcDbEntity
  8
0
100
AcDbBlockEnd
  0
BLOCK
  5
76
330
75
100
AcDbEntity
  8
0
100
AcDbBlockBegin
  2
Pfeil
 70
     0
 10
0.0
 20
0.0
 30
0.0
  3
Pfeil
  1

  0
LINE
  5
78
330
75
100
AcDbEntity
  8
0
  6
SLD-Durchgehend
 62
     7
370
     0
100
AcDbLine
 10
10.77
 20
0.8
 30
0.0
 11
2.77
 21
0.8
 31
0.0
  0
LINE
  5
79
330
75
100
AcDbEntity
  8
0
  6
SLD-Durchgehend
 62
     7
370
     0
100
AcDbLine
 10
2.77
 20
0.8
 30
0.0
 11
2.77
 21
1.6
 31
0.0
  0
LINE
  5
7A
330
75
100
AcDbEntity
  8
0
  6
SLD-Durchgehend
 62
     7
370
     0
100
AcDbLine
 10
2.77
 20
1.6
 30
0.0
 11
0.0
 21
0.0
 31
0.0
  0
LINE
  5
7B
330
75
100
AcDbEntity
  8
0
  6
SLD-Durchgehend
 62
     7
370
     0
100
AcDbLine
 10
0.0
 20
0.0
 30
0.0
 11
2.77
 21
-1.6
 31
0.0
  0
LINE
  5
7C
330
75
100
AcDbEntity
  8
0
  6
SLD-Durchgehend
 62
     7
370
     0
100
AcDbLine
 10
2.77
 20
-1.6
 30
0.0
 11
2.77
 21
-0.8
 31
0.0
  0
LINE
  5
7D
330
75
100
AcDbEntity
  8
0
  6
SLD-Durchgehend
 62
     7
370
     0
100
AcDbLine
 10
2.77
 20
-0.8
 30
0.0
 11
10.77
 21
-0.8
 31
0.0
  0
LINE
  5
7E
330
75
100
AcDbEntity
  8
0
  6
SLD-Durchgehend
 62
     7
370
     0
100
AcDbLine
 10
10.77
 20
-0.8
 30
0.0
 11
10.77
 21
0.8
 31
0.0
  0
ENDBLK
  5
77
330
75
100
AcDbEntity
  8
0
100
AcDbBlockEnd
  0
BLOCK
  5
80
330
7F
100
AcDbEntity
  8
0
100
AcDbBlockBegin
  2
Text Zuluft
 70
     0
 10
0.0
 20
0.0
 30
0.0
  3
Text Zuluft
  1

  0
INSERT
  5
8A
330
7F
100
AcDbEntity
  8
0
  6
SLD-Durchgehend
 62
     7
370
     0
100
AcDbBlockReference
  2
SW_NOTE_0
 10
2.9507142857
 20
11.8697372048
 30
0.0
  0
ENDBLK
  5
81
330
7F
100
AcDbEntity
  8
0
100
AcDbBlockEnd
  0
BLOCK
  5
83
330
82
100
AcDbEntity
  8
0
100
AcDbBlockBegin
  2
SW_NOTE_0
 70
     0
 10
0.0
 20
0.0
 30
0.0
  3
SW_NOTE_0
  1

  0
MTEXT
  5
86
330
82
100
AcDbEntity
  8
0
  6
SLD-Durchgehend
 62
     0
370
     0
100
AcDbMText
 10
0.0
 20
3.8672032193
 30
0.0
 40
3.0
 41
0.0
 71
     1
 72
     1
  1
G1/4
  7
SLDTEXTSTYLE0
 73
     1
 44
1.0
  0
MTEXT
  5
87
330
82
100
AcDbEntity
  8
0
  6
SLD-Durchgehend
 62
     0
370
     0
100
AcDbMText
 10
0.0
 20
-0.1327969707
 30
0.0
 40
3.0
 41
0.0
 71
     1
 72
     1
  1
Zuluft
  7
SLDTEXTSTYLE0
 73
     1
 44
1.0
  0
MTEXT
  5
88
330
82
100
AcDbEntity
  8
0
  6
SLD-Durchgehend
 62
     0
370
     0
100
AcDbMText
 10
0.0
 20
-4.1327971607
 30
0.0
 40
3.0
 41
0.0
 71
     1
 72
     1
  1
Air supply
  7
SLDTEXTSTYLE0
 73
     1
 44
1.0
  0
MTEXT
  5
89
330
82
100
AcDbEntity
  8
0
  6
SLD-Durchgehend
 62
     0
370
     0
100
AcDbMText
 10
0.0
 20
-8.1327973507
 30
0.0
 40
3.0
 41
0.0
 71
     1
 72
     1
  1
Arrivée d´air
  7
SLDTEXTSTYLE0
 73
     1
 44
1.0
  0
ENDBLK
  5
84
330
82
100
AcDbEntity
  8
0
100
AcDbBlockEnd
  0
BLOCK
  5
8C
330
8B
100
AcDbEntity
  8
0
100
AcDbBlockBegin
  2
Text Abluft
 70
     0
 10
0.0
 20
0.0
 30
0.0
  3
Text Abluft
  1

  0
INSERT
  5
95
330
8B
100
AcDbEntity
  8
0
  6
SLD-Durchgehend
 62
     7
370
     0
100
AcDbBlockReference
  2
SW_NOTE_1
 10
0.0438152488
 20
7.8085249423
 30
0.0
  0
ENDBLK
  5
8D
330
8B
100
AcDbEntity
  8
0
100
AcDbBlockEnd
  0
BLOCK
  5
8F
330
8E
100
AcDbEntity
  8
0
100
AcDbBlockBegin
  2
SW_NOTE_1
 70
     0
 10
0.0
 20
0.0
 30
0.0
  3
SW_NOTE_1
  1

  0
MTEXT
  5
91
330
8E
100
AcDbEntity
  8
0
  6
SLD-Durchgehend
 62
     0
370
     0
100
AcDbMText
 10
0.0
 20
3.8672032193
 30
0.0
 40
3.0
 41
0.0
 71
     1
 72
     1
  1
G 3/8
  7
SLDTEXTSTYLE0
 73
     1
 44
1.0
  0
MTEXT
  5
92
330
8E
100
AcDbEntity
  8
0
  6
SLD-Durchgehend
 62
     0
370
     0
100
AcDbMText
 10
0.0
 20
-0.1327969707
 30
0.0
 40
3.0
 41
0.0
 71
     1
 72
     1
  1
Abluft
  7
SLDTEXTSTYLE0
 73
     1
 44
1.0
  0
MTEXT
  5
93
330
8E
100
AcDbEntity
  8
0
  6
SLD-Durchgehend
 62
     0
370
     0
100
AcDbMText
 10
0.0
 20
-4.1327971607
 30
0.0
 40
3.0
 41
0.0
 71
     1
 72
     1
  1
Exhaust
  7
SLDTEXTSTYLE0
 73
     1
 44
1.0
  0
MTEXT
  5
94
330
8E
100
AcDbEntity
  8
0
  6
SLD-Durchgehend
 62
     0
370
     0
100
AcDbMText
 10
0.0
 20
-8.1327973507
 30
0.0
 40
3.0
 41
0.0
 71
     1
 72
     1
  1
Echappement
  7
SLDTEXTSTYLE0
 73
     1
 44
1.0
  0
ENDBLK
  5
90
330
8E
100
AcDbEntity
  8
0
100
AcDbBlockEnd
  0
BLOCK
  5
97
330
96
100
AcDbEntity
  8
0
100
AcDbBlockBegin
  2
Änderungsindex a
 70
     0
 10
0.0
 20
0.0
 30
0.0
  3
Änderungsindex a
  1

  0
INSERT
  5
9E
330
96
100
AcDbEntity
  8
0
  6
Continuous
 62
     7
370
     0
100
AcDbBlockReference
  2
SW_NOTE_2
 10
-2.6785442717
 20
-4.2179726306
 30
0.0
  0
ENDBLK
  5
98
330
96
100
AcDbEntity
  8
0
100
AcDbBlockEnd
  0
BLOCK
  5
9A
330
99
100
AcDbEntity
  8
0
100
AcDbBlockBegin
  2
SW_NOTE_2
 70
     0
 10
0.0
 20
0.0
 30
0.0
  3
SW_NOTE_2
  1

  0
CIRCLE
  5
9C
330
99
100
AcDbEntity
  8
0
  6
SLD-Durchgehend
 62
     0
370
     0
100
AcDbCircle
 10
2.2902293983
 20
4.4406505799
 30
0.0
 40
4.607707781128337
  0
MTEXT
  5
9D
330
99
100
AcDbEntity
  8
0
  6
Continuous
 62
     0
370
     0
100
AcDbMText
 10
0.0
 20
7.7344064386
 30
0.0
 40
6.0
 41
0.0
 71
     1
 72
     1
  1
a
  7
SLDTEXTSTYLE0
 73
     1
 44
1.0
  0
ENDBLK
  5
9B
330
99
100
AcDbEntity
  8
0
100
AcDbBlockEnd
  0
BLOCK
  5
131
330
130
100
AcDbEntity
  8
0
100
AcDbBlockBegin
  2
SW_NOTE_3
 70
     0
 10
0.0
 20
0.0
 30
0.0
  3
SW_NOTE_3
  1

  0
MTEXT
  5
133
330
130
100
AcDbEntity
  8
0
  6
Continuous
 62
     0
370
     0
100
AcDbMText
 10
0.0
 20
2.3874608764
 30
0.0
 40
1.8520833333
 41
0.0
 71
     1
 72
     1
  1
Tel.: +49 6134 2901-0, www.
  7
SLDTEXTSTYLE0
 73
     1
 44
1.0
  0
MTEXT
  5
135
330
130
100
AcDbEntity
  8
0
  6
Continuous
 62
     0
370
     0
100
AcDbMText
 10
31.6226072609
 20
2.2325681125
 30
0.0
 40
1.8520833333
 41
0.0
 71
     1
 72
     1
  1
Netter
  7
SLDTEXTSTYLE1
 73
     1
 44
1.0
  0
MTEXT
  5
137
330
130
100
AcDbEntity
  8
0
  6
Continuous
 62
     0
370
     0
100
AcDbMText
 10
39.4425168633
 20
2.3157006648
 30
0.0
 40
1.8520833333
 41
0.0
 71
     1
 72
     1
  1
Vibration
  7
SLDTEXTSTYLE2
 73
     1
 44
1.0
  0
MTEXT
  5
138
330
130
100
AcDbEntity
  8
0
  6
Continuous
 62
     0
370
     0
100
AcDbMText
 10
49.1865314543
 20
2.3874608764
 30
0.0
 40
1.8520833333
 41
0.0
 71
     1
 72
     1
  1
.com
  7
SLDTEXTSTYLE0
 73
     1
 44
1.0
  0
ENDBLK
  5
132
330
130
100
AcDbEntity
  8
0
100
AcDbBlockEnd
  0
BLOCK
  5
13C
330
13B
100
AcDbEntity
  8
0
100
AcDbBlockBegin
  2
SW_NOTE_4
 70
     0
 10
0.0
 20
0.0
 30
0.0
  3
SW_NOTE_4
  1

  0
MTEXT
  5
13E
330
13B
100
AcDbEntity
  8
0
  6
Continuous
 62
     0
370
     0
100
AcDbMText
 10
0.0
 20
4.8649193548
 30
0.0
 40
3.96875
 41
0.0
 71
     1
 72
     1
  1
Netter
  7
SLDTEXTSTYLE1
 73
     1
 44
1.0
  0
MTEXT
  5
13F
330
13B
100
AcDbEntity
  8
0
  6
Continuous
 62
     0
370
     0
100
AcDbMText
 10
16.7569443583
 20
5.0430605384
 30
0.0
 40
3.96875
 41
0.0
 71
     1
 72
     1
  1
Vibration
  7
SLDTEXTSTYLE2
 73
     1
 44
1.0
  0
ENDBLK
  5
13D
330
13B
100
AcDbEntity
  8
0
100
AcDbBlockEnd
  0
BLOCK
  5
23C
330
23B
100
AcDbEntity
  8
0
100
AcDbBlockBegin
  2
_D
 70
     0
 10
0.0
 20
0.0
 30
0.0
  3
_D
  1

  0
SOLID
  5
23E
330
23B
100
AcDbEntity
  8
0
  6
SLD-Durchgehend
 62
     7
370
     0
100
AcDbTrace
 10
281.6203762006
 20
247.2881687472
 30
0.0
 11
285.1203762006
 21
246.8281687472
 31
0.0
 12
285.1203762006
 22
247.7481687472
 32
0.0
 13
285.1203762006
 23
247.7481687472
 33
0.0
  0
SOLID
  5
23F
330
23B
100
AcDbEntity
  8
0
  6
SLD-Durchgehend
 62
     7
370
     0
100
AcDbTrace
 10
354.1203762006
 20
247.2881687472
 30
0.0
 11
350.6203762006
 21
247.7481687472
 31
0.0
 12
350.6203762006
 22
246.8281687472
 32
0.0
 13
350.6203762006
 23
246.8281687472
 33
0.0
  0
LINE
  5
240
330
23B
100
AcDbEntity
  8
0
  6
SLD-Durchgehend
 62
     7
370
     0
100
AcDbLine
 10
281.6203762006
 20
237.4600952286
 30
0.0
 11
281.6203762006
 21
248.2881687472
 31
0.0
  0
LINE
  5
241
330
23B
100
AcDbEntity
  8
0
  6
SLD-Durchgehend
 62
     7
370
     0
100
AcDbLine
 10
354.1203762006
 20
207.435545539
 30
0.0
 11
354.1203762006
 21
248.2881687472
 31
0.0
  0
LINE
  5
242
330
23B
100
AcDbEntity
  8
0
  6
SLD-Durchgehend
 62
     7
370
     0
100
AcDbLine
 10
281.6203762006
 20
247.2881687472
 30
0.0
 11
354.1203762006
 21
247.2881687472
 31
0.0
  0
MTEXT
  5
243
330
23B
100
AcDbEntity
  8
0
  6
SLD-Durchgehend
 62
     7
370
     0
100
AcDbMText
 10
312.6454886195
 20
251.1553721993
 30
0.0
 40
3.0
 41
0.0
 71
     1
 72
     1
  1
72,5
  7
SLDTEXTSTYLE0
 73
     1
 44
1.0
  0
ENDBLK
  5
23D
330
23B
100
AcDbEntity
  8
0
100
AcDbBlockEnd
  0
BLOCK
  5
246
330
245
100
AcDbEntity
  8
0
100
AcDbBlockBegin
  2
_D_1
 70
     0
 10
0.0
 20
0.0
 30
0.0
  3
_D_1
  1

  0
SOLID
  5
248
330
245
100
AcDbEntity
  8
0
  6
SLD-Durchgehend
 62
     7
370
     0
100
AcDbTrace
 10
335.1203762006
 20
230.4200386934
 30
0.0
 11
338.6203762006
 21
229.9600386934
 31
0.0
 12
338.6203762006
 22
230.8800386934
 32
0.0
 13
338.6203762006
 23
230.8800386934
 33
0.0
  0
SOLID
  5
249
330
245
100
AcDbEntity
  8
0
  6
SLD-Durchgehend
 62
     7
370
     0
100
AcDbTrace
 10
354.1203762006
 20
230.4200386934
 30
0.0
 11
350.6203762006
 21
230.8800386934
 31
0.0
 12
350.6203762006
 22
229.9600386934
 32
0.0
 13
350.6203762006
 23
229.9600386934
 33
0.0
  0
LINE
  5
24A
330
245
100
AcDbEntity
  8
0
  6
SLD-Durchgehend
 62
     7
370
     0
100
AcDbLine
 10
335.1203762006
 20
207.435545539
 30
0.0
 11
335.1203762006
 21
231.4200386934
 31
0.0
  0
LINE
  5
24B
330
245
100
AcDbEntity
  8
0
  6
SLD-Durchgehend
 62
     7
370
     0
100
AcDbLine
 10
354.1203762006
 20
220.7730989579
 30
0.0
 11
354.1203762006
 21
231.4200386934
 31
0.0
  0
LINE
  5
24C
330
245
100
AcDbEntity
  8
0
  6
SLD-Durchgehend
 62
     7
370
     0
100
AcDbLine
 10
335.1203762006
 20
230.4200386934
 30
0.0
 11
354.1203762006
 21
230.4200386934
 31
0.0
  0
MTEXT
  5
24D
330
245
100
AcDbEntity
  8
0
  6
SLD-Durchgehend
 62
     7
370
     0
100
AcDbMText
 10
340.9002419482
 20
234.2872421456
 30
0.0
 40
3.0
 41
0.0
 71
     1
 72
     1
  1
19
  7
SLDTEXTSTYLE0
 73
     1
 44
1.0
  0
ENDBLK
  5
247
330
245
100
AcDbEntity
  8
0
100
AcDbBlockEnd
  0
BLOCK
  5
250
330
24F
100
AcDbEntity
  8
0
100
AcDbBlockBegin
  2
_D_2
 70
     0
 10
0.0
 20
0.0
 30
0.0
  3
_D_2
  1

  0
SOLID
  5
252
330
24F
100
AcDbEntity
  8
0
  6
SLD-Durchgehend
 62
     7
370
     0
100
AcDbTrace
 10
378.2350277161
 20
189.2730989579
 30
0.0
 11
378.6950277161
 21
192.7730989579
 31
0.0
 12
377.7750277161
 22
192.7730989579
 32
0.0
 13
377.7750277161
 23
192.7730989579
 33
0.0
  0
SOLID
  5
253
330
24F
100
AcDbEntity
  8
0
  6
SLD-Durchgehend
 62
     7
370
     0
100
AcDbTrace
 10
378.2350277161
 20
219.7730989579
 30
0.0
 11
377.7750277161
 21
216.2730989579
 31
0.0
 12
378.6950277161
 22
216.2730989579
 32
0.0
 13
378.6950277161
 23
216.2730989579
 33
0.0
  0
LINE
  5
254
330
24F
100
AcDbEntity
  8
0
  6
SLD-Durchgehend
 62
     7
370
     0
100
AcDbLine
 10
370.7170721985
 20
189.2730989579
 30
0.0
 11
379.2350277161
 21
189.2730989579
 31
0.0
  0
LINE
  5
255
330
24F
100
AcDbEntity
  8
0
  6
SLD-Durchgehend
 62
     7
370
     0
100
AcDbLine
 10
355.1203762006
 20
219.7730989579
 30
0.0
 11
379.2350277161
 21
219.7730989579
 31
0.0
  0
LINE
  5
256
330
24F
100
AcDbEntity
  8
0
  6
SLD-Durchgehend
 62
     7
370
     0
100
AcDbLine
 10
378.2350277161
 20
189.2730989579
 30
0.0
 11
378.2350277161
 21
219.7730989579
 31
0.0
  0
MTEXT
  5
257
330
24F
100
AcDbEntity
  8
0
  6
SLD-Durchgehend
 62
     7
370
     0
100
AcDbMText
 10
374.367824264
 20
199.1313229936
 30
0.0
 40
3.0
 41
0.0
 71
     1
 72
     1
  1
30,5
  7
SLDTEXTSTYLE0
 11
6.123233995736766E-17
 21
1.0
 31
0.0
 73
     1
 44
1.0
  0
ENDBLK
  5
251
330
24F
100
AcDbEntity
  8
0
100
AcDbBlockEnd
  0
BLOCK
  5
25A
330
259
100
AcDbEntity
  8
0
100
AcDbBlockBegin
  2
_D_3
 70
     0
 10
0.0
 20
0.0
 30
0.0
  3
_D_3
  1

  0
SOLID
  5
25C
330
259
100
AcDbEntity
  8
0
  6
SLD-Durchgehend
 62
     7
370
     0
100
AcDbTrace
 10
390.4509012902
 20
166.7730989579
 30
0.0
 11
390.9109012902
 21
170.2730989579
 31
0.0
 12
389.9909012902
 22
170.2730989579
 32
0.0
 13
389.9909012902
 23
170.2730989579
 33
0.0
  0
SOLID
  5
25D
330
259
100
AcDbEntity
  8
0
  6
SLD-Durchgehend
 62
     7
370
     0
100
AcDbTrace
 10
390.4509012902
 20
219.7730989579
 30
0.0
 11
389.9909012902
 21
216.2730989579
 31
0.0
 12
390.9109012902
 22
216.2730989579
 32
0.0
 13
390.9109012902
 23
216.2730989579
 33
0.0
  0
LINE
  5
25E
330
259
100
AcDbEntity
  8
0
  6
SLD-Durchgehend
 62
     7
370
     0
100
AcDbLine
 10
355.1203762006
 20
166.7730989579
 30
0.0
 11
391.4509012902
 21
166.7730989579
 31
0.0
  0
LINE
  5
25F
330
259
100
AcDbEntity
  8
0
  6
SLD-Durchgehend
 62
     7
370
     0
100
AcDbLine
 10
342.6203762006
 20
219.7730989579
 30
0.0
 11
391.4509012902
 21
219.7730989579
 31
0.0
  0
LINE
  5
260
330
259
100
AcDbEntity
  8
0
  6
SLD-Durchgehend
 62
     7
370
     0
100
AcDbLine
 10
390.4509012902
 20
166.7730989579
 30
0.0
 11
390.4509012902
 21
219.7730989579
 31
0.0
  0
MTEXT
  5
261
330
259
100
AcDbEntity
  8
0
  6
SLD-Durchgehend
 62
     7
370
     0
100
AcDbMText
 10
386.5836981873
 20
190.2421677762
 30
0.0
 40
3.0
 41
0.0
 71
     1
 72
     1
  1
%%c
  7
SLDTEXTSTYLE0
 11
6.123233995736766E-17
 21
1.0
 31
0.0
 73
     1
 44
1.0
  0
MTEXT
  5
262
330
259
100
AcDbEntity
  8
0
  6
SLD-Durchgehend
 62
     7
370
     0
100
AcDbMText
 10
386.5753648293
 20
194.6161261105
 30
0.0
 40
3.0
 41
0.0
 71
     1
 72
     1
  1
53
  7
SLDTEXTSTYLE0
 11
6.123233995736766E-17
 21
1.0
 31
0.0
 73
     1
 44
1.0
  0
ENDBLK
  5
25B
330
259
100
AcDbEntity
  8
0
100
AcDbBlockEnd
  0
BLOCK
  5
266
330
265
100
AcDbEntity
  8
0
100
AcDbBlockBegin
  2
_D_4
 70
     0
 10
0.0
 20
0.0
 30
0.0
  3
_D_4
  1

  0
SOLID
  5
268
330
265
100
AcDbEntity
  8
0
  6
SLD-Durchgehend
 62
     7
370
     0
100
AcDbTrace
 10
354.1203762006
 20
156.7730989579
 30
0.0
 11
350.6203762006
 21
157.2330989579
 31
0.0
 12
350.6203762006
 22
156.3130989579
 32
0.0
 13
350.6203762006
 23
156.3130989579
 33
0.0
  0
SOLID
  5
269
330
265
100
AcDbEntity
  8
0
  6
SLD-Durchgehend
 62
     7
370
     0
100
AcDbTrace
 10
341.7203762006
 20
156.7730989579
 30
0.0
 11
345.2203762006
 21
156.3130989579
 31
0.0
 12
345.2203762006
 22
157.2330989579
 32
0.0
 13
345.2203762006
 23
157.2330989579
 33
0.0
  0
LINE
  5
26A
330
265
100
AcDbEntity
  8
0
  6
SLD-Durchgehend
 62
     7
370
     0
100
AcDbLine
 10
354.1203762006
 20
168.8530989579
 30
0.0
 11
354.1203762006
 21
155.7730989579
 31
0.0
  0
LINE
  5
26B
330
265
100
AcDbEntity
  8
0
  6
SLD-Durchgehend
 62
     7
370
     0
100
AcDbLine
 10
341.7203762006
 20
182.2730989579
 30
0.0
 11
341.7203762006
 21
155.7730989579
 31
0.0
  0
LINE
  5
26C
330
265
100
AcDbEntity
  8
0
  6
SLD-Durchgehend
 62
     7
370
     0
100
AcDbLine
 10
354.1203762006
 20
156.7730989579
 30
0.0
 11
341.7203762006
 21
156.7730989579
 31
0.0
  0
MTEXT
  5
26D
330
265
100
AcDbEntity
  8
0
  6
SLD-Durchgehend
 62
     7
370
     0
100
AcDbMText
 10
344.8345276625
 20
160.64030241
 30
0.0
 40
3.0
 41
0.0
 71
     1
 72
     1
  1
12
  7
SLDTEXTSTYLE0
 73
     1
 44
1.0
  0
ENDBLK
  5
267
330
265
100
AcDbEntity
  8
0
100
AcDbBlockEnd
  0
BLOCK
  5
270
330
26F
100
AcDbEntity
  8
0
100
AcDbBlockBegin
  2
_D_5
 70
     0
 10
0.0
 20
0.0
 30
0.0
  3
_D_5
  1

  0
SOLID
  5
272
330
26F
100
AcDbEntity
  8
0
  6
SLD-Durchgehend
 62
     7
370
     0
100
AcDbTrace
 10
209.2203762006
 20
145.6358309479
 30
0.0
 11
212.7203762006
 21
145.1758309479
 31
0.0
 12
212.7203762006
 22
146.0958309479
 32
0.0
 13
212.7203762006
 23
146.0958309479
 33
0.0
  0
SOLID
  5
273
330
26F
100
AcDbEntity
  8
0
  6
SLD-Durchgehend
 62
     7
370
     0
100
AcDbTrace
 10
354.1203762006
 20
145.6358309479
 30
0.0
 11
350.6203762006
 21
146.0958309479
 31
0.0
 12
350.6203762006
 22
145.1758309479
 32
0.0
 13
350.6203762006
 23
145.1758309479
 33
0.0
  0
LINE
  5
274
330
26F
100
AcDbEntity
  8
0
  6
SLD-Durchgehend
 62
     7
370
     0
100
AcDbLine
 10
209.2203762006
 20
166.7730989579
 30
0.0
 11
209.2203762006
 21
144.6358309479
 31
0.0
  0
LINE
  5
275
330
26F
100
AcDbEntity
  8
0
  6
SLD-Durchgehend
 62
     7
370
     0
100
AcDbLine
 10
354.1203762006
 20
165.7730989579
 30
0.0
 11
354.1203762006
 21
144.6358309479
 31
0.0
  0
LINE
  5
276
330
26F
100
AcDbEntity
  8
0
  6
SLD-Durchgehend
 62
     7
370
     0
100
AcDbLine
 10
209.2203762006
 20
145.6358309479
 30
0.0
 11
354.1203762006
 21
145.6358309479
 31
0.0
  0
MTEXT
  5
277
330
26F
100
AcDbEntity
  8
0
  6
SLD-Durchgehend
 62
     7
370
     0
100
AcDbMText
 10
282.0663307139
 20
149.5030344001
 30
0.0
 40
3.0
 41
0.0
 71
     1
 72
     1
  1
145
  7
SLDTEXTSTYLE0
 73
     1
 44
1.0
  0
ENDBLK
  5
271
330
26F
100
AcDbEntity
  8
0
100
AcDbBlockEnd
  0
BLOCK
  5
27A
330
279
100
AcDbEntity
  8
0
100
AcDbBlockBegin
  2
_D_6
 70
     0
 10
0.0
 20
0.0
 30
0.0
  3
_D_6
  1

  0
SOLID
  5
27C
330
279
100
AcDbEntity
  8
0
  6
SLD-Durchgehend
 62
     7
370
     0
100
AcDbTrace
 10
161.2203762006
 20
134.0450632711
 30
0.0
 11
164.7203762006
 21
133.5850632711
 31
0.0
 12
164.7203762006
 22
134.5050632711
 32
0.0
 13
164.7203762006
 23
134.5050632711
 33
0.0
  0
SOLID
  5
27D
330
279
100
AcDbEntity
  8
0
  6
SLD-Durchgehend
 62
     7
370
     0
100
AcDbTrace
 10
354.1203762006
 20
134.0450632711
 30
0.0
 11
350.6203762006
 21
134.5050632711
 31
0.0
 12
350.6203762006
 22
133.5850632711
 32
0.0
 13
350.6203762006
 23
133.5850632711
 33
0.0
  0
LINE
  5
27E
330
279
100
AcDbEntity
  8
0
  6
SLD-Durchgehend
 62
     7
370
     0
100
AcDbLine
 10
161.2203762006
 20
184.7730989579
 30
0.0
 11
161.2203762006
 21
133.0450632711
 31
0.0
  0
LINE
  5
27F
330
279
100
AcDbEntity
  8
0
  6
SLD-Durchgehend
 62
     7
370
     0
100
AcDbLine
 10
354.1203762006
 20
165.7730989579
 30
0.0
 11
354.1203762006
 21
133.0450632711
 31
0.0
  0
LINE
  5
280
330
279
100
AcDbEntity
  8
0
  6
SLD-Durchgehend
 62
     7
370
     0
100
AcDbLine
 10
161.2203762006
 20
134.0450632711
 30
0.0
 11
354.1203762006
 21
134.0450632711
 31
0.0
  0
MTEXT
  5
281
330
279
100
AcDbEntity
  8
0
  6
SLD-Durchgehend
 62
     7
370
     0
100
AcDbMText
 10
279.6041487042
 20
137.9122667233
 30
0.0
 40
3.0
 41
0.0
 71
     1
 72
     1
  1
193
  7
SLDTEXTSTYLE0
 73
     1
 44
1.0
  0
ENDBLK
  5
27B
330
279
100
AcDbEntity
  8
0
100
AcDbBlockEnd
  0
BLOCK
  5
285
330
284
100
AcDbEntity
  8
0
100
AcDbBlockBegin
  2
_D_7
 70
     0
 10
0.0
 20
0.0
 30
0.0
  3
_D_7
  1

  0
SOLID
  5
287
330
284
100
AcDbEntity
  8
0
  6
SLD-Durchgehend
 62
     7
370
     0
100
AcDbTrace
 10
366.4154923621
 20
195.2730989579
 30
0.0
 11
366.8754923621
 21
198.7730989579
 31
0.0
 12
365.9554923621
 22
198.7730989579
 32
0.0
 13
365.9554923621
 23
198.7730989579
 33
0.0
  0
SOLID
  5
288
330
284
100
AcDbEntity
  8
0
  6
SLD-Durchgehend
 62
     7
370
     0
100
AcDbTrace
 10
366.4154923621
 20
183.2730989579
 30
0.0
 11
365.9554923621
 21
179.7730989579
 31
0.0
 12
366.8754923621
 22
179.7730989579
 32
0.0
 13
366.8754923621
 23
179.7730989579
 33
0.0
  0
LINE
  5
289
330
284
100
AcDbEntity
  8
0
  6
SLD-Durchgehend
 62
     7
370
     0
100
AcDbLine
 10
354.7203762006
 20
195.2730989579
 30
0.0
 11
367.4154923621
 21
195.2730989579
 31
0.0
  0
LINE
  5
28A
330
284
100
AcDbEntity
  8
0
  6
SLD-Durchgehend
 62
     7
370
     0
100
AcDbLine
 10
354.7203762006
 20
183.2730989579
 30
0.0
 11
367.4154923621
 21
183.2730989579
 31
0.0
  0
LINE
  5
28B
330
284
100
AcDbEntity
  8
0
  6
SLD-Durchgehend
 62
     7
370
     0
100
AcDbLine
 10
366.4154923621
 20
195.2730989579
 30
0.0
 11
366.4154923621
 21
200.2730989579
 31
0.0
  0
LINE
  5
28C
330
284
100
AcDbEntity
  8
0
  6
SLD-Durchgehend
 62
     7
370
     0
100
AcDbLine
 10
366.4154923621
 20
195.2730989579
 30
0.0
 11
366.4154923621
 21
183.2730989579
 31
0.0
  0
LINE
  5
28D
330
284
100
AcDbEntity
  8
0
  6
SLD-Durchgehend
 62
     7
370
     0
100
AcDbLine
 10
366.4154923621
 20
183.2730989579
 30
0.0
 11
366.4154923621
 21
178.2730989579
 31
0.0
  0
MTEXT
  5
28E
330
284
100
AcDbEntity
  8
0
  6
SLD-Durchgehend
 62
     7
370
     0
100
AcDbMText
 10
362.5482889099
 20
185.7809798702
 30
0.0
 40
3.0
 41
0.0
 71
     1
 72
     1
  1
M
  7
SLDTEXTSTYLE0
 11
-7.044195017643634E-15
 21
1.0
 31
0.0
 73
     1
 44
1.0
  0
MTEXT
  5
28F
330
284
100
AcDbEntity
  8
0
  6
SLD-Durchgehend
 62
     7
370
     0
100
AcDbMText
 10
362.5482889099
 20
189.2143131144
 30
0.0
 40
3.0
 41
0.0
 71
     1
 72
     1
  1
12
  7
SLDTEXTSTYLE0
 11
-7.044195017643634E-15
 21
1.0
 31
0.0
 73
     1
 44
1.0
  0
ENDBLK
  5
286
330
284
100
AcDbEntity
  8
0
100
AcDbBlockEnd
  0
BLOCK
  5
2A7
330
2A6
100
AcDbEntity
  8
0
100
AcDbBlockBegin
  2
_D_8
 70
     0
 10
0.0
 20
0.0
 30
0.0
  3
_D_8
  1

  0
SOLID
  5
2A9
330
2A6
100
AcDbEntity
  8
0
  6
SLD-Durchgehend
 62
     7
370
     0
100
AcDbTrace
 10
84.7561440189
 20
156.7730989579
 30
0.0
 11
81.2561440189
 21
157.2330989579
 31
0.0
 12
81.2561440189
 22
156.3130989579
 32
0.0
 13
81.2561440189
 23
156.3130989579
 33
0.0
  0
SOLID
  5
2AA
330
2A6
100
AcDbEntity
  8
0
  6
SLD-Durchgehend
 62
     7
370
     0
100
AcDbTrace
 10
89.7561440189
 20
156.7730989579
 30
0.0
 11
93.2561440189
 21
156.3130989579
 31
0.0
 12
93.2561440189
 22
157.2330989579
 32
0.0
 13
93.2561440189
 23
157.2330989579
 33
0.0
  0
LINE
  5
2AB
330
2A6
100
AcDbEntity
  8
0
  6
SLD-Durchgehend
 62
     7
370
     0
100
AcDbLine
 10
84.7561440189
 20
173.7730989579
 30
0.0
 11
84.7561440189
 21
155.7730989579
 31
0.0
  0
LINE
  5
2AC
330
2A6
100
AcDbEntity
  8
0
  6
SLD-Durchgehend
 62
     7
370
     0
100
AcDbLine
 10
89.7561440189
 20
173.7730989579
 30
0.0
 11
89.7561440189
 21
155.7730989579
 31
0.0
  0
LINE
  5
2AD
330
2A6
100
AcDbEntity
  8
0
  6
SLD-Durchgehend
 62
     7
370
     0
100
AcDbLine
 10
84.7561440189
 20
156.7730989579
 30
0.0
 11
79.7561440189
 21
156.7730989579
 31
0.0
  0
LINE
  5
2AE
330
2A6
100
AcDbEntity
  8
0
  6
SLD-Durchgehend
 62
     7
370
     0
100
AcDbLine
 10
84.7561440189
 20
156.7730989579
 30
0.0
 11
89.7561440189
 21
156.7730989579
 31
0.0
  0
LINE
  5
2AF
330
2A6
100
AcDbEntity
  8
0
  6
SLD-Durchgehend
 62
     7
370
     0
100
AcDbLine
 10
89.7561440189
 20
156.7730989579
 30
0.0
 11
99.659743109
 21
156.7730989579
 31
0.0
  0
MTEXT
  5
2B0
330
2A6
100
AcDbEntity
  8
0
  6
SLD-Durchgehend
 62
     7
370
     0
100
AcDbMText
 10
91.4094804508
 20
160.6403022936
 30
0.0
 40
3.0
 41
0.0
 71
     1
 72
     1
  1
%%c
  7
SLDTEXTSTYLE0
 73
     1
 44
1.0
  0
MTEXT
  5
2B1
330
2A6
100
AcDbEntity
  8
0
  6
SLD-Durchgehend
 62
     7
370
     0
100
AcDbMText
 10
95.7810196913
 20
160.64030241
 30
0.0
 40
3.0
 41
0.0
 71
     1
 72
     1
  1
5
  7
SLDTEXTSTYLE0
 73
     1
 44
1.0
  0
ENDBLK
  5
2A8
330
2A6
100
AcDbEntity
  8
0
100
AcDbBlockEnd
  0
BLOCK
  5
2B4
330
2B3
100
AcDbEntity
  8
0
100
AcDbBlockBegin
  2
_D_9
 70
     0
 10
0.0
 20
0.0
 30
0.0
  3
_D_9
  1

  0
SOLID
  5
2B6
330
2B3
100
AcDbEntity
  8
0
  6
SLD-Durchgehend
 62
     7
370
     0
100
AcDbTrace
 10
64.2561440189
 20
142.7730989579
 30
0.0
 11
67.7561440189
 21
142.3130989579
 31
0.0
 12
67.7561440189
 22
143.2330989579
 32
0.0
 13
67.7561440189
 23
143.2330989579
 33
0.0
  0
SOLID
  5
2B7
330
2B3
100
AcDbEntity
  8
0
  6
SLD-Durchgehend
 62
     7
370
     0
100
AcDbTrace
 10
110.2561440189
 20
142.7730989579
 30
0.0
 11
106.7561440189
 21
143.2330989579
 31
0.0
 12
106.7561440189
 22
142.3130989579
 32
0.0
 13
106.7561440189
 23
142.3130989579
 33
0.0
  0
LINE
  5
2B8
330
2B3
100
AcDbEntity
  8
0
  6
SLD-Durchgehend
 62
     7
370
     0
100
AcDbLine
 10
64.2561440189
 20
179.1106523768
 30
0.0
 11
64.2561440189
 21
141.7730989579
 31
0.0
  0
LINE
  5
2B9
330
2B3
100
AcDbEntity
  8
0
  6
SLD-Durchgehend
 62
     7
370
     0
100
AcDbLine
 10
110.2561440189
 20
179.1106523768
 30
0.0
 11
110.2561440189
 21
141.7730989579
 31
0.0
  0
LINE
  5
2BA
330
2B3
100
AcDbEntity
  8
0
  6
SLD-Durchgehend
 62
     7
370
     0
100
AcDbLine
 10
64.2561440189
 20
142.7730989579
 30
0.0
 11
110.2561440189
 21
142.7730989579
 31
0.0
  0
MTEXT
  5
2BB
330
2B3
100
AcDbEntity
  8
0
  6
SLD-Durchgehend
 62
     7
370
     0
100
AcDbMText
 10
80.3794507247
 20
146.64030241
 30
0.0
 40
3.0
 41
0.0
 71
     1
 72
     1
  1
SW
  7
SLDTEXTSTYLE0
 73
     1
 44
1.0
  0
MTEXT
  5
2BC
330
2B3
100
AcDbEntity
  8
0
  6
SLD-Durchgehend
 62
     7
370
     0
100
AcDbMText
 10
87.016648826
 20
146.64030241
 30
0.0
 40
3.0
 41
0.0
 71
     1
 72
     1
  1
46
  7
SLDTEXTSTYLE0
 73
     1
 44
1.0
  0
ENDBLK
  5
2B5
330
2B3
100
AcDbEntity
  8
0
100
AcDbBlockEnd
  0
BLOCK
  5
2BF
330
2BE
100
AcDbEntity
  8
0
100
AcDbBlockBegin
  2
_D_10
 70
     0
 10
0.0
 20
0.0
 30
0.0
  3
_D_10
  1

  0
SOLID
  5
2C1
330
2BE
100
AcDbEntity
  8
0
  6
SLD-Durchgehend
 62
     7
370
     0
100
AcDbTrace
 10
56.2915321785
 20
203.7730989579
 30
0.0
 11
55.8315321785
 21
200.2730989579
 31
0.0
 12
56.7515321785
 22
200.2730989579
 32
0.0
 13
56.7515321785
 23
200.2730989579
 33
0.0
  0
SOLID
  5
2C2
330
2BE
100
AcDbEntity
  8
0
  6
SLD-Durchgehend
 62
     7
370
     0
100
AcDbTrace
 10
56.2915321785
 20
174.7730989579
 30
0.0
 11
56.7515321785
 21
178.2730989579
 31
0.0
 12
55.8315321785
 22
178.2730989579
 32
0.0
 13
55.8315321785
 23
178.2730989579
 33
0.0
  0
LINE
  5
2C3
330
2BE
100
AcDbEntity
  8
0
  6
SLD-Durchgehend
 62
     7
370
     0
100
AcDbLine
 10
82.7561440189
 20
203.7730989579
 30
0.0
 11
55.2915321785
 21
203.7730989579
 31
0.0
  0
LINE
  5
2C4
330
2BE
100
AcDbEntity
  8
0
  6
SLD-Durchgehend
 62
     7
370
     0
100
AcDbLine
 10
82.7561440189
 20
174.7730989579
 30
0.0
 11
55.2915321785
 21
174.7730989579
 31
0.0
  0
LINE
  5
2C5
330
2BE
100
AcDbEntity
  8
0
  6
SLD-Durchgehend
 62
     7
370
     0
100
AcDbLine
 10
56.2915321785
 20
203.7730989579
 30
0.0
 11
56.2915321785
 21
174.7730989579
 31
0.0
  0
MTEXT
  5
2C6
330
2BE
100
AcDbEntity
  8
0
  6
SLD-Durchgehend
 62
     7
370
     0
100
AcDbMText
 10
52.4243287263
 20
188.7698155384
 30
0.0
 40
3.0
 41
0.0
 71
     1
 72
     1
  1
29
  7
SLDTEXTSTYLE0
 11
-7.044195017643634E-15
 21
1.0
 31
0.0
 73
     1
 44
1.0
  0
ENDBLK
  5
2C0
330
2BE
100
AcDbEntity
  8
0
100
AcDbBlockEnd
  0
BLOCK
  5
2C8
330
2C7
100
AcDbEntity
  8
0
100
AcDbBlockBegin
  2
SW_CENTERMARKSYMBOL_0
 70
     0
 10
0.0
 20
0.0
 30
0.0
  3
SW_CENTERMARKSYMBOL_0
  1

  0
LINE
  5
2CA
330
2C7
100
AcDbEntity
  8
0
  6
SLD-Durchgehend
 62
     0
370
     0
100
AcDbLine
 10
0.0
 20
0.0
 30
0.0
 11
0.0
 21
1.0
 31
0.0
  0
LINE
  5
2CB
330
2C7
100
AcDbEntity
  8
0
  6
SLD-Durchgehend
 62
     0
370
     0
100
AcDbLine
 10
0.0
 20
0.0
 30
0.0
 11
-1.0
 21
0.0
 31
0.0
  0
LINE
  5
2CC
330
2C7
100
AcDbEntity
  8
0
  6
SLD-Durchgehend
 62
     0
370
     0
100
AcDbLine
 10
0.0
 20
0.0
 30
0.0
 11
0.0
 21
-1.0
 31
0.0
  0
LINE
  5
2CD
330
2C7
100
AcDbEntity
  8
0
  6
SLD-Durchgehend
 62
     0
370
     0
100
AcDbLine
 10
0.0
 20
0.0
 30
0.0
 11
1.0
 21
0.0
 31
0.0
  0
LINE
  5
2CE
330
2C7
100
AcDbEntity
  8
0
  6
SLD-Durchgehend
 62
     0
370
     0
100
AcDbLine
 10
0.0
 20
2.0
 30
0.0
 11
0.0
 21
3.5
 31
0.0
  0
LINE
  5
2CF
330
2C7
100
AcDbEntity
  8
0
  6
SLD-Durchgehend
 62
     0
370
     0
100
AcDbLine
 10
-2.0
 20
0.0
 30
0.0
 11
-3.5
 21
0.0
 31
0.0
  0
LINE
  5
2D0
330
2C7
100
AcDbEntity
  8
0
  6
SLD-Durchgehend
 62
     0
370
     0
100
AcDbLine
 10
0.0
 20
-2.0
 30
0.0
 11
0.0
 21
-3.5
 31
0.0
  0
LINE
  5
2D1
330
2C7
100
AcDbEntity
  8
0
  6
SLD-Durchgehend
 62
     0
370
     0
100
AcDbLine
 10
2.0
 20
0.0
 30
0.0
 11
3.5
 21
0.0
 31
0.0
  0
ENDBLK
  5
2C9
330
2C7
100
AcDbEntity
  8
0
100
AcDbBlockEnd
  0
BLOCK
  5
2D4
330
2D3
100
AcDbEntity
  8
0
100
AcDbBlockBegin
  2
SW_CENTERMARKSYMBOL_1
 70
     0
 10
0.0
 20
0.0
 30
0.0
  3
SW_CENTERMARKSYMBOL_1
  1

  0
LINE
  5
2D6
330
2D3
100
AcDbEntity
  8
0
  6
SLD-Durchgehend
 62
     0
370
     0
100
AcDbLine
 10
0.0
 20
0.0
 30
0.0
 11
0.0
 21
1.0
 31
0.0
  0
LINE
  5
2D7
330
2D3
100
AcDbEntity
  8
0
  6
SLD-Durchgehend
 62
     0
370
     0
100
AcDbLine
 10
0.0
 20
0.0
 30
0.0
 11
-1.0
 21
0.0
 31
0.0
  0
LINE
  5
2D8
330
2D3
100
AcDbEntity
  8
0
  6
SLD-Durchgehend
 62
     0
370
     0
100
AcDbLine
 10
0.0
 20
0.0
 30
0.0
 11
0.0
 21
-1.0
 31
0.0
  0
LINE
  5
2D9
330
2D3
100
AcDbEntity
  8
0
  6
SLD-Durchgehend
 62
     0
370
     0
100
AcDbLine
 10
0.0
 20
0.0
 30
0.0
 11
1.0
 21
0.0
 31
0.0
  0
LINE
  5
2DA
330
2D3
100
AcDbEntity
  8
0
  6
SLD-Durchgehend
 62
     0
370
     0
100
AcDbLine
 10
0.0
 20
2.0
 30
0.0
 11
0.0
 21
6.1
 31
0.0
  0
LINE
  5
2DB
330
2D3
100
AcDbEntity
  8
0
  6
SLD-Durchgehend
 62
     0
370
     0
100
AcDbLine
 10
-2.0
 20
0.0
 30
0.0
 11
-6.1
 21
0.0
 31
0.0
  0
LINE
  5
2DC
330
2D3
100
AcDbEntity
  8
0
  6
SLD-Durchgehend
 62
     0
370
     0
100
AcDbLine
 10
0.0
 20
-2.0
 30
0.0
 11
0.0
 21
-6.1
 31
0.0
  0
LINE
  5
2DD
330
2D3
100
AcDbEntity
  8
0
  6
SLD-Durchgehend
 62
     0
370
     0
100
AcDbLine
 10
2.0
 20
0.0
 30
0.0
 11
6.1
 21
0.0
 31
0.0
  0
ENDBLK
  5
2D5
330
2D3
100
AcDbEntity
  8
0
100
AcDbBlockEnd
  0
BLOCK
  5
2E0
330
2DF
100
AcDbEntity
  8
0
100
AcDbBlockBegin
  2
SW_CENTERMARKSYMBOL_2
 70
     0
 10
0.0
 20
0.0
 30
0.0
  3
SW_CENTERMARKSYMBOL_2
  1

  0
LINE
  5
2E2
330
2DF
100
AcDbEntity
  8
0
  6
SLD-Durchgehend
 62
     0
370
     0
100
AcDbLine
 10
0.0
 20
0.0
 30
0.0
 11
0.0
 21
1.0
 31
0.0
  0
LINE
  5
2E3
330
2DF
100
AcDbEntity
  8
0
  6
SLD-Durchgehend
 62
     0
370
     0
100
AcDbLine
 10
0.0
 20
0.0
 30
0.0
 11
-1.0
 21
0.0
 31
0.0
  0
LINE
  5
2E4
330
2DF
100
AcDbEntity
  8
0
  6
SLD-Durchgehend
 62
     0
370
     0
100
AcDbLine
 10
0.0
 20
0.0
 30
0.0
 11
0.0
 21
-1.0
 31
0.0
  0
LINE
  5
2E5
330
2DF
100
AcDbEntity
  8
0
  6
SLD-Durchgehend
 62
     0
370
     0
100
AcDbLine
 10
0.0
 20
0.0
 30
0.0
 11
1.0
 21
0.0
 31
0.0
  0
LINE
  5
2E6
330
2DF
100
AcDbEntity
  8
0
  6
SLD-Durchgehend
 62
     0
370
     0
100
AcDbLine
 10
0.0
 20
2.0
 30
0.0
 11
0.0
 21
3.5
 31
0.0
  0
LINE
  5
2E7
330
2DF
100
AcDbEntity
  8
0
  6
SLD-Durchgehend
 62
     0
370
     0
100
AcDbLine
 10
-2.0
 20
0.0
 30
0.0
 11
-3.5
 21
0.0
 31
0.0
  0
LINE
  5
2E8
330
2DF
100
AcDbEntity
  8
0
  6
SLD-Durchgehend
 62
     0
370
     0
100
AcDbLine
 10
0.0
 20
-2.0
 30
0.0
 11
0.0
 21
-3.5
 31
0.0
  0
LINE
  5
2E9
330
2DF
100
AcDbEntity
  8
0
  6
SLD-Durchgehend
 62
     0
370
     0
100
AcDbLine
 10
2.0
 20
0.0
 30
0.0
 11
3.5
 21
0.0
 31
0.0
  0
ENDBLK
  5
2E1
330
2DF
100
AcDbEntity
  8
0
100
AcDbBlockEnd
  0
ENDSEC
  0
SECTION
  2
ENTITIES
  0
HATCH
  5
9F
330
1F
100
AcDbEntity
  8
0
  6
Continuous
 62
    52
100
AcDbHatch
 10
0.0
 20
0.0
 30
0.0
210
0.0
220
0.0
230
1.0
  2
SOLID
 70
     1
 71
     0
 91
        1
 92
        0
 93
        6
 72
     2
 10
397.2166905884209
 20
27.19368183392314
 40
9.336383935046287
 50
28.83743273930608
 51
198.8193368338523
 73
     1
 72
     1
 10
388.3794255903911
 20
24.18190290159952
 11
388.7816097341537
 21
24.18190290159952
 72
     1
 10
388.7816097341537
 20
24.18190290159952
 11
390.8103449730125
 21
31.54854125382066
 72
     1
 10
390.8103449730125
 20
31.54854125382066
 11
392.6133250240622
 21
31.54854125382066
 72
     2
 10
398.3341692458886
 20
29.54038196427235
 40
6.063065424569007
 50
199.3423480985319
 51
339.1651749394908
 73
     0
 72
     1
 10
404.0007687940603
 20
31.69686333522489
 11
405.3952859047894
 21
31.69686333522489
 97
        0
 75
     0
 76
     1
 98
        1
 10
0.0
 20
0.0
  0
HATCH
  5
A0
330
1F
100
AcDbEntity
  8
0
  6
Continuous
 62
     7
100
AcDbHatch
 10
0.0
 20
0.0
 30
0.0
210
0.0
220
0.0
230
1.0
  2
SOLID
 70
     1
 71
     0
 91
        2
 92
        0
 93
        6
 72
     1
 10
390.9093832949075
 20
31.41854125382065
 11
392.7062226385282
 21
31.41854125382066
 72
     2
 10
398.3341692458886
 20
29.54038196427235
 40
5.933065424568984
 50
198.4548941224166
 51
340.0282228512785
 73
     0
 72
     1
 10
403.9104259280544
 20
31.56686333522489
 11
405.6123864120185
 21
31.56686333522489
 72
     2
 10
397.2166905884209
 20
27.19368183392314
 40
9.46638393504625
 50
27.51427472226174
 51
199.3834076115143
 73
     1
 72
     1
 10
388.2868725641771
 20
24.05190290159952
 11
388.8806480560487
 21
24.05190290159952
 72
     1
 10
388.8806480560487
 20
24.05190290159952
 11
390.9093832949075
 21
31.41854125382065
 97
        0
 92
        0
 93
        6
 72
     1
 10
388.7816097341537
 20
24.18190290159952
 11
388.3794255903911
 21
24.18190290159952
 72
     2
 10
397.2166905884209
 20
27.19368183392314
 40
9.336383935046287
 50
161.1806631661485
 51
331.1625672606947
 73
     0
 72
     1
 10
405.3952859047894
 20
31.69686333522489
 11
404.0007687940603
 21
31.69686333522489
 72
     2
 10
398.3341692458886
 20
29.54038196427235
 40
6.063065424569007
 50
20.83482506051003
 51
160.6576519014689
 73
     1
 72
     1
 10
392.6133250240622
 20
31.54854125382066
 11
390.8103449730125
 21
31.54854125382066
 72
     1
 10
390.8103449730125
 20
31.54854125382066
 11
388.7816097341537
 21
24.18190290159952
 97
        0
 75
     0
 76
     1
 98
        1
 10
0.0
 20
0.0
  0
HATCH
  5
A1
330
1F
100
AcDbEntity
  8
0
  6
Continuous
 62
     7
100
AcDbHatch
 10
0.0
 20
0.0
 30
0.0
210
0.0
220
0.0
230
1.0
  2
SOLID
 70
     1
 71
     0
 91
        1
 92
        0
 93
       10
 72
     1
 10
391.2557525416791
 20
31.17133921476775
 11
389.4249433061572
 21
24.10134359540109
 72
     1
 10
389.4249433061572
 20
24.10134359540109
 11
391.9979725360537
 21
24.1013435954011
 72
     1
 10
391.9979725360537
 20
24.1013435954011
 11
392.9875987755306
 21
27.90826414852661
 72
     1
 10
392.9875987755306
 20
27.90826414852661
 11
394.5215202651154
 21
24.1013435954011
 72
     1
 10
394.5215202651154
 20
24.1013435954011
 11
397.1935124966802
 21
24.1013435954011
 72
     1
 10
397.1935124966802
 20
24.1013435954011
 11
398.8758772296985
 21
31.07245782716463
 72
     1
 10
398.8758772296985
 20
31.07245782716463
 11
396.4512925023055
 21
31.07245782716464
 72
     1
 10
396.4512925023055
 20
31.07245782716464
 11
395.5606280054266
 21
27.16665660141341
 72
     1
 10
395.5606280054266
 20
27.16665660141341
 11
393.8782632724091
 21
31.17133921476775
 72
     1
 10
393.8782632724091
 20
31.17133921476775
 11
391.2557525416791
 21
31.17133921476775
 97
        0
 75
     0
 76
     1
 98
        1
 10
0.0
 20
0.0
  0
HATCH
  5
A2
330
1F
100
AcDbEntity
  8
0
  6
Continuous
 62
     7
100
AcDbHatch
 10
0.0
 20
0.0
 30
0.0
210
0.0
220
0.0
230
1.0
  2
SOLID
 70
     1
 71
     0
 91
        2
 92
        0
 93
        3
 72
     1
 10
393.1360432780339
 20
26.32616695171928
 11
392.5549013500252
 21
24.05190290159952
 72
     1
 10
392.5549013500252
 20
24.05190290159952
 11
394.0761880166766
 21
24.05190290159953
 72
     1
 10
394.0761880166766
 20
24.05190290159953
 11
393.1360432780339
 21
26.32616695171928
 97
        0
 92
        0
 93
        3
 72
     1
 10
393.8817783160101
 20
24.18190290159952
 11
392.7222972997866
 21
24.18190290159952
 72
     1
 10
392.7222972997866
 20
24.18190290159952
 11
393.1652269908361
 21
25.91528165906799
 72
     1
 10
393.1652269908361
 20
25.91528165906799
 11
393.8817783160101
 21
24.18190290159952
 97
        0
 75
     0
 76
     1
 98
        1
 10
0.0
 20
0.0
  0
HATCH
  5
A3
330
1F
100
AcDbEntity
  8
0
  6
Continuous
 62
    52
100
AcDbHatch
 10
0.0
 20
0.0
 30
0.0
210
0.0
220
0.0
230
1.0
  2
SOLID
 70
     1
 71
     0
 91
        1
 92
        0
 93
        3
 72
     1
 10
393.1652269908361
 20
25.91528165906799
 11
392.7222972997866
 21
24.18190290159952
 72
     1
 10
392.7222972997866
 20
24.18190290159952
 11
393.8817783160101
 21
24.18190290159952
 72
     1
 10
393.8817783160101
 20
24.18190290159952
 11
393.1652269908361
 21
25.91528165906799
 97
        0
 75
     0
 76
     1
 98
        1
 10
0.0
 20
0.0
  0
HATCH
  5
A4
330
1F
100
AcDbEntity
  8
0
  6
Continuous
 62
     7
100
AcDbHatch
 10
0.0
 20
0.0
 30
0.0
210
0.0
220
0.0
230
1.0
  2
SOLID
 70
     1
 71
     0
 91
        1
 92
        0
 93
        8
 72
     1
 10
399.4696539806409
 20
31.12189852096661
 11
398.7274339862658
 21
28.25434757518244
 72
     1
 10
398.7274339862658
 20
28.25434757518244
 11
399.1727662347047
 21
24.00246292277559
 72
     1
 10
399.1727662347047
 20
24.00246292277559
 11
402.3395709564733
 21
24.00246292277558
 72
     1
 10
402.3395709564733
 20
24.00246292277558
 11
406.5454846776286
 21
31.07245782718087
 72
     1
 10
406.5454846776286
 20
31.07245782718087
 11
403.7745294443889
 21
31.07245782718088
 72
     1
 10
403.7745294443889
 20
31.07245782718088
 11
401.5478694612618
 21
27.06777521384519
 72
     1
 10
401.5478694612618
 20
27.06777521384519
 11
401.0530569710604
 21
31.12189852096661
 72
     1
 10
401.0530569710604
 20
31.12189852096661
 11
399.4696539806409
 21
31.12189852096661
 97
        0
 75
     0
 76
     1
 98
        1
 10
0.0
 20
0.0
  0
HATCH
  5
A5
330
1F
100
AcDbEntity
  8
0
  6
Continuous
 62
     7
100
AcDbHatch
 10
0.0
 20
0.0
 30
0.0
210
0.0
220
0.0
230
1.0
  2
SOLID
 70
     1
 71
     0
 91
        2
 92
        0
 93
        3
 72
     2
 10
398.60159497708
 20
26.88049322517953
 40
8.003675602344106
 50
339.303884922883
 51
377.0191257258722
 73
     1
 72
     1
 10
406.2547664701381
 20
29.22309631691353
 11
403.0323094500141
 21
24.05190290159948
 72
     1
 10
403.0323094500141
 20
24.05190290159948
 11
406.0887773529079
 21
24.05190290159952
 97
        0
 92
        0
 93
        3
 72
     1
 10
403.2664948845861
 20
24.18190290159952
 11
406.2102984795193
 21
28.90593107979708
 72
     2
 10
398.60159497708
 20
26.88049322517953
 40
7.873675602344119
 50
345.0935417050616
 51
380.0436402959713
 73
     0
 72
     1
 10
405.99837655804
 20
24.18190290159952
 11
403.2664948845861
 21
24.18190290159952
 97
        0
 75
     0
 76
     1
 98
        1
 10
0.0
 20
0.0
  0
HATCH
  5
A6
330
1F
100
AcDbEntity
  8
0
  6
Continuous
 62
    52
100
AcDbHatch
 10
0.0
 20
0.0
 30
0.0
210
0.0
220
0.0
230
1.0
  2
SOLID
 70
     1
 71
     0
 91
        1
 92
        0
 93
        3
 72
     2
 10
398.60159497708
 20
26.88049322517953
 40
7.873675602344119
 50
339.9563597040303
 51
374.90645829494
 73
     1
 72
     1
 10
406.2102984795193
 20
28.90593107979708
 11
403.2664948845861
 21
24.18190290159952
 72
     1
 10
403.2664948845861
 20
24.18190290159952
 11
405.99837655804
 21
24.18190290159952
 97
        0
 75
     0
 76
     1
 98
        1
 10
0.0
 20
0.0
  0
LINE
  5
A7
330
1F
100
AcDbEntity
  8
0
  6
SLD-Durchgehend
 62
     7
370
     0
100
AcDbLine
 10
222.0
 20
45.0
 30
0.0
 11
222.0
 21
10.0
 31
0.0
  0
LINE
  5
A8
330
1F
100
AcDbEntity
  8
0
  6
SLD-Durchgehend
 62
     7
370
     0
100
AcDbLine
 10
410.0
 20
65.0
 30
0.0
 11
410.0
 21
10.0
 31
0.0
  0
LINE
  5
A9
330
1F
100
AcDbEntity
  8
0
  6
SLD-Durchgehend
 62
     7
370
     0
100
AcDbLine
 10
222.0
 20
10.0
 30
0.0
 11
410.0
 21
10.0
 31
0.0
  0
LINE
  5
AA
330
1F
100
AcDbEntity
  8
0
  6
SLD-Durchgehend
 62
     7
370
     0
100
AcDbLine
 10
222.0
 20
10.0
 30
0.0
 11
410.0
 21
10.0
 31
0.0
  0
LINE
  5
AB
330
1F
100
AcDbEntity
  8
0
  6
SLD-Durchgehend
 62
     7
370
     0
100
AcDbLine
 10
410.0
 20
45.0
 30
0.0
 11
410.0
 21
10.0
 31
0.0
  0
LINE
  5
AC
330
1F
100
AcDbEntity
  8
0
  6
SLD-Durchgehend
 62
     7
370
     0
100
AcDbLine
 10
222.0
 20
45.0
 30
0.0
 11
410.0
 21
45.0
 31
0.0
  0
LINE
  5
AD
330
1F
100
AcDbEntity
  8
0
  6
SLD-Durchgehend
 62
     7
370
     0
100
AcDbLine
 10
345.0
 20
45.0
 30
0.0
 11
345.0
 21
10.0
 31
0.0
  0
LINE
  5
AE
330
1F
100
AcDbEntity
  8
0
  6
SLD-Durchgehend
 62
     7
370
     0
100
AcDbLine
 10
274.0
 20
45.0
 30
0.0
 11
274.0
 21
10.0
 31
0.0
  0
LINE
  5
AF
330
1F
100
AcDbEntity
  8
0
  6
SLD-Durchgehend
 62
     7
370
     0
100
AcDbLine
 10
222.0
 20
24.5
 30
0.0
 11
274.0
 21
24.5
 31
0.0
  0
LINE
  5
B0
330
1F
100
AcDbEntity
  8
0
  6
SLD-Durchgehend
 62
     7
370
     0
100
AcDbLine
 10
222.0
 20
17.25
 30
0.0
 11
274.0
 21
17.25
 31
0.0
  0
LINE
  5
B1
330
1F
100
AcDbEntity
  8
0
  6
SLD-Durchgehend
 62
     7
370
     0
100
AcDbLine
 10
388.2868725642
 20
24.0519029016
 30
0.0
 11
388.880648056
 21
24.0519029016
 31
0.0
  0
LINE
  5
B2
330
1F
100
AcDbEntity
  8
0
  6
SLD-Durchgehend
 62
     7
370
     0
100
AcDbLine
 10
388.880648056
 20
24.0519029016
 30
0.0
 11
390.9093832949
 21
31.4185412538
 31
0.0
  0
LINE
  5
B3
330
1F
100
AcDbEntity
  8
0
  6
SLD-Durchgehend
 62
     7
370
     0
100
AcDbLine
 10
390.9093832949
 20
31.4185412538
 30
0.0
 11
392.7062226385
 21
31.4185412538
 31
0.0
  0
LINE
  5
B4
330
1F
100
AcDbEntity
  8
0
  6
SLD-Durchgehend
 62
     7
370
     0
100
AcDbLine
 10
403.9104259281
 20
31.5668633352
 30
0.0
 11
405.612386412
 21
31.5668633352
 31
0.0
  0
LINE
  5
B5
330
1F
100
AcDbEntity
  8
0
  6
SLD-Durchgehend
 62
     7
370
     0
100
AcDbLine
 10
391.2557525417
 20
31.1713392148
 30
0.0
 11
393.8782632724
 21
31.1713392148
 31
0.0
  0
LINE
  5
B6
330
1F
100
AcDbEntity
  8
0
  6
SLD-Durchgehend
 62
     7
370
     0
100
AcDbLine
 10
393.8782632724
 20
31.1713392148
 30
0.0
 11
395.5606280054
 21
27.1666566014
 31
0.0
  0
LINE
  5
B7
330
1F
100
AcDbEntity
  8
0
  6
SLD-Durchgehend
 62
     7
370
     0
100
AcDbLine
 10
395.5606280054
 20
27.1666566014
 30
0.0
 11
396.4512925023
 21
31.0724578272
 31
0.0
  0
LINE
  5
B8
330
1F
100
AcDbEntity
  8
0
  6
SLD-Durchgehend
 62
     7
370
     0
100
AcDbLine
 10
396.4512925023
 20
31.0724578272
 30
0.0
 11
398.8758772297
 21
31.0724578272
 31
0.0
  0
LINE
  5
B9
330
1F
100
AcDbEntity
  8
0
  6
SLD-Durchgehend
 62
     7
370
     0
100
AcDbLine
 10
398.8758772297
 20
31.0724578272
 30
0.0
 11
397.1935124967
 21
24.1013435954
 31
0.0
  0
LINE
  5
BA
330
1F
100
AcDbEntity
  8
0
  6
SLD-Durchgehend
 62
     7
370
     0
100
AcDbLine
 10
397.1935124967
 20
24.1013435954
 30
0.0
 11
394.5215202651
 21
24.1013435954
 31
0.0
  0
LINE
  5
BB
330
1F
100
AcDbEntity
  8
0
  6
SLD-Durchgehend
 62
     7
370
     0
100
AcDbLine
 10
394.5215202651
 20
24.1013435954
 30
0.0
 11
392.9875987755
 21
27.9082641485
 31
0.0
  0
LINE
  5
BC
330
1F
100
AcDbEntity
  8
0
  6
SLD-Durchgehend
 62
     7
370
     0
100
AcDbLine
 10
392.9875987755
 20
27.9082641485
 30
0.0
 11
391.9979725361
 21
24.1013435954
 31
0.0
  0
LINE
  5
BD
330
1F
100
AcDbEntity
  8
0
  6
SLD-Durchgehend
 62
     7
370
     0
100
AcDbLine
 10
391.9979725361
 20
24.1013435954
 30
0.0
 11
389.4249433062
 21
24.1013435954
 31
0.0
  0
LINE
  5
BE
330
1F
100
AcDbEntity
  8
0
  6
SLD-Durchgehend
 62
     7
370
     0
100
AcDbLine
 10
389.4249433062
 20
24.1013435954
 30
0.0
 11
391.2557525417
 21
31.1713392148
 31
0.0
  0
LINE
  5
BF
330
1F
100
AcDbEntity
  8
0
  6
SLD-Durchgehend
 62
     7
370
     0
100
AcDbLine
 10
393.136043278
 20
26.3261669517
 30
0.0
 11
394.0761880167
 21
24.0519029016
 31
0.0
  0
LINE
  5
C0
330
1F
100
AcDbEntity
  8
0
  6
SLD-Durchgehend
 62
     7
370
     0
100
AcDbLine
 10
394.0761880167
 20
24.0519029016
 30
0.0
 11
392.55490135
 21
24.0519029016
 31
0.0
  0
LINE
  5
C1
330
1F
100
AcDbEntity
  8
0
  6
SLD-Durchgehend
 62
     7
370
     0
100
AcDbLine
 10
392.55490135
 20
24.0519029016
 30
0.0
 11
393.136043278
 21
26.3261669517
 31
0.0
  0
LINE
  5
C2
330
1F
100
AcDbEntity
  8
0
  6
SLD-Durchgehend
 62
     7
370
     0
100
AcDbLine
 10
399.4696539806
 20
31.121898521
 30
0.0
 11
401.0530569711
 21
31.121898521
 31
0.0
  0
LINE
  5
C3
330
1F
100
AcDbEntity
  8
0
  6
SLD-Durchgehend
 62
     7
370
     0
100
AcDbLine
 10
401.0530569711
 20
31.121898521
 30
0.0
 11
401.5478694613
 21
27.0677752138
 31
0.0
  0
LINE
  5
C4
330
1F
100
AcDbEntity
  8
0
  6
SLD-Durchgehend
 62
     7
370
     0
100
AcDbLine
 10
222.0
 20
10.0
 30
0.0
 11
410.0
 21
10.0
 31
0.0
  0
LINE
  5
C5
330
1F
100
AcDbEntity
  8
0
  6
SLD-Durchgehend
 62
     7
370
     0
100
AcDbLine
 10
401.5478694613
 20
27.0677752138
 30
0.0
 11
403.7745294444
 21
31.0724578272
 31
0.0
  0
LINE
  5
C6
330
1F
100
AcDbEntity
  8
0
  6
SLD-Durchgehend
 62
     7
370
     0
100
AcDbLine
 10
403.7745294444
 20
31.0724578272
 30
0.0
 11
406.5454846776
 21
31.0724578272
 31
0.0
  0
LINE
  5
C7
330
1F
100
AcDbEntity
  8
0
  6
SLD-Durchgehend
 62
     7
370
     0
100
AcDbLine
 10
406.5454846776
 20
31.0724578272
 30
0.0
 11
402.3395709565
 21
24.0024629228
 31
0.0
  0
LINE
  5
C8
330
1F
100
AcDbEntity
  8
0
  6
SLD-Durchgehend
 62
     7
370
     0
100
AcDbLine
 10
402.3395709565
 20
24.0024629228
 30
0.0
 11
399.1727662347
 21
24.0024629228
 31
0.0
  0
LINE
  5
C9
330
1F
100
AcDbEntity
  8
0
  6
SLD-Durchgehend
 62
     7
370
     0
100
AcDbLine
 10
399.1727662347
 20
24.0024629228
 30
0.0
 11
398.7274339863
 21
28.2543475752
 31
0.0
  0
LINE
  5
CA
330
1F
100
AcDbEntity
  8
0
  6
SLD-Durchgehend
 62
     7
370
     0
100
AcDbLine
 10
398.7274339863
 20
28.2543475752
 30
0.0
 11
399.4696539806
 21
31.121898521
 31
0.0
  0
LINE
  5
CB
330
1F
100
AcDbEntity
  8
0
  6
SLD-Durchgehend
 62
     7
370
     0
100
AcDbLine
 10
403.03230945
 20
24.0519029016
 30
0.0
 11
406.2547664701
 21
29.2230963169
 31
0.0
  0
LINE
  5
CC
330
1F
100
AcDbEntity
  8
0
  6
SLD-Durchgehend
 62
     7
370
     0
100
AcDbLine
 10
403.03230945
 20
24.0519029016
 30
0.0
 11
406.0887773529
 21
24.0519029016
 31
0.0
  0
LINE
  5
CD
330
1F
100
AcDbEntity
  8
0
  6
SLD-Durchgehend
 62
     7
370
     0
100
AcDbLine
 10
403.2664948846
 20
24.1819029016
 30
0.0
 11
405.998376558
 21
24.1819029016
 31
0.0
  0
LINE
  5
CE
330
1F
100
AcDbEntity
  8
0
  6
SLD-Durchgehend
 62
     7
370
     0
100
AcDbLine
 10
222.0
 20
10.0
 30
0.0
 11
410.0
 21
10.0
 31
0.0
  0
LINE
  5
CF
330
1F
100
AcDbEntity
  8
0
  6
SLD-Durchgehend
 62
     7
370
     0
100
AcDbLine
 10
410.0
 20
42.5
 30
0.0
 11
410.0
 21
10.0
 31
0.0
  0
LINE
  5
D0
330
1F
100
AcDbEntity
  8
0
  6
SLD-Durchgehend
 62
     7
370
     0
100
AcDbLine
 10
403.2664948846
 20
24.1819029016
 30
0.0
 11
406.2102984795
 21
28.9059310798
 31
0.0
  0
LINE
  5
D1
330
1F
100
AcDbEntity
  8
0
  6
SLD-Durchgehend
 62
     7
370
     0
100
AcDbLine
 10
404.0007687941
 20
31.6968633352
 30
0.0
 11
405.3952859048
 21
31.6968633352
 31
0.0
  0
LINE
  5
D2
330
1F
100
AcDbEntity
  8
0
  6
SLD-Durchgehend
 62
     7
370
     0
100
AcDbLine
 10
388.3794255904
 20
24.1819029016
 30
0.0
 11
388.7816097342
 21
24.1819029016
 31
0.0
  0
LINE
  5
D3
330
1F
100
AcDbEntity
  8
0
  6
SLD-Durchgehend
 62
     7
370
     0
100
AcDbLine
 10
388.7816097342
 20
24.1819029016
 30
0.0
 11
390.810344973
 21
31.5485412538
 31
0.0
  0
LINE
  5
D4
330
1F
100
AcDbEntity
  8
0
  6
SLD-Durchgehend
 62
     7
370
     0
100
AcDbLine
 10
390.810344973
 20
31.5485412538
 30
0.0
 11
392.6133250241
 21
31.5485412538
 31
0.0
  0
LINE
  5
D5
330
1F
100
AcDbEntity
  8
0
  6
SLD-Durchgehend
 62
     7
370
     0
100
AcDbLine
 10
393.1652269908
 20
25.9152816591
 30
0.0
 11
393.881778316
 21
24.1819029016
 31
0.0
  0
LINE
  5
D6
330
1F
100
AcDbEntity
  8
0
  6
SLD-Durchgehend
 62
     7
370
     0
100
AcDbLine
 10
393.881778316
 20
24.1819029016
 30
0.0
 11
392.7222972998
 21
24.1819029016
 31
0.0
  0
LINE
  5
D7
330
1F
100
AcDbEntity
  8
0
  6
SLD-Durchgehend
 62
     7
370
     0
100
AcDbLine
 10
392.7222972998
 20
24.1819029016
 30
0.0
 11
393.1652269908
 21
25.9152816591
 31
0.0
  0
LINE
  5
D8
330
1F
100
AcDbEntity
  8
0
  6
SLD-Durchgehend
 62
     7
370
     0
100
AcDbLine
 10
410.0
 20
50.5
 30
0.0
 11
410.0
 21
42.5
 31
0.0
  0
LINE
  5
D9
330
1F
100
AcDbEntity
  8
0
  6
SLD-Durchgehend
 62
     7
370
     0
100
AcDbLine
 10
410.0
 20
73.0
 30
0.0
 11
410.0
 21
65.0
 31
0.0
  0
LINE
  5
DA
330
1F
100
AcDbEntity
  8
0
  6
SLD-Durchgehend
 62
     7
370
     0
100
AcDbLine
 10
260.0
 20
10.0
 30
0.0
 11
260.0
 21
5.0
 31
0.0
  0
LINE
  5
DB
330
1F
100
AcDbEntity
  8
0
  6
SLD-Durchgehend
 62
     7
370
     0
100
AcDbLine
 10
410.0
 20
287.0
 30
0.0
 11
10.0
 21
287.0
 31
0.0
  0
LINE
  5
DC
330
1F
100
AcDbEntity
  8
0
  6
SLD-Durchgehend
 62
     7
370
     0
100
AcDbLine
 10
10.0
 20
10.0
 30
0.0
 11
410.0
 21
10.0
 31
0.0
  0
LINE
  5
DD
330
1F
100
AcDbEntity
  8
0
  6
SLD-Durchgehend
 62
     7
370
     0
100
AcDbLine
 10
5.0
 20
5.0
 30
0.0
 11
415.0
 21
5.0
 31
0.0
  0
LINE
  5
DE
330
1F
100
AcDbEntity
  8
0
  6
SLD-Durchgehend
 62
     7
370
     0
100
AcDbLine
 10
415.0
 20
292.0
 30
0.0
 11
5.0
 21
292.0
 31
0.0
  0
LINE
  5
DF
330
1F
100
AcDbEntity
  8
0
  6
SLD-Durchgehend
 62
     7
370
     0
100
AcDbLine
 10
310.0
 20
10.0
 30
0.0
 11
310.0
 21
5.0
 31
0.0
  0
LINE
  5
E0
330
1F
100
AcDbEntity
  8
0
  6
SLD-Durchgehend
 62
     7
370
     0
100
AcDbLine
 10
5.0
 20
292.0
 30
0.0
 11
5.0
 21
5.0
 31
0.0
  0
LINE
  5
E1
330
1F
100
AcDbEntity
  8
0
  6
SLD-Durchgehend
 62
     7
370
     0
100
AcDbLine
 10
10.0
 20
287.0
 30
0.0
 11
10.0
 21
191.5
 31
0.0
  0
LINE
  5
E2
330
1F
100
AcDbEntity
  8
0
  6
SLD-Durchgehend
 62
     7
370
     0
100
AcDbLine
 10
60.0
 20
10.0
 30
0.0
 11
60.0
 21
5.0
 31
0.0
  0
LINE
  5
E3
330
1F
100
AcDbEntity
  8
0
  6
SLD-Durchgehend
 62
     7
370
     0
100
AcDbLine
 10
10.0
 20
56.166
 30
0.0
 11
5.0
 21
56.166
 31
0.0
  0
LINE
  5
E4
330
1F
100
AcDbEntity
  8
0
  6
SLD-Durchgehend
 62
     7
370
     0
100
AcDbLine
 10
10.0
 20
102.332
 30
0.0
 11
5.0
 21
102.332
 31
0.0
  0
LINE
  5
E5
330
1F
100
AcDbEntity
  8
0
  6
SLD-Durchgehend
 62
     7
370
     0
100
AcDbLine
 10
10.0
 20
148.498
 30
0.0
 11
5.0
 21
148.498
 31
0.0
  0
LINE
  5
E6
330
1F
100
AcDbEntity
  8
0
  6
SLD-Durchgehend
 62
     7
370
     0
100
AcDbLine
 10
110.0
 20
10.0
 30
0.0
 11
110.0
 21
5.0
 31
0.0
  0
LINE
  5
E7
330
1F
100
AcDbEntity
  8
0
  6
SLD-Durchgehend
 62
     7
370
     0
100
AcDbLine
 10
360.0
 20
10.0
 30
0.0
 11
360.0
 21
5.0
 31
0.0
  0
LINE
  5
E8
330
1F
100
AcDbEntity
  8
0
  6
SLD-Durchgehend
 62
     7
370
     0
100
AcDbLine
 10
210.0
 20
10.0
 30
0.0
 11
210.0
 21
5.0
 31
0.0
  0
LINE
  5
E9
330
1F
100
AcDbEntity
  8
0
  6
SLD-Durchgehend
 62
     7
370
     0
100
AcDbLine
 10
160.0
 20
10.0
 30
0.0
 11
160.0
 21
5.0
 31
0.0
  0
LINE
  5
EA
330
1F
100
AcDbEntity
  8
0
  6
SLD-Durchgehend
 62
     7
370
     0
100
AcDbLine
 10
10.0
 20
194.664
 30
0.0
 11
5.0
 21
194.664
 31
0.0
  0
LINE
  5
EB
330
1F
100
AcDbEntity
  8
0
  6
SLD-Durchgehend
 62
     7
370
     0
100
AcDbLine
 10
10.0
 20
240.83
 30
0.0
 11
5.0
 21
240.83
 31
0.0
  0
LINE
  5
EC
330
1F
100
AcDbEntity
  8
0
  6
SLD-Durchgehend
 62
     7
370
     0
100
AcDbLine
 10
60.0
 20
292.0
 30
0.0
 11
60.0
 21
287.0
 31
0.0
  0
LINE
  5
ED
330
1F
100
AcDbEntity
  8
0
  6
SLD-Durchgehend
 62
     7
370
     0
100
AcDbLine
 10
110.0
 20
292.0
 30
0.0
 11
110.0
 21
287.0
 31
0.0
  0
LINE
  5
EE
330
1F
100
AcDbEntity
  8
0
  6
SLD-Durchgehend
 62
     7
370
     0
100
AcDbLine
 10
210.0
 20
292.0
 30
0.0
 11
210.0
 21
287.0
 31
0.0
  0
LINE
  5
EF
330
1F
100
AcDbEntity
  8
0
  6
SLD-Durchgehend
 62
     7
370
     0
100
AcDbLine
 10
160.0
 20
292.0
 30
0.0
 11
160.0
 21
287.0
 31
0.0
  0
LINE
  5
F0
330
1F
100
AcDbEntity
  8
0
  6
SLD-Durchgehend
 62
     7
370
     0
100
AcDbLine
 10
410.0
 20
287.0
 30
0.0
 11
410.0
 21
10.0
 31
0.0
  0
LINE
  5
F1
330
1F
100
AcDbEntity
  8
0
  6
SLD-Durchgehend
 62
     7
370
     0
100
AcDbLine
 10
415.0
 20
292.0
 30
0.0
 11
415.0
 21
5.0
 31
0.0
  0
LINE
  5
F2
330
1F
100
AcDbEntity
  8
0
  6
SLD-Durchgehend
 62
     7
370
     0
100
AcDbLine
 10
415.0
 20
56.166
 30
0.0
 11
410.0
 21
56.166
 31
0.0
  0
LINE
  5
F3
330
1F
100
AcDbEntity
  8
0
  6
SLD-Durchgehend
 62
     7
370
     0
100
AcDbLine
 10
415.0
 20
102.332
 30
0.0
 11
410.0
 21
102.332
 31
0.0
  0
LINE
  5
F4
330
1F
100
AcDbEntity
  8
0
  6
SLD-Durchgehend
 62
     7
370
     0
100
AcDbLine
 10
415.0
 20
148.498
 30
0.0
 11
410.0
 21
148.498
 31
0.0
  0
LINE
  5
F5
330
1F
100
AcDbEntity
  8
0
  6
SLD-Durchgehend
 62
     7
370
     0
100
AcDbLine
 10
260.0
 20
292.0
 30
0.0
 11
260.0
 21
287.0
 31
0.0
  0
LINE
  5
F6
330
1F
100
AcDbEntity
  8
0
  6
SLD-Durchgehend
 62
     7
370
     0
100
AcDbLine
 10
310.0
 20
292.0
 30
0.0
 11
310.0
 21
287.0
 31
0.0
  0
LINE
  5
F7
330
1F
100
AcDbEntity
  8
0
  6
SLD-Durchgehend
 62
     7
370
     0
100
AcDbLine
 10
415.0
 20
194.664
 30
0.0
 11
410.0
 21
194.664
 31
0.0
  0
LINE
  5
F8
330
1F
100
AcDbEntity
  8
0
  6
SLD-Durchgehend
 62
     7
370
     0
100
AcDbLine
 10
415.0
 20
240.83
 30
0.0
 11
410.0
 21
240.83
 31
0.0
  0
LINE
  5
F9
330
1F
100
AcDbEntity
  8
0
  6
SLD-Durchgehend
 62
     7
370
     0
100
AcDbLine
 10
360.0
 20
292.0
 30
0.0
 11
360.0
 21
287.0
 31
0.0
  0
LINE
  5
FA
330
1F
100
AcDbEntity
  8
0
  6
SLD-Durchgehend
 62
     7
370
     0
100
AcDbLine
 10
222.0
 20
5.0
 30
0.0
 11
222.0
 21
0.0
 31
0.0
  0
LINE
  5
FB
330
1F
100
AcDbEntity
  8
0
  6
SLD-Durchgehend
 62
     7
370
     0
100
AcDbLine
 10
120.0
 20
5.0
 30
0.0
 11
120.0
 21
0.0
 31
0.0
  0
LINE
  5
FC
330
1F
100
AcDbEntity
  8
0
  6
SLD-Durchgehend
 62
     7
370
     0
100
AcDbLine
 10
120.0
 20
292.0
 30
0.0
 11
120.0
 21
297.0
 31
0.0
  0
LINE
  5
FD
330
1F
100
AcDbEntity
  8
0
  6
SLD-Durchgehend
 62
     7
370
     0
100
AcDbLine
 10
222.0
 20
292.0
 30
0.0
 11
222.0
 21
297.0
 31
0.0
  0
LINE
  5
FE
330
1F
100
AcDbEntity
  8
0
  6
SLD-Durchgehend
 62
     7
370
     0
100
AcDbLine
 10
5.0
 20
148.5
 30
0.0
 11
0.0
 21
148.5
 31
0.0
  0
LINE
  5
FF
330
1F
100
AcDbEntity
  8
0
  6
SLD-Durchgehend
 62
     7
370
     0
100
AcDbLine
 10
10.0
 20
185.5
 30
0.0
 11
10.0
 21
111.5
 31
0.0
  0
LINE
  5
100
330
1F
100
AcDbEntity
  8
0
  6
SLD-Durchgehend
 62
     7
370
     0
100
AcDbLine
 10
10.0
 20
105.5
 30
0.0
 11
10.0
 21
10.0
 31
0.0
  0
LINE
  5
101
330
1F
100
AcDbEntity
  8
0
  6
SLD-Durchgehend
 62
     7
370
     0
100
AcDbLine
 10
222.0
 20
31.75
 30
0.0
 11
274.0
 21
31.75
 31
0.0
  0
LINE
  5
102
330
1F
100
AcDbEntity
  8
0
  6
SLD-Durchgehend
 62
     7
370
     0
100
AcDbLine
 10
0.0
 20
0.0
 30
0.0
 11
420.0
 21
0.0
 31
0.0
  0
LINE
  5
103
330
1F
100
AcDbEntity
  8
0
  6
SLD-Durchgehend
 62
     7
370
     0
100
AcDbLine
 10
0.0
 20
0.0
 30
0.0
 11
0.0
 21
297.0
 31
0.0
  0
LINE
  5
104
330
1F
100
AcDbEntity
  8
0
  6
SLD-Durchgehend
 62
     7
370
     0
100
AcDbLine
 10
0.0
 20
297.0
 30
0.0
 11
420.0
 21
297.0
 31
0.0
  0
LINE
  5
105
330
1F
100
AcDbEntity
  8
0
  6
SLD-Durchgehend
 62
     7
370
     0
100
AcDbLine
 10
420.0
 20
0.0
 30
0.0
 11
420.0
 21
297.0
 31
0.0
  0
CIRCLE
  5
106
330
1F
100
AcDbEntity
  8
0
  6
SLD-Durchgehend
 62
     7
370
     0
100
AcDbCircle
 10
10.0
 20
188.5
 30
0.0
 40
3.000000000000001
  0
CIRCLE
  5
107
330
1F
100
AcDbEntity
  8
0
  6
SLD-Durchgehend
 62
     7
370
     0
100
AcDbCircle
 10
10.0
 20
108.5
 30
0.0
 40
3.000000000000005
  0
ARC
  5
108
330
1F
100
AcDbEntity
  8
0
  6
SLD-Durchgehend
 62
     7
370
     0
100
AcDbCircle
 10
397.2166905884
 20
27.1936818339
 30
0.0
 40
9.466383935046306
100
AcDbArc
 50
27.5142747223
 51
199.3834076115
  0
ARC
  5
109
330
1F
100
AcDbEntity
  8
0
  6
SLD-Durchgehend
 62
     7
370
     0
100
AcDbCircle
 10
398.3341692459
 20
29.5403819643
 30
0.0
 40
5.933065424568992
100
AcDbArc
 50
19.9717771487
 51
161.5451058776
  0
ARC
  5
10A
330
1F
100
AcDbEntity
  8
0
  6
SLD-Durchgehend
 62
     7
370
     0
100
AcDbCircle
 10
398.6015949771
 20
26.8804932252
 30
0.0
 40
8.003675602344112
100
AcDbArc
 50
339.3038849229
 51
17.0191257259
  0
CIRCLE
  5
10B
330
1F
100
AcDbEntity
  8
0
  6
SLD-Durchgehend
 62
     7
370
     0
100
AcDbCircle
 10
407.3866676737
 20
30.5286123403
 30
0.0
 40
0.6921638106894162
  0
ARC
  5
10C
330
1F
100
AcDbEntity
  8
0
  6
SLD-Durchgehend
 62
     7
370
     0
100
AcDbCircle
 10
398.6015949771
 20
26.8804932252
 30
0.0
 40
7.873675602344121
100
AcDbArc
 50
339.956359704
 51
14.9064582949
  0
ARC
  5
10D
330
1F
100
AcDbEntity
  8
0
  6
SLD-Durchgehend
 62
     7
370
     0
100
AcDbCircle
 10
398.3341692459
 20
29.5403819643
 30
0.0
 40
6.063065424569016
100
AcDbArc
 50
20.8348250605
 51
160.6576519015
  0
ARC
  5
10E
330
1F
100
AcDbEntity
  8
0
  6
SLD-Durchgehend
 62
     7
370
     0
100
AcDbCircle
 10
397.2166905884
 20
27.1936818339
 30
0.0
 40
9.336383935046333
100
AcDbArc
 50
28.8374327393
 51
198.8193368339
  0
INSERT
  5
10F
330
1F
100
AcDbEntity
  8
0
  6
Continuous
 62
     7
100
AcDbBlockReference
  2
Pfeil
 10
281.6203762006
 20
223.2763291139
 30
0.0
 50
90.0
  0
INSERT
  5
110
330
1F
100
AcDbEntity
  8
0
  6
Continuous
 62
     7
100
AcDbBlockReference
  2
Pfeil
 10
147.207056962
 20
192.5988607595
 30
0.0
  0
MTEXT
  5
111
330
1F
100
AcDbEntity
  8
0
  6
Continuous
 62
     7
370
     0
100
AcDbMText
 10
5.7028577714
 20
34.989604144
 30
0.0
 40
4.0
 41
0.0
 71
     1
 72
     1
  1
A
  7
SLDTEXTSTYLE0
 73
     1
 44
1.0
  0
MTEXT
  5
112
330
1F
100
AcDbEntity
  8
0
  6
Continuous
 62
     7
370
     0
100
AcDbMText
 10
33.5
 20
9.489604144
 30
0.0
 40
4.0
 41
0.0
 71
     1
 72
     1
  1
8
  7
SLDTEXTSTYLE0
 73
     1
 44
1.0
  0
MTEXT
  5
113
330
1F
100
AcDbEntity
  8
0
  6
Continuous
 62
     7
370
     0
100
AcDbMText
 10
5.7622862171
 20
80.989604144
 30
0.0
 40
4.0
 41
0.0
 71
     1
 72
     1
  1
B
  7
SLDTEXTSTYLE0
 73
     1
 44
1.0
  0
MTEXT
  5
114
330
1F
100
AcDbEntity
  8
0
  6
Continuous
 62
     7
370
     0
100
AcDbMText
 10
5.6317379175
 20
126.8054731028
 30
0.0
 40
4.0
 41
0.0
 71
     1
 72
     1
  1
C
  7
SLDTEXTSTYLE0
 73
     1
 44
1.0
  0
MTEXT
  5
115
330
1F
100
AcDbEntity
  8
0
  6
Continuous
 62
     7
370
     0
100
AcDbMText
 10
133.5
 20
9.489604144
 30
0.0
 40
4.0
 41
0.0
 71
     1
 72
     1
  1
6
  7
SLDTEXTSTYLE0
 73
     1
 44
1.0
  0
MTEXT
  5
116
330
1F
100
AcDbEntity
  8
0
  6
Continuous
 62
     7
370
     0
100
AcDbMText
 10
83.5
 20
9.489604144
 30
0.0
 40
4.0
 41
0.0
 71
     1
 72
     1
  1
7
  7
SLDTEXTSTYLE0
 73
     1
 44
1.0
  0
MTEXT
  5
117
330
1F
100
AcDbEntity
  8
0
  6
Continuous
 62
     7
370
     0
100
AcDbMText
 10
183.5
 20
9.489604144
 30
0.0
 40
4.0
 41
0.0
 71
     1
 72
     1
  1
5
  7
SLDTEXTSTYLE0
 73
     1
 44
1.0
  0
MTEXT
  5
118
330
1F
100
AcDbEntity
  8
0
  6
Continuous
 62
     7
370
     0
100
AcDbMText
 10
5.5396723969
 20
173.989604144
 30
0.0
 40
4.0
 41
0.0
 71
     1
 72
     1
  1
D
  7
SLDTEXTSTYLE0
 73
     1
 44
1.0
  0
MTEXT
  5
119
330
1F
100
AcDbEntity
  8
0
  6
Continuous
 62
     7
370
     0
100
AcDbMText
 10
5.7692745255
 20
219.989604144
 30
0.0
 40
4.0
 41
0.0
 71
     1
 72
     1
  1
E
  7
SLDTEXTSTYLE0
 73
     1
 44
1.0
  0
MTEXT
  5
11A
330
1F
100
AcDbEntity
  8
0
  6
Continuous
 62
     7
370
     0
100
AcDbMText
 10
6.0
 20
265.989604144
 30
0.0
 40
4.0
 41
0.0
 71
     1
 72
     1
  1
F
  7
SLDTEXTSTYLE0
 73
     1
 44
1.0
  0
MTEXT
  5
11B
330
1F
100
AcDbEntity
  8
0
  6
Continuous
 62
     7
370
     0
100
AcDbMText
 10
33.5
 20
291.489604144
 30
0.0
 40
4.0
 41
0.0
 71
     1
 72
     1
  1
8
  7
SLDTEXTSTYLE0
 73
     1
 44
1.0
  0
MTEXT
  5
11C
330
1F
100
AcDbEntity
  8
0
  6
Continuous
 62
     7
370
     0
100
AcDbMText
 10
83.5
 20
291.489604144
 30
0.0
 40
4.0
 41
0.0
 71
     1
 72
     1
  1
7
  7
SLDTEXTSTYLE0
 73
     1
 44
1.0
  0
MTEXT
  5
11D
330
1F
100
AcDbEntity
  8
0
  6
Continuous
 62
     7
370
     0
100
AcDbMText
 10
133.5
 20
291.489604144
 30
0.0
 40
4.0
 41
0.0
 71
     1
 72
     1
  1
6
  7
SLDTEXTSTYLE0
 73
     1
 44
1.0
  0
MTEXT
  5
11E
330
1F
100
AcDbEntity
  8
0
  6
Continuous
 62
     7
370
     0
100
AcDbMText
 10
183.5
 20
291.489604144
 30
0.0
 40
4.0
 41
0.0
 71
     1
 72
     1
  1
5
  7
SLDTEXTSTYLE0
 73
     1
 44
1.0
  0
MTEXT
  5
11F
330
1F
100
AcDbEntity
  8
0
  6
Continuous
 62
     7
370
     0
100
AcDbMText
 10
410.7729847128
 20
34.9442010866
 30
0.0
 40
4.0
 41
0.0
 71
     1
 72
     1
  1
A
  7
SLDTEXTSTYLE0
 73
     1
 44
1.0
  0
MTEXT
  5
120
330
1F
100
AcDbEntity
  8
0
  6
Continuous
 62
     7
370
     0
100
AcDbMText
 10
410.7121909102
 20
81.1364716754
 30
0.0
 40
4.0
 41
0.0
 71
     1
 72
     1
  1
B
  7
SLDTEXTSTYLE0
 73
     1
 44
1.0
  0
MTEXT
  5
121
330
1F
100
AcDbEntity
  8
0
  6
Continuous
 62
     7
370
     0
100
AcDbMText
 10
410.6203893089
 20
126.989604144
 30
0.0
 40
4.0
 41
0.0
 71
     1
 72
     1
  1
C
  7
SLDTEXTSTYLE0
 73
     1
 44
1.0
  0
MTEXT
  5
122
330
1F
100
AcDbEntity
  8
0
  6
Continuous
 62
     7
370
     0
100
AcDbMText
 10
233.5
 20
291.489604144
 30
0.0
 40
4.0
 41
0.0
 71
     1
 72
     1
  1
4
  7
SLDTEXTSTYLE0
 73
     1
 44
1.0
  0
MTEXT
  5
123
330
1F
100
AcDbEntity
  8
0
  6
Continuous
 62
     7
370
     0
100
AcDbMText
 10
284.0
 20
291.489604144
 30
0.0
 40
4.0
 41
0.0
 71
     1
 72
     1
  1
3
  7
SLDTEXTSTYLE0
 73
     1
 44
1.0
  0
MTEXT
  5
124
330
1F
100
AcDbEntity
  8
0
  6
Continuous
 62
     7
370
     0
100
AcDbMText
 10
334.0
 20
291.489604144
 30
0.0
 40
4.0
 41
0.0
 71
     1
 72
     1
  1
2
  7
SLDTEXTSTYLE0
 73
     1
 44
1.0
  0
MTEXT
  5
125
330
1F
100
AcDbEntity
  8
0
  6
Continuous
 62
     7
370
     0
100
AcDbMText
 10
410.5396138496
 20
174.1137585664
 30
0.0
 40
4.0
 41
0.0
 71
     1
 72
     1
  1
D
  7
SLDTEXTSTYLE0
 73
     1
 44
1.0
  0
MTEXT
  5
126
330
1F
100
AcDbEntity
  8
0
  6
Continuous
 62
     7
370
     0
100
AcDbMText
 10
410.7442616209
 20
220.1816801137
 30
0.0
 40
4.0
 41
0.0
 71
     1
 72
     1
  1
E
  7
SLDTEXTSTYLE0
 73
     1
 44
1.0
  0
MTEXT
  5
127
330
1F
100
AcDbEntity
  8
0
  6
Continuous
 62
     7
370
     0
100
AcDbMText
 10
384.0
 20
291.489604144
 30
0.0
 40
4.0
 41
0.0
 71
     1
 72
     1
  1
1
  7
SLDTEXTSTYLE0
 73
     1
 44
1.0
  0
MTEXT
  5
128
330
1F
100
AcDbEntity
  8
0
  6
Continuous
 62
     7
370
     0
100
AcDbMText
 10
411.0
 20
265.989604144
 30
0.0
 40
4.0
 41
0.0
 71
     1
 72
     1
  1
F
  7
SLDTEXTSTYLE0
 73
     1
 44
1.0
  0
MTEXT
  5
129
330
1F
100
AcDbEntity
  8
0
  6
Continuous
 62
     7
370
     0
100
AcDbMText
 10
233.8998971425
 20
9.6619578374
 30
0.0
 40
4.0
 41
0.0
 71
     1
 72
     1
  1
4
  7
SLDTEXTSTYLE0
 73
     1
 44
1.0
  0
MTEXT
  5
12A
330
1F
100
AcDbEntity
  8
0
  6
Continuous
 62
     7
370
     0
100
AcDbMText
 10
284.3998971425
 20
9.6619578374
 30
0.0
 40
4.0
 41
0.0
 71
     1
 72
     1
  1
3
  7
SLDTEXTSTYLE0
 73
     1
 44
1.0
  0
MTEXT
  5
12B
330
1F
100
AcDbEntity
  8
0
  6
Continuous
 62
     7
370
     0
100
AcDbMText
 10
334.3998971425
 20
9.6619578374
 30
0.0
 40
4.0
 41
0.0
 71
     1
 72
     1
  1
2
  7
SLDTEXTSTYLE0
 73
     1
 44
1.0
  0
MTEXT
  5
12C
330
1F
100
AcDbEntity
  8
0
  6
Continuous
 62
     7
370
     0
100
AcDbMText
 10
384.3998971425
 20
9.6619578374
 30
0.0
 40
4.0
 41
0.0
 71
     1
 72
     1
  1
1
  7
SLDTEXTSTYLE0
 73
     1
 44
1.0
  0
MTEXT
  5
12D
330
1F
100
AcDbEntity
  8
0
  6
Continuous
 62
     7
370
     0
100
AcDbMText
 10
235.333368457
 20
13.9532375323
 30
0.0
 40
3.0
 41
0.0
 71
     1
 72
     1
  1
01935500
  7
SLDTEXTSTYLE0
 73
     1
 44
1.0
  0
MTEXT
  5
12E
330
1F
100
AcDbEntity
  8
0
  6
Continuous
 62
     7
370
     0
100
AcDbMText
 10
277.5042038186
 20
17.4849420031
 30
0.0
 40
4.0
 41
0.0
 71
     1
 72
     1
  1
Vibrateur pneum. à piston
  7
SLDTEXTSTYLE0
 73
     1
 44
1.0
  0
MTEXT
  5
12F
330
1F
100
AcDbEntity
  8
0
  6
Continuous
 62
     7
370
     0
100
AcDbMText
 10
223.3772893016
 20
16.5178662951
 30
0.0
 40
2.0
 41
0.0
 71
     1
 72
     1
  1
Bestell Nr.: / Part no.: / No d`article:
  7
SLDTEXTSTYLE0
 73
     1
 44
1.0
  0
INSERT
  5
139
330
1F
100
AcDbEntity
  8
0
  6
Continuous
 62
     7
370
     0
100
AcDbBlockReference
  2
SW_NOTE_3
 10
347.2177413053
 20
17.0976931256
 30
0.0
  0
MTEXT
  5
13A
330
1F
100
AcDbEntity
  8
0
  6
Continuous
 62
     7
370
     0
100
AcDbMText
 10
347.2177413053
 20
22.8281708005
 30
0.0
 40
1.8520833333
 41
0.0
 71
     1
 72
     1
  1
Fritz-Lenges-Straße 3,  55252 Mainz-Kastel
  7
SLDTEXTSTYLE0
 73
     1
 44
1.0
  0
INSERT
  5
140
330
1F
100
AcDbEntity
  8
0
  6
Continuous
 62
     7
370
     0
100
AcDbBlockReference
  2
SW_NOTE_4
 10
347.2177413053
 20
23.0066254519
 30
0.0
  0
MTEXT
  5
141
330
1F
100
AcDbEntity
  8
0
  6
Continuous
 62
     7
370
     0
100
AcDbMText
 10
407.0748866834
 20
30.8708309295
 30
0.0
 40
0.65
 41
0.0
 71
     1
 72
     1
  1
R
  7
SLDTEXTSTYLE0
 73
     1
 44
1.0
  0
MTEXT
  5
142
330
1F
100
AcDbEntity
  8
0
  6
Continuous
 62
     7
370
     0
100
AcDbMText
 10
277.5042038186
 20
24.4879186679
 30
0.0
 40
4.0
 41
0.0
 71
     1
 72
     1
  1
Pneumatic linear vibrator
  7
SLDTEXTSTYLE0
 73
     1
 44
1.0
  0
MTEXT
  5
143
330
1F
100
AcDbEntity
  8
0
  6
Continuous
 62
     7
370
     0
100
AcDbMText
 10
277.5042038186
 20
31.495794101
 30
0.0
 40
4.0
 41
0.0
 71
     1
 72
     1
  1
Druckluft-Kolbenvibrator
  7
SLDTEXTSTYLE0
 73
     1
 44
1.0
  0
MTEXT
  5
145
330
1F
100
AcDbEntity
  8
0
  6
Continuous
 62
     7
370
     0
100
AcDbMText
 10
277.5042038186
 20
40.9994003142
 30
0.0
 40
4.0
 41
0.0
 71
     1
 72
     1
  1
NTS 350 NF
  7
SLDTEXTSTYLE3
 73
     1
 44
1.0
  0
MTEXT
  5
146
330
1F
100
AcDbEntity
  8
0
  6
Continuous
 62
     7
370
     0
100
AcDbMText
 10
223.3772893016
 20
23.7813752683
 30
0.0
 40
2.0
 41
0.0
 71
     1
 72
     1
  1
Angebot Nr.: / Quotation no.: / Offre no.:
  7
SLDTEXTSTYLE0
 73
     1
 44
1.0
  0
MTEXT
  5
147
330
1F
100
AcDbEntity
  8
0
  6
Continuous
 62
     7
370
     0
100
AcDbMText
 10
225.29574253
 20
36.1700862926
 30
0.0
 40
2.5
 41
0.0
 71
     1
 72
     1
  1
tous droits réservés
  7
SLDTEXTSTYLE0
 73
     1
 44
1.0
  0
MTEXT
  5
148
330
1F
100
AcDbEntity
  8
0
  6
Continuous
 62
     7
370
     0
100
AcDbMText
 10
225.29574253
 20
40.2315981188
 30
0.0
 40
2.5
 41
0.0
 71
     1
 72
     1
  1
all rights reserved
  7
SLDTEXTSTYLE0
 73
     1
 44
1.0
  0
MTEXT
  5
149
330
1F
100
AcDbEntity
  8
0
  6
Continuous
 62
     7
370
     0
100
AcDbMText
 10
225.29574253
 20
44.0417302482
 30
0.0
 40
2.5
 41
0.0
 71
     1
 72
     1
  1
alle Schutzrechte vorbehalten
  7
SLDTEXTSTYLE0
 73
     1
 44
1.0
  0
MTEXT
  5
14A
330
1F
100
AcDbEntity
  8
0
  6
Continuous
 62
     7
370
     0
100
AcDbMText
 10
223.3772893016
 20
31.3281263199
 30
0.0
 40
2.0
 41
0.0
 71
     1
 72
     1
  1
Datum: / Date: / Date:
  7
SLDTEXTSTYLE0
 73
     1
 44
1.0
  0
MTEXT
  5
14B
330
1F
100
AcDbEntity
  8
0
  6
Continuous
 62
     7
370
     0
100
AcDbMText
 10
235.333368457
 20
28.459898148
 30
0.0
 40
3.0
 41
0.0
 71
     1
 72
     1
  1
19.01.22
  7
SLDTEXTSTYLE0
 73
     1
 44
1.0
  0
LINE
  5
14C
330
1F
100
AcDbEntity
  8
0
  6
SLD-Durchgehend
 62
     7
370
    15
100
AcDbLine
 10
271.6505328726
 20
219.7730986449
 30
0.0
 11
231.4203778815
 21
219.7730986449
 31
0.0
  0
LINE
  5
14D
330
1F
100
AcDbEntity
  8
0
  6
SLD-Durchgehend
 62
     7
370
    15
100
AcDbLine
 10
305.6203747701
 20
219.7730986449
 30
0.0
 11
291.5844047975
 21
219.7730986449
 31
0.0
  0
LINE
  5
14E
330
1F
100
AcDbEntity
  8
0
  6
SLD-Durchgehend
 62
     7
370
    15
100
AcDbLine
 10
231.4203778815
 20
166.7730992708
 30
0.0
 11
305.6203747701
 21
166.7730992708
 31
0.0
  0
LINE
  5
14F
330
1F
100
AcDbEntity
  8
0
  6
SLD-Durchgehend
 62
     7
370
    15
100
AcDbLine
 10
341.621241213
 20
219.7730986449
 30
0.0
 11
321.1203763794
 21
219.7730986449
 31
0.0
  0
LINE
  5
150
330
1F
100
AcDbEntity
  8
0
  6
SLD-Durchgehend
 62
     7
370
    15
100
AcDbLine
 10
354.1203762006
 20
219.7730986449
 30
0.0
 11
342.613965885
 21
219.7730986449
 31
0.0
  0
LINE
  5
151
330
1F
100
AcDbEntity
  8
0
  6
SLD-Durchgehend
 62
     7
370
    15
100
AcDbLine
 10
321.1203763794
 20
166.7730992708
 30
0.0
 11
354.1203762006
 21
166.7730992708
 31
0.0
  0
LINE
  5
152
330
1F
100
AcDbEntity
  8
0
  6
SLD-Durchgehend
 62
     7
370
    15
100
AcDbLine
 10
321.1203763794
 20
219.4730991546
 30
0.0
 11
320.8703758728
 21
219.4730991546
 31
0.0
  0
LINE
  5
153
330
1F
100
AcDbEntity
  8
0
  6
SLD-Durchgehend
 62
     7
370
    15
100
AcDbLine
 10
305.8703752767
 20
219.4730991546
 30
0.0
 11
305.6203747701
 21
219.4730991546
 31
0.0
  0
LINE
  5
154
330
1F
100
AcDbEntity
  8
0
  6
SLD-Durchgehend
 62
     7
370
    15
100
AcDbLine
 10
305.6203747701
 20
167.0730987612
 30
0.0
 11
305.8703752767
 21
167.0730987612
 31
0.0
  0
LINE
  5
155
330
1F
100
AcDbEntity
  8
0
  6
SLD-Durchgehend
 62
     7
370
    15
100
AcDbLine
 10
320.8703758728
 20
167.0730987612
 30
0.0
 11
321.1203763794
 21
167.0730987612
 31
0.0
  0
LINE
  5
156
330
1F
100
AcDbEntity
  8
0
  6
SLD-Durchgehend
 62
     7
370
    15
100
AcDbLine
 10
231.4203778815
 20
217.7230993334
 30
0.0
 11
231.2203744959
 21
217.7230993334
 31
0.0
  0
LINE
  5
157
330
1F
100
AcDbEntity
  8
0
  6
SLD-Durchgehend
 62
     7
370
    15
100
AcDbLine
 10
231.2203744959
 20
168.8230985824
 30
0.0
 11
231.4203778815
 21
168.8230985824
 31
0.0
  0
ARC
  5
158
330
1F
100
AcDbEntity
  8
0
  6
SLD-Durchgehend
 62
     7
370
    15
100
AcDbCircle
 10
287.8203762006
 20
218.5730989579
 30
0.0
 40
0.2000000000000171
100
AcDbArc
 50
0.0
 51
90.0
  0
ARC
  5
159
330
1F
100
AcDbEntity
  8
0
  6
SLD-Durchgehend
 62
     7
370
    15
100
AcDbCircle
 10
275.4203762006
 20
218.5730989579
 30
0.0
 40
0.2000000000000171
100
AcDbArc
 50
90.0
 51
180.0
  0
LINE
  5
15A
330
1F
100
AcDbEntity
  8
0
  6
SLD-Durchgehend
 62
     7
370
    15
100
AcDbLine
 10
305.8703752767
 20
166.8730991009
 30
0.0
 11
320.8703758728
 21
166.8730991009
 31
0.0
  0
ARC
  5
15B
330
1F
100
AcDbEntity
  8
0
  6
SLD-Durchgehend
 62
     7
370
    15
100
AcDbCircle
 10
165.7203762006
 20
181.7730989579
 30
0.0
 40
0.5
100
AcDbArc
 50
180.0
 51
270.0
  0
ARC
  5
15C
330
1F
100
AcDbEntity
  8
0
  6
SLD-Durchgehend
 62
     7
370
    15
100
AcDbCircle
 10
165.7203762006
 20
204.7730989579
 30
0.0
 40
0.5
100
AcDbArc
 50
90.0
 51
180.0
  0
ARC
  5
15D
330
1F
100
AcDbEntity
  8
0
  6
SLD-Durchgehend
 62
     7
370
    15
100
AcDbCircle
 10
208.7203762006
 20
181.7730989579
 30
0.0
 40
0.5
100
AcDbArc
 50
270.0
 51
0.0
  0
ARC
  5
15E
330
1F
100
AcDbEntity
  8
0
  6
SLD-Durchgehend
 62
     7
370
    15
100
AcDbCircle
 10
208.7203762006
 20
204.7730989579
 30
0.0
 40
0.5
100
AcDbArc
 50
0.0
 51
90.0
  0
LINE
  5
15F
330
1F
100
AcDbEntity
  8
0
  6
SLD-Durchgehend
 62
     7
370
    15
100
AcDbLine
 10
175.2203727674
 20
205.2730990622
 30
0.0
 11
165.7203758668
 21
205.2730990622
 31
0.0
  0
LINE
  5
160
330
1F
100
AcDbEntity
  8
0
  6
SLD-Durchgehend
 62
     7
370
    15
100
AcDbLine
 10
183.2203740787
 20
205.2730990622
 30
0.0
 11
177.2203768205
 21
205.2730990622
 31
0.0
  0
LINE
  5
161
330
1F
100
AcDbEntity
  8
0
  6
SLD-Durchgehend
 62
     7
370
    15
100
AcDbLine
 10
191.22037539
 20
205.2730990622
 30
0.0
 11
185.2203781318
 21
205.2730990622
 31
0.0
  0
LINE
  5
162
330
1F
100
AcDbEntity
  8
0
  6
SLD-Durchgehend
 62
     7
370
    15
100
AcDbLine
 10
199.2203767013
 20
205.2730990622
 30
0.0
 11
193.2203794431
 21
205.2730990622
 31
0.0
  0
LINE
  5
163
330
1F
100
AcDbEntity
  8
0
  6
SLD-Durchgehend
 62
     7
370
    15
100
AcDbLine
 10
208.7203736018
 20
205.2730990622
 30
0.0
 11
201.2203807544
 21
205.2730990622
 31
0.0
  0
LINE
  5
164
330
1F
100
AcDbEntity
  8
0
  6
SLD-Durchgehend
 62
     7
370
    15
100
AcDbLine
 10
165.7203758668
 20
181.2730988536
 30
0.0
 11
208.7203736018
 21
181.2730988536
 31
0.0
  0
LINE
  5
165
330
1F
100
AcDbEntity
  8
0
  6
SLD-Durchgehend
 62
     7
370
    15
100
AcDbLine
 10
185.2203781318
 20
204.2730988983
 30
0.0
 11
183.2203740787
 21
204.2730988983
 31
0.0
  0
LINE
  5
166
330
1F
100
AcDbEntity
  8
0
  6
SLD-Durchgehend
 62
     7
370
    15
100
AcDbLine
 10
193.2203794431
 20
204.2730988983
 30
0.0
 11
191.22037539
 21
204.2730988983
 31
0.0
  0
LINE
  5
167
330
1F
100
AcDbEntity
  8
0
  6
SLD-Durchgehend
 62
     7
370
    15
100
AcDbLine
 10
201.2203807544
 20
204.2730988983
 30
0.0
 11
199.2203767013
 21
204.2730988983
 31
0.0
  0
LINE
  5
168
330
1F
100
AcDbEntity
  8
0
  6
SLD-Durchgehend
 62
     7
370
    15
100
AcDbLine
 10
177.2203768205
 20
204.2730988983
 30
0.0
 11
175.2203727674
 21
204.2730988983
 31
0.0
  0
LINE
  5
169
330
1F
100
AcDbEntity
  8
0
  6
SLD-Durchgehend
 62
     7
370
    15
100
AcDbLine
 10
231.2203744959
 20
219.7730986449
 30
0.0
 11
210.2203691911
 21
219.7730986449
 31
0.0
  0
LINE
  5
16A
330
1F
100
AcDbEntity
  8
0
  6
SLD-Durchgehend
 62
     7
370
    15
100
AcDbLine
 10
210.2203691911
 20
166.7730992708
 30
0.0
 11
231.2203744959
 21
166.7730992708
 31
0.0
  0
LINE
  5
16B
330
1F
100
AcDbEntity
  8
0
  6
SLD-Durchgehend
 62
     7
370
    15
100
AcDbLine
 10
210.2203691911
 20
219.7730986449
 30
0.0
 11
209.2203820657
 21
218.773098481
 31
0.0
  0
LINE
  5
16C
330
1F
100
AcDbEntity
  8
0
  6
SLD-Durchgehend
 62
     7
370
    15
100
AcDbLine
 10
209.2203820657
 20
167.7730994347
 30
0.0
 11
210.2203691911
 21
166.7730992708
 31
0.0
  0
LINE
  5
16D
330
1F
100
AcDbEntity
  8
0
  6
SLD-Durchgehend
 62
     7
370
    15
100
AcDbLine
 10
353.7203762107
 20
194.3730989519
 30
0.0
 11
340.7203766119
 21
194.3730989519
 31
0.0
  0
LINE
  5
16E
330
1F
100
AcDbEntity
  8
0
  6
SLD-Durchgehend
 62
     7
370
    15
100
AcDbLine
 10
340.7203766119
 20
194.3730989519
 30
0.0
 11
337.65598634
 21
189.2730987679
 31
0.0
  0
LINE
  5
16F
330
1F
100
AcDbEntity
  8
0
  6
SLD-Durchgehend
 62
     7
370
    15
100
AcDbLine
 10
337.65598634
 20
189.2730987679
 30
0.0
 11
340.7203766119
 21
184.1730985839
 31
0.0
  0
LINE
  5
170
330
1F
100
AcDbEntity
  8
0
  6
SLD-Durchgehend
 62
     7
370
    15
100
AcDbLine
 10
340.7203766119
 20
184.1730985839
 30
0.0
 11
353.7203762107
 21
184.1730985839
 31
0.0
  0
LINE
  5
171
330
1F
100
AcDbEntity
  8
0
  6
SLD-Durchgehend
 62
     7
370
    15
100
AcDbLine
 10
353.7203761816
 20
177.331231353
 30
0.0
 11
353.7203762107
 21
184.1730985839
 31
0.0
  0
LINE
  5
172
330
1F
100
AcDbEntity
  8
0
  6
SLD-Durchgehend
 62
     7
370
    15
100
AcDbLine
 10
353.7203762107
 20
194.3730989519
 30
0.0
 11
353.7203762107
 21
200.1153969254
 31
0.0
  0
LINE
  5
173
330
1F
100
AcDbEntity
  8
0
  6
SLD-Durchgehend
 62
     7
370
    15
100
AcDbLine
 10
340.7203766119
 20
184.1730985839
 30
0.0
 11
340.7203766119
 21
194.3730989519
 31
0.0
  0
LINE
  5
174
330
1F
100
AcDbEntity
  8
0
  6
SLD-Durchgehend
 62
     7
370
    15
100
AcDbLine
 10
353.7203762107
 20
184.1730985839
 30
0.0
 11
353.7203762107
 21
194.3730989519
 31
0.0
  0
LINE
  5
175
330
1F
100
AcDbEntity
  8
0
  6
SLD-Durchgehend
 62
     7
370
    15
100
AcDbLine
 10
231.4203778815
 20
219.7730986449
 30
0.0
 11
231.4203778815
 21
166.7730992708
 31
0.0
  0
SPLINE
  5
176
330
1F
100
AcDbEntity
  8
0
  6
SLD-Durchgehend
 62
     7
370
    15
100
AcDbSpline
210
0.0
220
0.0
230
1.0
 70
     8
 71
     3
 72
    17
 73
    13
 74
     0
 42
0.000000001
 43
0.00000001
 40
0.0
 40
0.0
 40
0.0
 40
0.0
 40
0.1005601256092082
 40
0.2041873240936108
 40
0.3047086280594517
 40
0.407908732905868
 40
0.513039316511735
 40
0.6210121979237956
 40
0.7295224470833385
 40
0.8414561755938187
 40
0.9451673658783584
 40
1.0
 40
1.0
 40
1.0
 40
1.0
 10
281.6203782867647
 20
217.8138809326618
 30
0.0
 10
282.1519188382204
 20
217.8239798275135
 30
0.0
 10
283.2312118700405
 20
217.8444856324094
 30
0.0
 10
284.7940056000328
 20
218.0040089537222
 30
0.0
 10
286.2776974476612
 20
218.238614170275
 30
0.0
 10
287.6414743439321
 20
218.5312558914291
 30
0.0
 10
288.8747020223046
 20
218.8556930982397
 30
0.0
 10
289.929204931483
 20
219.1770705754314
 30
0.0
 10
290.7756773347921
 20
219.4632557496189
 30
0.0
 10
291.3330311896688
 20
219.6650294798243
 30
0.0
 10
291.6102472650381
 20
219.769262176725
 30
0.0
 10
291.591045692067
 20
219.7620414693405
 30
0.0
 10
291.5844047974802
 20
219.759544176194
 30
0.0
  0
SPLINE
  5
177
330
1F
100
AcDbEntity
  8
0
  6
SLD-Durchgehend
 62
     7
370
    15
100
AcDbSpline
210
0.0
220
0.0
230
1.0
 70
     8
 71
     3
 72
    17
 73
    13
 74
     0
 42
0.000000001
 43
0.00000001
 40
0.0
 40
0.0
 40
0.0
 40
0.0
 40
0.0384965149447723
 40
0.1424500096754172
 40
0.2409882920471342
 40
0.3421687432711346
 40
0.4449346223529086
 40
0.5503871653813271
 40
0.6584975916729366
 40
0.7698205678627624
 40
0.8827644098880499
 40
1.0
 40
1.0
 40
1.0
 40
1.0
 10
271.650532872603
 20
219.7617365095347
 30
0.0
 10
271.6427901667317
 20
219.7646526140779
 30
0.0
 10
271.614139559583
 20
219.7754431783924
 30
0.0
 10
271.836047864674
 20
219.6917550779144
 30
0.0
 10
272.3019788411892
 20
219.5216830712255
 30
0.0
 10
273.010173638328
 20
219.2766849624276
 30
0.0
 10
273.9464599900495
 20
218.9792870472203
 30
0.0
 10
275.1061349875166
 20
218.6540493304522
 30
0.0
 10
276.4809323172592
 20
218.3320176456633
 30
0.0
 10
278.0481271505874
 20
218.0560961557817
 30
0.0
 10
279.7831843283488
 20
217.8545854627569
 30
0.0
 10
281.0004151185903
 20
217.8276167221364
 30
0.0
 10
281.6203782867647
 20
217.8138809326618
 30
0.0
  0
LINE
  5
178
330
1F
100
AcDbEntity
  8
0
  6
SLD-Durchgehend
 62
     7
370
    15
100
AcDbLine
 10
305.6203747701
 20
219.7730986449
 30
0.0
 11
305.6203747701
 21
166.7730992708
 31
0.0
  0
SPLINE
  5
179
330
1F
100
AcDbEntity
  8
0
  6
SLD-Durchgehend
 62
     7
370
    15
100
AcDbSpline
210
0.0
220
0.0
230
1.0
 70
     8
 71
     3
 72
    12
 73
     8
 74
     0
 42
0.000000001
 43
0.00000001
 40
0.0
 40
0.0
 40
0.0
 40
0.0
 40
0.2148112432777965
 40
0.4296219616015514
 40
0.6444573126414043
 40
0.8593074263266502
 40
1.0
 40
1.0
 40
1.0
 40
1.0
 10
342.120376096294
 20
219.7683824274271
 30
0.0
 10
342.1765632753739
 20
219.7684886910647
 30
0.0
 10
342.2889374962238
 20
219.7687012180803
 30
0.0
 10
342.4390499874493
 20
219.7702030332651
 30
0.0
 10
342.5510428507215
 20
219.7718234274307
 30
0.0
 10
342.6145090964156
 20
219.7729869312247
 30
0.0
 10
342.6141198962266
 20
219.7729815607985
 30
0.0
 10
342.6139658849693
 20
219.7729794356554
 30
0.0
  0
SPLINE
  5
17A
330
1F
100
AcDbEntity
  8
0
  6
SLD-Durchgehend
 62
     7
370
    15
100
AcDbSpline
210
0.0
220
0.0
230
1.0
 70
     8
 71
     3
 72
    13
 73
     9
 74
     0
 42
0.000000001
 43
0.00000001
 40
0.0
 40
0.0
 40
0.0
 40
0.0
 40
0.006795069868018
 40
0.2214267490520247
 40
0.4360586604642589
 40
0.6507240664942904
 40
0.8654036676478516
 40
1.0
 40
1.0
 40
1.0
 40
1.0
 10
341.6212412130095
 20
219.7730837437838
 30
0.0
 10
341.6209537912643
 20
219.7730888643798
 30
0.0
 10
341.6115877561999
 20
219.7732557260818
 30
0.0
 10
341.6454351350496
 20
219.7726210850271
 30
0.0
 10
341.7247055434884
 20
219.7712635379145
 30
0.0
 10
341.8550182113574
 20
219.7695837094312
 30
0.0
 10
341.994023070114
 20
219.768533951036
 30
0.0
 10
342.0852291058475
 20
219.7684245759929
 30
0.0
 10
342.120376096294
 20
219.7683824274271
 30
0.0
  0
LINE
  5
17B
330
1F
100
AcDbEntity
  8
0
  6
SLD-Durchgehend
 62
     7
370
    15
100
AcDbLine
 10
354.1203762006
 20
177.3859800819
 30
0.0
 11
354.1203762006
 21
166.7730992708
 31
0.0
  0
LINE
  5
17C
330
1F
100
AcDbEntity
  8
0
  6
SLD-Durchgehend
 62
     7
370
    15
100
AcDbLine
 10
354.1203762006
 20
219.7730986449
 30
0.0
 11
354.1203762006
 21
206.4355451662
 31
0.0
  0
LINE
  5
17D
330
1F
100
AcDbEntity
  8
0
  6
SLD-Durchgehend
 62
     7
370
    15
100
AcDbLine
 10
335.1203768115
 20
206.4355451662
 30
0.0
 11
354.1203762006
 21
206.4355451662
 31
0.0
  0
LINE
  5
17E
330
1F
100
AcDbEntity
  8
0
  6
SLD-Durchgehend
 62
     7
370
    15
100
AcDbLine
 10
335.1203768115
 20
180.1106527496
 30
0.0
 11
335.1203768115
 21
206.4355451662
 31
0.0
  0
LINE
  5
17F
330
1F
100
AcDbEntity
  8
0
  6
SLD-Durchgehend
 62
     7
370
    15
100
AcDbLine
 10
340.5312417608
 20
180.1106527496
 30
0.0
 11
335.1203768115
 21
180.1106527496
 31
0.0
  0
SPLINE
  5
180
330
1F
100
AcDbEntity
  8
0
  6
SLD-Durchgehend
 62
     7
370
     0
100
AcDbSpline
210
0.0
220
0.0
230
1.0
 70
     8
 71
     3
 72
    18
 73
    14
 74
     0
 42
0.000000001
 43
0.00000001
 40
0.0
 40
0.0
 40
0.0
 40
0.0
 40
0.125
 40
0.125
 40
0.2499999999999999
 40
0.2499999999999999
 40
0.5000000000000001
 40
0.5000000000000001
 40
0.75
 40
0.75
 40
0.875
 40
0.875
 40
1.0
 40
1.0
 40
1.0
 40
1.0
 10
340.5312418731343
 20
180.1106523767354
 30
0.0
 10
341.0131435965461
 20
179.8076209662261
 30
0.0
 10
341.5164242936275
 20
179.5373828829309
 30
0.0
 10
342.5591004177573
 20
179.0500549970203
 30
0.0
 10
343.1009821488162
 20
178.8322027766028
 30
0.0
 10
344.7559449538891
 20
178.2515487630464
 30
0.0
 10
345.8867640414136
 20
177.962588830323
 30
0.0
 10
348.1861317320954
 20
177.5108597855107
 30
0.0
 10
349.3530356921338
 20
177.3432514071419
 30
0.0
 10
351.1461531360394
 20
177.2283832445305
 30
0.0
 10
351.7442538540104
 20
177.2141024776455
 30
0.0
 10
352.9352573782873
 20
177.2477718279794
 30
0.0
 10
353.5290137887843
 20
177.2954140283508
 30
0.0
 10
354.1203762006022
 20
177.3859801054601
 30
0.0
  0
LINE
  5
181
330
1F
100
AcDbEntity
  8
0
  6
SLD-Durchgehend
 62
     7
370
    15
100
AcDbLine
 10
321.1203763794
 20
219.7730986449
 30
0.0
 11
321.1203763794
 21
166.7730992708
 31
0.0
  0
LINE
  5
182
330
1F
100
AcDbEntity
  8
0
  6
SLD-Durchgehend
 62
     7
370
    15
100
AcDbLine
 10
354.1203762006
 20
206.4355451662
 30
0.0
 11
354.1203762006
 21
199.929779214
 31
0.0
  0
SPLINE
  5
183
330
1F
100
AcDbEntity
  8
0
  6
SLD-Durchgehend
 62
     7
370
     0
100
AcDbSpline
210
0.0
220
0.0
230
1.0
 70
     8
 71
     3
 72
    11
 73
     7
 74
     0
 42
0.000000001
 43
0.00000001
 40
0.0321074949894428
 40
0.0321074949894428
 40
0.0321074949894428
 40
0.0321074949894428
 40
0.1517519095758328
 40
0.2542437754171731
 40
0.435103334264366
 40
0.4990189506916561
 40
0.4990189506916561
 40
0.4990189506916561
 40
0.4990189506916561
 10
354.1203762006022
 20
199.9297792238715
 30
0.0
 10
351.387351491388
 20
201.2703456879876
 30
0.0
 10
345.2541887153922
 20
201.4465353717527
 30
0.0
 10
335.8629075509571
 20
196.6953302704566
 30
0.0
 10
334.8786032519279
 20
185.0594805197445
 30
0.0
 10
339.1830256376609
 20
180.9584432180173
 30
0.0
 10
340.5312418731406
 20
180.1106523767314
 30
0.0
  0
LINE
  5
184
330
1F
100
AcDbEntity
  8
0
  6
SLD-Durchgehend
 62
     7
370
    15
100
AcDbLine
 10
354.1203762006
 20
177.3470507983
 30
0.0
 11
354.1203762006
 21
199.929779214
 31
0.0
  0
LINE
  5
185
330
1F
100
AcDbEntity
  8
0
  6
SLD-Durchgehend
 62
     7
370
    15
100
AcDbLine
 10
275.420377643
 20
218.773098481
 30
0.0
 11
287.8203789305
 21
218.773098481
 31
0.0
  0
LINE
  5
186
330
1F
100
AcDbEntity
  8
0
  6
SLD-Durchgehend
 62
     7
370
    15
100
AcDbLine
 10
281.6203782868
 20
218.2730993304
 30
0.0
 11
276.8779272746
 21
218.2730993304
 31
0.0
  0
LINE
  5
187
330
1F
100
AcDbEntity
  8
0
  6
SLD-Durchgehend
 62
     7
370
    15
100
AcDbLine
 10
286.3816420149
 20
218.2730993304
 30
0.0
 11
281.6203782868
 21
218.2730993304
 31
0.0
  0
SPLINE
  5
188
330
1F
100
AcDbEntity
  8
0
  6
SLD-Durchgehend
 62
     7
370
    15
100
AcDbSpline
210
0.0
220
0.0
230
1.0
 70
     8
 71
     3
 72
    12
 73
     8
 74
     0
 42
0.000000001
 43
0.00000001
 40
0.0
 40
0.0
 40
0.0
 40
0.0
 40
0.2146828665127724
 40
0.4293671153074431
 40
0.6440305083310484
 40
0.8587038833187727
 40
1.0
 40
1.0
 40
1.0
 40
1.0
 10
305.8703752767302
 20
219.6683639708489
 30
0.0
 10
305.8759004485941
 20
219.6693207516369
 30
0.0
 10
305.8869508278967
 20
219.6712343193732
 30
0.0
 10
305.973139627866
 20
219.6725734877436
 30
0.0
 10
306.099995644238
 20
219.6730634599342
 30
0.0
 10
306.2405856602224
 20
219.6731013285774
 30
0.0
 10
306.3334967800199
 20
219.6730995290933
 30
0.0
 10
306.3703762900091
 20
219.6730988148182
 30
0.0
  0
LINE
  5
189
330
1F
100
AcDbEntity
  8
0
  6
SLD-Durchgehend
 62
     7
370
    15
100
AcDbLine
 10
305.8703752767
 20
166.8730991009
 30
0.0
 11
305.8703752767
 21
219.6491656873
 31
0.0
  0
SPLINE
  5
18A
330
1F
100
AcDbEntity
  8
0
  6
SLD-Durchgehend
 62
     7
370
    15
100
AcDbSpline
210
0.0
220
0.0
230
1.0
 70
     8
 71
     3
 72
    12
 73
     8
 74
     0
 42
0.000000001
 43
0.00000001
 40
0.0
 40
0.0
 40
0.0
 40
0.0
 40
0.2146869321638504
 40
0.4293727509553731
 40
0.6440532494231502
 40
0.858721689520694
 40
1.0
 40
1.0
 40
1.0
 40
1.0
 10
306.3703762900091
 20
219.6657208773821
 30
0.0
 10
306.3141641289391
 20
219.6655928706403
 30
0.0
 10
306.2017400983167
 20
219.6653368578204
 30
0.0
 10
306.0519033888845
 20
219.6631666202632
 30
0.0
 10
305.9388322732124
 20
219.6594130780586
 30
0.0
 10
305.8789148204456
 20
219.6545279721621
 30
0.0
 10
305.8728016474079
 20
219.6506892922094
 30
0.0
 10
305.8703752767302
 20
219.6491656872957
 30
0.0
  0
LINE
  5
18B
330
1F
100
AcDbEntity
  8
0
  6
SLD-Durchgehend
 62
     7
370
    15
100
AcDbLine
 10
306.37037629
 20
219.6657208774
 30
0.0
 11
320.3703748595
 21
219.6657208774
 31
0.0
  0
SPLINE
  5
18C
330
1F
100
AcDbEntity
  8
0
  6
SLD-Durchgehend
 62
     7
370
    15
100
AcDbSpline
210
0.0
220
0.0
230
1.0
 70
     8
 71
     3
 72
    12
 73
     8
 74
     0
 42
0.000000001
 43
0.00000001
 40
0.0
 40
0.0
 40
0.0
 40
0.0
 40
0.2146828172848087
 40
0.4293670945032215
 40
0.644030504971244
 40
0.8587038779538538
 40
1.0
 40
1.0
 40
1.0
 40
1.0
 10
320.8703758727766
 20
219.6491656872957
 30
0.0
 10
320.8648506979052
 20
219.6514509053626
 30
0.0
 10
320.8538003105886
 20
219.6560213570366
 30
0.0
 10
320.7676115238293
 20
219.6609031949012
 30
0.0
 10
320.6407555136845
 20
219.6640683888859
 30
0.0
 10
320.5001654849416
 20
219.6655181551205
 30
0.0
 10
320.4072543690062
 20
219.6656632746273
 30
0.0
 10
320.3703748594976
 20
219.6657208773821
 30
0.0
  0
LINE
  5
18D
330
1F
100
AcDbEntity
  8
0
  6
SLD-Durchgehend
 62
     7
370
    15
100
AcDbLine
 10
320.8703758728
 20
166.8730991009
 30
0.0
 11
320.8703758728
 21
219.6491656873
 31
0.0
  0
SPLINE
  5
18E
330
1F
100
AcDbEntity
  8
0
  6
SLD-Durchgehend
 62
     7
370
    15
100
AcDbSpline
210
0.0
220
0.0
230
1.0
 70
     8
 71
     3
 72
    12
 73
     8
 74
     0
 42
0.000000001
 43
0.00000001
 40
0.0
 40
0.0
 40
0.0
 40
0.0
 40
0.214686639905339
 40
0.4293721664994286
 40
0.6440523659403498
 40
0.8587223945893018
 40
1.0
 40
1.0
 40
1.0
 40
1.0
 10
320.3703748594976
 20
219.6730988148182
 30
0.0
 10
320.4265869819668
 20
219.6731016917401
 30
0.0
 10
320.5390109354029
 20
219.6731074455688
 30
0.0
 10
320.6888482222761
 20
219.6729748866948
 30
0.0
 10
320.8019174671869
 20
219.6722224780435
 30
0.0
 10
320.8618421881425
 20
219.6706595861939
 30
0.0
 10
320.8679511798312
 20
219.669016228645
 30
0.0
 10
320.8703758727766
 20
219.6683639708489
 30
0.0
  0
LINE
  5
18F
330
1F
100
AcDbEntity
  8
0
  6
SLD-Durchgehend
 62
     7
370
    15
100
AcDbLine
 10
306.37037629
 20
219.6730988148
 30
0.0
 11
320.3703748595
 21
219.6730988148
 31
0.0
  0
LINE
  5
190
330
1F
100
AcDbEntity
  8
0
  6
SLD-Durchgehend
 62
     7
370
    15
100
AcDbLine
 10
320.8703758728
 20
219.6683639708
 30
0.0
 11
320.8703758728
 21
219.6491656873
 31
0.0
  0
LINE
  5
191
330
1F
100
AcDbEntity
  8
0
  6
SLD-Durchgehend
 62
     7
370
    15
100
AcDbLine
 10
305.8703752767
 20
219.6491656873
 30
0.0
 11
305.8703752767
 21
219.6683639708
 31
0.0
  0
LINE
  5
192
330
1F
100
AcDbEntity
  8
0
  6
SLD-Durchgehend
 62
     7
370
    15
100
AcDbLine
 10
165.2203823041
 20
193.2730989579
 30
0.0
 11
165.2203823041
 21
204.7730989802
 31
0.0
  0
LINE
  5
193
330
1F
100
AcDbEntity
  8
0
  6
SLD-Durchgehend
 62
     7
370
    15
100
AcDbLine
 10
165.2203823041
 20
181.7730989355
 30
0.0
 11
165.2203823041
 21
193.2730989579
 31
0.0
  0
LINE
  5
194
330
1F
100
AcDbEntity
  8
0
  6
SLD-Durchgehend
 62
     7
370
    15
100
AcDbLine
 10
199.2203767013
 20
193.2730989579
 30
0.0
 11
199.2203767013
 21
205.2730990622
 31
0.0
  0
LINE
  5
195
330
1F
100
AcDbEntity
  8
0
  6
SLD-Durchgehend
 62
     7
370
    15
100
AcDbLine
 10
201.2203807544
 20
193.2730989579
 30
0.0
 11
199.2203767013
 21
193.2730989579
 31
0.0
  0
LINE
  5
196
330
1F
100
AcDbEntity
  8
0
  6
SLD-Durchgehend
 62
     7
370
    15
100
AcDbLine
 10
201.2203807544
 20
193.2730989579
 30
0.0
 11
201.2203807544
 21
205.2730990622
 31
0.0
  0
LINE
  5
197
330
1F
100
AcDbEntity
  8
0
  6
SLD-Durchgehend
 62
     7
370
    15
100
AcDbLine
 10
193.2203794431
 20
193.2730989579
 30
0.0
 11
193.2203794431
 21
205.2730990622
 31
0.0
  0
LINE
  5
198
330
1F
100
AcDbEntity
  8
0
  6
SLD-Durchgehend
 62
     7
370
    15
100
AcDbLine
 10
191.22037539
 20
193.2730989579
 30
0.0
 11
191.22037539
 21
205.2730990622
 31
0.0
  0
LINE
  5
199
330
1F
100
AcDbEntity
  8
0
  6
SLD-Durchgehend
 62
     7
370
    15
100
AcDbLine
 10
191.22037539
 20
193.2730989579
 30
0.0
 11
193.2203794431
 21
193.2730989579
 31
0.0
  0
LINE
  5
19A
330
1F
100
AcDbEntity
  8
0
  6
SLD-Durchgehend
 62
     7
370
    15
100
AcDbLine
 10
185.2203781318
 20
193.2730989579
 30
0.0
 11
185.2203781318
 21
205.2730990622
 31
0.0
  0
LINE
  5
19B
330
1F
100
AcDbEntity
  8
0
  6
SLD-Durchgehend
 62
     7
370
    15
100
AcDbLine
 10
183.2203740787
 20
193.2730989579
 30
0.0
 11
183.2203740787
 21
205.2730990622
 31
0.0
  0
LINE
  5
19C
330
1F
100
AcDbEntity
  8
0
  6
SLD-Durchgehend
 62
     7
370
    15
100
AcDbLine
 10
183.2203740787
 20
193.2730989579
 30
0.0
 11
185.2203781318
 21
193.2730989579
 31
0.0
  0
LINE
  5
19D
330
1F
100
AcDbEntity
  8
0
  6
SLD-Durchgehend
 62
     7
370
    15
100
AcDbLine
 10
177.2203768205
 20
193.2730989579
 30
0.0
 11
177.2203768205
 21
205.2730990622
 31
0.0
  0
LINE
  5
19E
330
1F
100
AcDbEntity
  8
0
  6
SLD-Durchgehend
 62
     7
370
    15
100
AcDbLine
 10
175.2203727674
 20
193.2730989579
 30
0.0
 11
175.2203727674
 21
205.2730990622
 31
0.0
  0
LINE
  5
19F
330
1F
100
AcDbEntity
  8
0
  6
SLD-Durchgehend
 62
     7
370
    15
100
AcDbLine
 10
175.2203727674
 20
193.2730989579
 30
0.0
 11
177.2203768205
 21
193.2730989579
 31
0.0
  0
LINE
  5
1A0
330
1F
100
AcDbEntity
  8
0
  6
SLD-Durchgehend
 62
     7
370
    15
100
AcDbLine
 10
161.2203741979
 20
185.7730991255
 30
0.0
 11
161.2203741979
 21
193.2730989579
 31
0.0
  0
LINE
  5
1A1
330
1F
100
AcDbEntity
  8
0
  6
SLD-Durchgehend
 62
     7
370
    15
100
AcDbLine
 10
161.2203741979
 20
193.2730989579
 30
0.0
 11
161.2203741979
 21
200.7730987902
 31
0.0
  0
ARC
  5
1A2
330
1F
100
AcDbEntity
  8
0
  6
SLD-Durchgehend
 62
     7
370
    15
100
AcDbCircle
 10
164.7203762006
 20
184.7730989579
 30
0.0
 40
0.5
100
AcDbArc
 50
0.0
 51
90.0
  0
ARC
  5
1A3
330
1F
100
AcDbEntity
  8
0
  6
SLD-Durchgehend
 62
     7
370
    15
100
AcDbCircle
 10
164.7203762006
 20
201.7730989579
 30
0.0
 40
0.5
100
AcDbArc
 50
270.0
 51
0.0
  0
ARC
  5
1A4
330
1F
100
AcDbEntity
  8
0
  6
SLD-Durchgehend
 62
     7
370
    15
100
AcDbCircle
 10
161.7203762006
 20
185.7730989579
 30
0.0
 40
0.5
100
AcDbArc
 50
180.0
 51
270.0
  0
LINE
  5
1A5
330
1F
100
AcDbEntity
  8
0
  6
SLD-Durchgehend
 62
     7
370
    15
100
AcDbLine
 10
164.7203738403
 20
185.2730985779
 30
0.0
 11
161.7203826617
 21
185.2730985779
 31
0.0
  0
LINE
  5
1A6
330
1F
100
AcDbEntity
  8
0
  6
SLD-Durchgehend
 62
     7
370
    15
100
AcDbLine
 10
161.7203826617
 20
201.2730993378
 30
0.0
 11
164.7203738403
 21
201.2730993378
 31
0.0
  0
ARC
  5
1A7
330
1F
100
AcDbEntity
  8
0
  6
SLD-Durchgehend
 62
     7
370
    15
100
AcDbCircle
 10
161.7203762006
 20
200.7730989579
 30
0.0
 40
0.5
100
AcDbArc
 50
90.0
 51
180.0
  0
LINE
  5
1A8
330
1F
100
AcDbEntity
  8
0
  6
SLD-Durchgehend
 62
     7
370
    15
100
AcDbLine
 10
210.2203691911
 20
193.2730989579
 30
0.0
 11
210.2203691911
 21
166.7730992708
 31
0.0
  0
LINE
  5
1A9
330
1F
100
AcDbEntity
  8
0
  6
SLD-Durchgehend
 62
     7
370
    15
100
AcDbLine
 10
210.2203691911
 20
219.7730986449
 30
0.0
 11
210.2203691911
 21
193.2730989579
 31
0.0
  0
LINE
  5
1AA
330
1F
100
AcDbEntity
  8
0
  6
SLD-Durchgehend
 62
     7
370
    15
100
AcDbLine
 10
231.2203744959
 20
219.7730986449
 30
0.0
 11
231.2203744959
 21
166.7730992708
 31
0.0
  0
LINE
  5
1AB
330
1F
100
AcDbEntity
  8
0
  6
SLD-Durchgehend
 62
     7
370
    15
100
AcDbLine
 10
209.2203820657
 20
193.2730989579
 30
0.0
 11
209.2203820657
 21
218.773098481
 31
0.0
  0
LINE
  5
1AC
330
1F
100
AcDbEntity
  8
0
  6
SLD-Durchgehend
 62
     7
370
    15
100
AcDbLine
 10
209.2203820657
 20
167.7730994347
 30
0.0
 11
209.2203820657
 21
193.2730989579
 31
0.0
  0
LINE
  5
1AD
330
1F
100
AcDbEntity
  8
0
  6
SLD-Durchgehend
 62
     8
370
     0
100
AcDbLine
 10
287.7974385928
 20
218.5730988208
 30
0.0
 11
275.47320971
 21
218.5730988208
 31
0.0
  0
LINE
  5
1AE
330
1F
100
AcDbEntity
  8
0
  6
SLD-Durchgehend
 62
     8
370
     0
100
AcDbLine
 10
281.6203782868
 20
218.4730989907
 30
0.0
 11
287.3673091244
 21
218.4730989907
 31
0.0
  0
LINE
  5
1AF
330
1F
100
AcDbEntity
  8
0
  6
SLD-Durchgehend
 62
     8
370
     0
100
AcDbLine
 10
275.8727694463
 20
218.4730989907
 30
0.0
 11
281.6203782868
 21
218.4730989907
 31
0.0
  0
LINE
  5
1B0
330
1F
100
AcDbEntity
  8
0
  6
SLD-Durchgehend
 62
     8
370
     0
100
AcDbLine
 10
281.6203782868
 20
218.0897088769
 30
0.0
 11
277.9150555443
 21
218.0897088769
 31
0.0
  0
LINE
  5
1B1
330
1F
100
AcDbEntity
  8
0
  6
SLD-Durchgehend
 62
     8
370
     0
100
AcDbLine
 10
285.3129903387
 20
218.0897088769
 30
0.0
 11
281.6203782868
 21
218.0897088769
 31
0.0
  0
LINE
  5
1B2
330
1F
100
AcDbEntity
  8
0
  6
SLD-Durchgehend
 62
     8
370
     0
100
AcDbLine
 10
313.8319129657
 20
212.7965910408
 30
0.0
 11
313.8319129657
 21
211.0003305647
 31
0.0
  0
LINE
  5
1B3
330
1F
100
AcDbEntity
  8
0
  6
SLD-Durchgehend
 62
     8
370
     0
100
AcDbLine
 10
312.8319146644
 20
212.7965910408
 30
0.0
 11
313.8319129657
 21
212.7965910408
 31
0.0
  0
LINE
  5
1B4
330
1F
100
AcDbEntity
  8
0
  6
SLD-Durchgehend
 62
     8
370
     0
100
AcDbLine
 10
312.8319146644
 20
212.7965910408
 30
0.0
 11
312.8319146644
 21
211.0003305647
 31
0.0
  0
LINE
  5
1B5
330
1F
100
AcDbEntity
  8
0
  6
SLD-Durchgehend
 62
     8
370
     0
100
AcDbLine
 10
311.3703752469
 20
211.0003305647
 30
0.0
 11
312.8319146644
 21
211.0003305647
 31
0.0
  0
LINE
  5
1B6
330
1F
100
AcDbEntity
  8
0
  6
SLD-Durchgehend
 62
     8
370
     0
100
AcDbLine
 10
311.3703752469
 20
213.0534051034
 30
0.0
 11
311.3703752469
 21
211.0003305647
 31
0.0
  0
LINE
  5
1B7
330
1F
100
AcDbEntity
  8
0
  6
SLD-Durchgehend
 62
     8
370
     0
100
AcDbLine
 10
310.3703769457
 20
213.0534051034
 30
0.0
 11
311.3703752469
 21
213.0534051034
 31
0.0
  0
LINE
  5
1B8
330
1F
100
AcDbEntity
  8
0
  6
SLD-Durchgehend
 62
     8
370
     0
100
AcDbLine
 10
310.3703769457
 20
213.0534051034
 30
0.0
 11
310.3703769457
 21
210.1286554757
 31
0.0
  0
LINE
  5
1B9
330
1F
100
AcDbEntity
  8
0
  6
SLD-Durchgehend
 62
     8
370
     0
100
AcDbLine
 10
316.3703779291
 20
210.1286554757
 30
0.0
 11
310.3703769457
 21
210.1286554757
 31
0.0
  0
LINE
  5
1BA
330
1F
100
AcDbEntity
  8
0
  6
SLD-Durchgehend
 62
     8
370
     0
100
AcDbLine
 10
316.3703779291
 20
211.0003305647
 30
0.0
 11
316.3703779291
 21
210.1286554757
 31
0.0
  0
LINE
  5
1BB
330
1F
100
AcDbEntity
  8
0
  6
SLD-Durchgehend
 62
     8
370
     0
100
AcDbLine
 10
313.8319129657
 20
211.0003305647
 30
0.0
 11
316.3703779291
 21
211.0003305647
 31
0.0
  0
SPLINE
  5
1BC
330
1F
100
AcDbEntity
  8
0
  6
SLD-Durchgehend
 62
     8
370
     0
100
AcDbSpline
210
0.0
220
0.0
230
1.0
 70
     8
 71
     3
 72
    13
 73
     9
 74
     0
 42
0.000000001
 43
0.00000001
 40
0.0
 40
0.0
 40
0.0
 40
0.0
 40
0.1250247226646383
 40
0.2498731779590373
 40
0.3747927758937621
 40
0.499666117031854
 40
0.7494622299554053
 40
1.0
 40
1.0
 40
1.0
 40
1.0
 10
316.4472977232195
 20
199.8826496351093
 30
0.0
 10
316.4363051821837
 20
199.7162690868387
 30
0.0
 10
316.4143355980574
 20
199.383742563597
 30
0.0
 10
316.2013416100789
 20
198.9177665777816
 30
0.0
 10
315.8634530606188
 20
198.5324373136628
 30
0.0
 10
315.2763938896363
 20
198.1725583961493
 30
0.0
 10
314.4235973972097
 20
197.9951028642212
 30
0.0
 10
313.74101673275
 20
197.976438704044
 30
0.0
 10
313.3992204975344
 20
197.9670927907854
 30
0.0
  0
SPLINE
  5
1BD
330
1F
100
AcDbEntity
  8
0
  6
SLD-Durchgehend
 62
     8
370
     0
100
AcDbSpline
210
0.0
220
0.0
230
1.0
 70
     8
 71
     3
 72
    10
 73
     6
 74
     0
 42
0.000000001
 43
0.00000001
 40
0.0
 40
0.0
 40
0.0
 40
0.0
 40
0.2505901225971966
 40
0.5010798162947964
 40
1.0
 40
1.0
 40
1.0
 40
1.0
 10
315.837925912068
 20
201.1974163401454
 30
0.0
 10
315.933412488186
 20
201.1138902690518
 30
0.0
 10
316.1243473723065
 20
200.9468716015735
 30
0.0
 10
316.3888988632718
 20
200.5106777968013
 30
0.0
 10
316.4239574458033
 20
200.1336537049186
 30
0.0
 10
316.4472977232195
 20
199.8826496351093
 30
0.0
  0
SPLINE
  5
1BE
330
1F
100
AcDbEntity
  8
0
  6
SLD-Durchgehend
 62
     8
370
     0
100
AcDbSpline
210
0.0
220
0.0
230
1.0
 70
     8
 71
     3
 72
    10
 73
     6
 74
     0
 42
0.000000001
 43
0.00000001
 40
0.0
 40
0.0
 40
0.0
 40
0.0
 40
0.5002357311187563
 40
0.7504049876810558
 40
1.0
 40
1.0
 40
1.0
 40
1.0
 10
313.4112420093275
 20
201.7617354217499
 30
0.0
 10
313.8345469822278
 20
201.7461795636287
 30
0.0
 10
314.4695479292096
 20
201.7228441783381
 30
0.0
 10
315.3007871577147
 20
201.5250114359284
 30
0.0
 10
315.6590168662028
 20
201.306531025209
 30
0.0
 10
315.837925912068
 20
201.1974163401454
 30
0.0
  0
SPLINE
  5
1BF
330
1F
100
AcDbEntity
  8
0
  6
SLD-Durchgehend
 62
     8
370
     0
100
AcDbSpline
210
0.0
220
0.0
230
1.0
 70
     8
 71
     3
 72
    10
 73
     6
 74
     0
 42
0.000000001
 43
0.00000001
 40
0.0
 40
0.0
 40
0.0
 40
0.0
 40
0.2495530248417513
 40
0.4996972023096249
 40
1.0
 40
1.0
 40
1.0
 40
1.0
 10
310.9869609188295
 20
201.2020021725028
 30
0.0
 10
311.1659467684893
 20
201.3103137816188
 30
0.0
 10
311.524342457681
 20
201.5271935733472
 30
0.0
 10
312.354274096981
 20
201.7244256155747
 30
0.0
 10
312.9884524033686
 20
201.7468114131145
 30
0.0
 10
313.4112420093275
 20
201.7617354217499
 30
0.0
  0
SPLINE
  5
1C0
330
1F
100
AcDbEntity
  8
0
  6
SLD-Durchgehend
 62
     8
370
     0
100
AcDbSpline
210
0.0
220
0.0
230
1.0
 70
     8
 71
     3
 72
    11
 73
     7
 74
     0
 42
0.000000001
 43
0.00000001
 40
0.0
 40
0.0
 40
0.0
 40
0.0
 40
0.4986723437261499
 40
0.7490471697869285
 40
0.8744981613578668
 40
1.0
 40
1.0
 40
1.0
 40
1.0
 10
310.3703769456602
 20
199.8826496351093
 30
0.0
 10
310.392992215183
 20
200.1358863675645
 30
0.0
 10
310.4269622234321
 20
200.5162689175857
 30
0.0
 10
310.6685002983481
 20
200.8928635583231
 30
0.0
 10
310.8386652701047
 20
201.0807925571162
 30
0.0
 10
310.9375223592436
 20
201.161593510184
 30
0.0
 10
310.9869609188295
 20
201.2020021725028
 30
0.0
  0
SPLINE
  5
1C1
330
1F
100
AcDbEntity
  8
0
  6
SLD-Durchgehend
 62
     8
370
     0
100
AcDbSpline
210
0.0
220
0.0
230
1.0
 70
     8
 71
     3
 72
    10
 73
     6
 74
     0
 42
0.000000001
 43
0.00000001
 40
0.0
 40
0.0
 40
0.0
 40
0.0
 40
0.2506095750174979
 40
0.5010996529118029
 40
1.0
 40
1.0
 40
1.0
 40
1.0
 10
310.979752482102
 20
198.5501454259783
 30
0.0
 10
310.8842200825468
 20
198.6357892262448
 30
0.0
 10
310.6932008357537
 20
198.8070359896
 30
0.0
 10
310.429579426736
 20
199.2521536928198
 30
0.0
 10
310.3940382103415
 20
199.6306613552279
 30
0.0
 10
310.3703769456602
 20
199.8826496351093
 30
0.0
  0
SPLINE
  5
1C2
330
1F
100
AcDbEntity
  8
0
  6
SLD-Durchgehend
 62
     8
370
     0
100
AcDbSpline
210
0.0
220
0.0
230
1.0
 70
     8
 71
     3
 72
    10
 73
     6
 74
     0
 42
0.000000001
 43
0.00000001
 40
0.0
 40
0.0
 40
0.0
 40
0.0
 40
0.5002124086453139
 40
0.7503939521578912
 40
1.0
 40
1.0
 40
1.0
 40
1.0
 10
313.3992204975344
 20
197.9670927907854
 30
0.0
 10
312.9770858564049
 20
197.9832540955374
 30
0.0
 10
312.3438203151567
 20
198.0074984867906
 30
0.0
 10
311.5150670918794
 20
198.2131888936624
 30
0.0
 10
311.1580536540227
 20
198.4379128369532
 30
0.0
 10
310.979752482102
 20
198.5501454259783
 30
0.0
  0
SPLINE
  5
1C3
330
1F
100
AcDbEntity
  8
0
  6
SLD-Durchgehend
 62
     8
370
     0
100
AcDbSpline
210
0.0
220
0.0
230
1.0
 70
     8
 71
     3
 72
    11
 73
     7
 74
     0
 42
0.000000001
 43
0.00000001
 40
0.0
 40
0.0
 40
0.0
 40
0.0
 40
0.2500448771322066
 40
0.4998571531104199
 40
0.7497353608013595
 40
1.0
 40
1.0
 40
1.0
 40
1.0
 10
313.169653208182
 20
191.3708528086125
 30
0.0
 10
313.2175338653332
 20
191.5255666758091
 30
0.0
 10
313.3132506392467
 20
191.834850489541
 30
0.0
 10
313.6527660884188
 20
192.1949682098192
 30
0.0
 10
314.0874628875636
 20
192.4278463525997
 30
0.0
 10
314.4106040792452
 20
192.4513294700899
 30
0.0
 10
314.5722995113588
 20
192.4630801008597
 30
0.0
  0
SPLINE
  5
1C4
330
1F
100
AcDbEntity
  8
0
  6
SLD-Durchgehend
 62
     8
370
     0
100
AcDbSpline
210
0.0
220
0.0
230
1.0
 70
     8
 71
     3
 72
    12
 73
     8
 74
     0
 42
0.000000001
 43
0.00000001
 40
0.0
 40
0.0
 40
0.0
 40
0.0
 40
0.2496742504501983
 40
0.4993297254482148
 40
0.7493574399181102
 40
0.8746553321511698
 40
1.0
 40
1.0
 40
1.0
 40
1.0
 10
311.9088361572481
 20
192.2324534320786
 30
0.0
 10
312.0432595191735
 20
192.2211278016216
 30
0.0
 10
312.312096134415
 20
192.1984773923927
 30
0.0
 10
312.6751852488632
 20
192.0027575896252
 30
0.0
 10
312.9113580688526
 20
191.7620406879367
 30
0.0
 10
313.0692249274225
 20
191.5451363279571
 30
0.0
 10
313.1361729499197
 20
191.4289545424507
 30
0.0
 10
313.169653208182
 20
191.3708528086125
 30
0.0
  0
SPLINE
  5
1C5
330
1F
100
AcDbEntity
  8
0
  6
SLD-Durchgehend
 62
     8
370
     0
100
AcDbSpline
210
0.0
220
0.0
230
1.0
 70
     8
 71
     3
 72
     9
 73
     5
 74
     0
 42
0.000000001
 43
0.00000001
 40
0.0
 40
0.0
 40
0.0
 40
0.0
 40
0.5004397155322117
 40
1.0
 40
1.0
 40
1.0
 40
1.0
 10
310.9100411247469
 20
191.8218578725636
 30
0.0
 10
311.0564319991365
 20
191.9394401493692
 30
0.0
 10
311.3489564927887
 20
192.1743980736831
 30
0.0
 10
311.7223190513058
 20
192.2131129949816
 30
0.0
 10
311.9088361572481
 20
192.2324534320786
 30
0.0
  0
SPLINE
  5
1C6
330
1F
100
AcDbEntity
  8
0
  6
SLD-Durchgehend
 62
     8
370
     0
100
AcDbSpline
210
0.0
220
0.0
230
1.0
 70
     8
 71
     3
 72
    11
 73
     7
 74
     0
 42
0.000000001
 43
0.00000001
 40
0.0
 40
0.0
 40
0.0
 40
0.0
 40
0.4988988560699638
 40
0.7491910019343199
 40
0.874573365258961
 40
1.0
 40
1.0
 40
1.0
 40
1.0
 10
310.3703769456602
 20
190.5017223257154
 30
0.0
 10
310.3904596944162
 20
190.7477558650851
 30
0.0
 10
310.4206177404388
 20
191.1172217630867
 30
0.0
 10
310.6287079651505
 20
191.4982897102811
 30
0.0
 10
310.7785516650409
 20
191.6926603453699
 30
0.0
 10
310.8662061474168
 20
191.7787869626344
 30
0.0
 10
310.9100411247469
 20
191.8218578725636
 30
0.0
  0
SPLINE
  5
1C7
330
1F
100
AcDbEntity
  8
0
  6
SLD-Durchgehend
 62
     8
370
     0
100
AcDbSpline
210
0.0
220
0.0
230
1.0
 70
     8
 71
     3
 72
    12
 73
     8
 74
     0
 42
0.000000001
 43
0.00000001
 40
0.0
 40
0.0
 40
0.0
 40
0.0
 40
0.2504405499650847
 40
0.3757125538547036
 40
0.5008652829384126
 40
0.750178580197753
 40
1.0
 40
1.0
 40
1.0
 40
1.0
 10
311.9665297281004
 20
188.7166521559983
 30
0.0
 10
311.7504185693696
 20
188.7673305512292
 30
0.0
 10
311.4262071931584
 20
188.8433586117814
 30
0.0
 10
311.033628929251
 20
189.0528612986934
 30
0.0
 10
310.7046400212193
 20
189.3474705795571
 30
0.0
 10
310.4244088409752
 20
189.8417461226618
 30
0.0
 10
310.3883997965827
 20
190.2815810063947
 30
0.0
 10
310.3703769456602
 20
190.5017223257154
 30
0.0
  0
LINE
  5
1C8
330
1F
100
AcDbEntity
  8
0
  6
SLD-Durchgehend
 62
     8
370
     0
100
AcDbLine
 10
312.1396067154
 20
189.8571725983
 30
0.0
 11
311.9665297281
 21
188.716652156
 31
0.0
  0
SPLINE
  5
1C9
330
1F
100
AcDbEntity
  8
0
  6
SLD-Durchgehend
 62
     8
370
     0
100
AcDbSpline
210
0.0
220
0.0
230
1.0
 70
     8
 71
     3
 72
    13
 73
     9
 74
     0
 42
0.000000001
 43
0.00000001
 40
0.0
 40
0.0
 40
0.0
 40
0.0
 40
0.1251496932962341
 40
0.2501535253591495
 40
0.3716939699020399
 40
0.5002762191609245
 40
0.7496750315968371
 40
1.0
 40
1.0
 40
1.0
 40
1.0
 10
311.3703752469278
 20
190.5112846802502
 30
0.0
 10
311.3729872747793
 20
190.464786990027
 30
0.0
 10
311.378208286179
 20
190.3718458023658
 30
0.0
 10
311.4298984077075
 20
190.2419985227363
 30
0.0
 10
311.509022462336
 20
190.1266339672262
 30
0.0
 10
311.6469920355699
 20
190.0008217767174
 30
0.0
 10
311.8624805935625
 20
189.897129594008
 30
0.0
 10
312.0471172768412
 20
189.8705080430774
 30
0.0
 10
312.1396067153669
 20
189.8571725982755
 30
0.0
  0
SPLINE
  5
1CA
330
1F
100
AcDbEntity
  8
0
  6
SLD-Durchgehend
 62
     8
370
     0
100
AcDbSpline
210
0.0
220
0.0
230
1.0
 70
     8
 71
     3
 72
    14
 73
    10
 74
     0
 42
0.000000001
 43
0.00000001
 40
0.0
 40
0.0
 40
0.0
 40
0.0
 40
0.2497499618302304
 40
0.3765731010488735
 40
0.4998300990251227
 40
0.6265778190389003
 40
0.7498553358437826
 40
0.8748108859325936
 40
1.0
 40
1.0
 40
1.0
 40
1.0
 10
312.009798974917
 20
191.0808648030787
 30
0.0
 10
311.9287940782278
 20
191.076241372694
 30
0.0
 10
311.8066548597757
 20
191.0692701623494
 30
0.0
 10
311.6561139253292
 20
191.0079465688947
 30
0.0
 10
311.5549715168602
 20
190.9399100527811
 30
0.0
 10
311.471126725353
 20
190.8526653106029
 30
0.0
 10
311.4097273553497
 20
190.7478958312402
 30
0.0
 10
311.3758668268541
 20
190.6316314648467
 30
0.0
 10
311.3722069126763
 20
190.5514252383844
 30
0.0
 10
311.3703752469278
 20
190.5112846802502
 30
0.0
  0
SPLINE
  5
1CB
330
1F
100
AcDbEntity
  8
0
  6
SLD-Durchgehend
 62
     8
370
     0
100
AcDbSpline
210
0.0
220
0.0
230
1.0
 70
     8
 71
     3
 72
    13
 73
     9
 74
     0
 42
0.000000001
 43
0.00000001
 40
0.0
 40
0.0
 40
0.0
 40
0.0
 40
0.2498649642903252
 40
0.375083950415564
 40
0.5001547100683436
 40
0.6252576901912474
 40
0.7504179636738356
 40
1.0
 40
1.0
 40
1.0
 40
1.0
 10
312.7549911450602
 20
190.2699487331837
 30
0.0
 10
312.751986345204
 20
190.3747831400365
 30
0.0
 10
312.7474757000103
 20
190.5321549571437
 30
0.0
 10
312.67288461925
 20
190.7293395377418
 30
0.0
 10
312.5822826650876
 20
190.8593735244767
 30
0.0
 10
312.4611260232205
 20
190.9607901582271
 30
0.0
 10
312.2745534121983
 20
191.061485975033
 30
0.0
 10
312.1156381144478
 20
191.0731178564872
 30
0.0
 10
312.009798974917
 20
191.0808648030787
 30
0.0
  0
LINE
  5
1CC
330
1F
100
AcDbEntity
  8
0
  6
SLD-Durchgehend
 62
     8
370
     0
100
AcDbLine
 10
313.6864813577
 20
190.1625032119
 30
0.0
 11
312.7549911451
 21
190.2699487332
 31
0.0
  0
LINE
  5
1CD
330
1F
100
AcDbEntity
  8
0
  6
SLD-Durchgehend
 62
     8
370
     0
100
AcDbLine
 10
313.6011461329
 20
190.6176913112
 30
0.0
 11
313.6864813577
 21
190.1625032119
 31
0.0
  0
SPLINE
  5
1CE
330
1F
100
AcDbEntity
  8
0
  6
SLD-Durchgehend
 62
     8
370
     0
100
AcDbSpline
210
0.0
220
0.0
230
1.0
 70
     8
 71
     3
 72
    13
 73
     9
 74
     0
 42
0.000000001
 43
0.00000001
 40
0.0
 40
0.0
 40
0.0
 40
0.0
 40
0.2502732935890392
 40
0.4995554386333592
 40
0.6247340593323151
 40
0.7498446217598619
 40
0.8747776795211326
 40
0.9999999999999999
 40
0.9999999999999999
 40
0.9999999999999999
 40
0.9999999999999999
 10
314.4965792607523
 20
191.3109177771538
 30
0.0
 10
314.3908022151701
 20
191.305663021291
 30
0.0
 10
314.1796670291287
 20
191.2951743197906
 30
0.0
 10
313.9311415546612
 20
191.1868155161394
 30
0.0
 10
313.7714458685231
 20
191.0487615729198
 30
0.0
 10
313.6735449186611
 20
190.9236077679297
 30
0.0
 10
313.6122800297792
 20
190.7753664259677
 30
0.0
 10
313.6048602917352
 20
190.6702901838021
 30
0.0
 10
313.6011461328722
 20
190.6176913111984
 30
0.0
  0
SPLINE
  5
1CF
330
1F
100
AcDbEntity
  8
0
  6
SLD-Durchgehend
 62
     8
370
     0
100
AcDbSpline
210
0.0
220
0.0
230
1.0
 70
     8
 71
     3
 72
    13
 73
     9
 74
     0
 42
0.000000001
 43
0.00000001
 40
0.0
 40
0.0
 40
0.0
 40
0.0
 40
0.1249017434104358
 40
0.2490090658131856
 40
0.375048529510462
 40
0.500677302373298
 40
0.7498684553289774
 40
1.0
 40
1.0
 40
1.0
 40
1.0
 10
315.4472994219519
 20
190.5100893277257
 30
0.0
 10
315.4443269169031
 20
190.567897635861
 30
0.0
 10
315.4384008130305
 20
190.6831465700387
 30
0.0
 10
315.377397156179
 20
190.8479418396761
 30
0.0
 10
315.2814430955129
 20
190.9943456994302
 30
0.0
 10
315.1141428082732
 20
191.1568135031876
 30
0.0
 10
314.8460039721367
 20
191.2911088543709
 30
0.0
 10
314.6132003136092
 20
191.3043065176875
 30
0.0
 10
314.4965792607523
 20
191.3109177771538
 30
0.0
  0
SPLINE
  5
1D0
330
1F
100
AcDbEntity
  8
0
  6
SLD-Durchgehend
 62
     8
370
     0
100
AcDbSpline
210
0.0
220
0.0
230
1.0
 70
     8
 71
     3
 72
    13
 73
     9
 74
     0
 42
0.000000001
 43
0.00000001
 40
0.0
 40
0.0
 40
0.0
 40
0.0
 40
0.2502221119136324
 40
0.4996513591052466
 40
0.6271215588351235
 40
0.7498387603013044
 40
0.8748317878124475
 40
1.0
 40
1.0
 40
1.0
 40
1.0
 10
314.5242209147669
 20
189.7046785383999
 30
0.0
 10
314.6360685677369
 20
189.7222532315197
 30
0.0
 10
314.8594094683144
 20
189.7573469298183
 30
0.0
 10
315.1190040907422
 20
189.8857553017808
 30
0.0
 10
315.2831785322851
 20
190.0415344960707
 30
0.0
 10
315.3774023879652
 20
190.182498708371
 30
0.0
 10
315.4383806869352
 20
190.3410390731617
 30
0.0
 10
315.4443251226758
 20
190.4537129415208
 30
0.0
 10
315.4472994219519
 20
190.5100893277257
 30
0.0
  0
LINE
  5
1D1
330
1F
100
AcDbEntity
  8
0
  6
SLD-Durchgehend
 62
     8
370
     0
100
AcDbLine
 10
314.666050167
 20
188.5651930283
 30
0.0
 11
314.5242209148
 21
189.7046785384
 31
0.0
  0
SPLINE
  5
1D2
330
1F
100
AcDbEntity
  8
0
  6
SLD-Durchgehend
 62
     8
370
     0
100
AcDbSpline
210
0.0
220
0.0
230
1.0
 70
     8
 71
     3
 72
    12
 73
     8
 74
     0
 42
0.000000001
 43
0.00000001
 40
0.0
 40
0.0
 40
0.0
 40
0.0
 40
0.2498414130509293
 40
0.3740556289149135
 40
0.5004617262011374
 40
0.7500220114416762
 40
1.0
 40
1.0
 40
1.0
 40
1.0
 10
316.4472977232195
 20
190.4861841398805
 30
0.0
 10
316.4277820263139
 20
190.2441777200506
 30
0.0
 10
316.3985636665928
 20
189.8818524255148
 30
0.0
 10
316.1836782990509
 20
189.4459389891024
 30
0.0
 10
315.8894996474534
 20
189.0656447589631
 30
0.0
 10
315.3856315020163
 20
188.6956827896917
 30
0.0
 10
314.9060442855675
 20
188.6087138559795
 30
0.0
 10
314.6660501670099
 20
188.5651930283337
 30
0.0
  0
SPLINE
  5
1D3
330
1F
100
AcDbEntity
  8
0
  6
SLD-Durchgehend
 62
     8
370
     0
100
AcDbSpline
210
0.0
220
0.0
230
1.0
 70
     8
 71
     3
 72
    12
 73
     8
 74
     0
 42
0.000000001
 43
0.00000001
 40
0.0
 40
0.0
 40
0.0
 40
0.0
 40
0.2494947787804903
 40
0.3721049290756969
 40
0.5003840930065465
 40
0.7500025821360226
 40
1.0
 40
1.0
 40
1.0
 40
1.0
 10
314.5722995113588
 20
192.4630801008597
 30
0.0
 10
314.8268983482839
 20
192.4365968100755
 30
0.0
 10
315.2066156418474
 20
192.397098736861
 30
0.0
 10
315.646020092806
 20
192.133093155122
 30
0.0
 10
316.0223540779929
 20
191.7971841452009
 30
0.0
 10
316.3828908954662
 20
191.2455856530763
 30
0.0
 10
316.4258179281075
 20
190.7394459364968
 30
0.0
 10
316.4472977232195
 20
190.4861841398805
 30
0.0
  0
LINE
  5
1D4
330
1F
100
AcDbEntity
  8
0
  6
SLD-Durchgehend
 62
     8
370
     0
100
AcDbLine
 10
311.3703752469
 20
180.464520869
 30
0.0
 11
311.3703752469
 21
178.9473833564
 31
0.0
  0
LINE
  5
1D5
330
1F
100
AcDbEntity
  8
0
  6
SLD-Durchgehend
 62
     8
370
     0
100
AcDbLine
 10
310.3703769457
 20
180.464520869
 30
0.0
 11
311.3703752469
 21
180.464520869
 31
0.0
  0
LINE
  5
1D6
330
1F
100
AcDbEntity
  8
0
  6
SLD-Durchgehend
 62
     8
370
     0
100
AcDbLine
 10
310.3703769457
 20
180.464520869
 30
0.0
 11
310.3703769457
 21
176.5848377768
 31
0.0
  0
LINE
  5
1D7
330
1F
100
AcDbEntity
  8
0
  6
SLD-Durchgehend
 62
     8
370
     0
100
AcDbLine
 10
311.3703752469
 20
176.5848377768
 30
0.0
 11
310.3703769457
 21
176.5848377768
 31
0.0
  0
LINE
  5
1D8
330
1F
100
AcDbEntity
  8
0
  6
SLD-Durchgehend
 62
     8
370
     0
100
AcDbLine
 10
311.3703752469
 20
177.9921826023
 30
0.0
 11
311.3703752469
 21
176.5848377768
 31
0.0
  0
LINE
  5
1D9
330
1F
100
AcDbEntity
  8
0
  6
SLD-Durchgehend
 62
     8
370
     0
100
AcDbLine
 10
316.3703779291
 20
177.9921826023
 30
0.0
 11
311.3703752469
 21
177.9921826023
 31
0.0
  0
LINE
  5
1DA
330
1F
100
AcDbEntity
  8
0
  6
SLD-Durchgehend
 62
     8
370
     0
100
AcDbLine
 10
316.3703779291
 20
178.9473833564
 30
0.0
 11
316.3703779291
 21
177.9921826023
 31
0.0
  0
LINE
  5
1DB
330
1F
100
AcDbEntity
  8
0
  6
SLD-Durchgehend
 62
     8
370
     0
100
AcDbLine
 10
311.3703752469
 20
178.9473833564
 30
0.0
 11
316.3703779291
 21
178.9473833564
 31
0.0
  0
LINE
  5
1DC
330
1F
100
AcDbEntity
  8
0
  6
SLD-Durchgehend
 62
     8
370
     0
100
AcDbLine
 10
316.3703779291
 20
174.9410999987
 30
0.0
 11
312.4881635021
 21
173.3092850122
 31
0.0
  0
LINE
  5
1DD
330
1F
100
AcDbEntity
  8
0
  6
SLD-Durchgehend
 62
     8
370
     0
100
AcDbLine
 10
316.3703779291
 20
175.8544797126
 30
0.0
 11
316.3703779291
 21
174.9410999987
 31
0.0
  0
LINE
  5
1DE
330
1F
100
AcDbEntity
  8
0
  6
SLD-Durchgehend
 62
     8
370
     0
100
AcDbLine
 10
310.3703769457
 20
175.8544797126
 30
0.0
 11
316.3703779291
 21
175.8544797126
 31
0.0
  0
LINE
  5
1DF
330
1F
100
AcDbEntity
  8
0
  6
SLD-Durchgehend
 62
     8
370
     0
100
AcDbLine
 10
310.3703769457
 20
175.8544797126
 30
0.0
 11
310.3703769457
 21
175.0043386641
 31
0.0
  0
LINE
  5
1E0
330
1F
100
AcDbEntity
  8
0
  6
SLD-Durchgehend
 62
     8
370
     0
100
AcDbLine
 10
314.3126840305
 20
175.0043386641
 30
0.0
 11
310.3703769457
 21
175.0043386641
 31
0.0
  0
LINE
  5
1E1
330
1F
100
AcDbEntity
  8
0
  6
SLD-Durchgehend
 62
     8
370
     0
100
AcDbLine
 10
310.3703769457
 20
173.3431404505
 30
0.0
 11
314.3126840305
 21
175.0043386641
 31
0.0
  0
LINE
  5
1E2
330
1F
100
AcDbEntity
  8
0
  6
SLD-Durchgehend
 62
     8
370
     0
100
AcDbLine
 10
310.3703769457
 20
173.3431404505
 30
0.0
 11
310.3703769457
 21
172.573588607
 31
0.0
  0
LINE
  5
1E3
330
1F
100
AcDbEntity
  8
0
  6
SLD-Durchgehend
 62
     8
370
     0
100
AcDbLine
 10
316.3703779291
 20
172.573588607
 30
0.0
 11
310.3703769457
 21
172.573588607
 31
0.0
  0
LINE
  5
1E4
330
1F
100
AcDbEntity
  8
0
  6
SLD-Durchgehend
 62
     8
370
     0
100
AcDbLine
 10
316.3703779291
 20
173.3092850122
 30
0.0
 11
316.3703779291
 21
172.573588607
 31
0.0
  0
LINE
  5
1E5
330
1F
100
AcDbEntity
  8
0
  6
SLD-Durchgehend
 62
     8
370
     0
100
AcDbLine
 10
312.4881635021
 20
173.3092850122
 30
0.0
 11
316.3703779291
 21
173.3092850122
 31
0.0
  0
SPLINE
  5
1E6
330
1F
100
AcDbEntity
  8
0
  6
SLD-Durchgehend
 62
     8
370
     0
100
AcDbSpline
210
0.0
220
0.0
230
1.0
 70
     8
 71
     3
 72
    13
 73
     9
 74
     0
 42
0.000000001
 43
0.00000001
 40
0.0
 40
0.0
 40
0.0
 40
0.0
 40
0.1247472516955559
 40
0.500509220822714
 40
0.6255514363968147
 40
0.7503343600057559
 40
0.8749993353268692
 40
1.0
 40
1.0
 40
1.0
 40
1.0
 10
312.2273484777666
 20
182.3710555258721
 30
0.0
 10
312.3095900620091
 20
182.5217601835876
 30
0.0
 10
312.6395586239532
 20
183.1264153546017
 30
0.0
 10
312.7452913066175
 20
183.998441574704
 30
0.0
 10
313.1466696623792
 20
184.7930328604384
 30
0.0
 10
313.5404803999576
 20
185.1746705546463
 30
0.0
 10
314.0516042804047
 20
185.4091056831082
 30
0.0
 10
314.4218043935086
 20
185.4284688141315
 30
0.0
 10
314.6071533273912
 20
185.4381633970469
 30
0.0
  0
SPLINE
  5
1E7
330
1F
100
AcDbEntity
  8
0
  6
SLD-Durchgehend
 62
     8
370
     0
100
AcDbSpline
210
0.0
220
0.0
230
1.0
 70
     8
 71
     3
 72
    11
 73
     7
 74
     0
 42
0.000000001
 43
0.00000001
 40
0.0
 40
0.0
 40
0.0
 40
0.0
 40
0.2501342466625832
 40
0.499870055903672
 40
0.7497240442440389
 40
1.0
 40
1.0
 40
1.0
 40
1.0
 10
311.8703762602068
 20
182.2092959705323
 30
0.0
 10
311.9048883685878
 20
182.2110187729304
 30
0.0
 10
311.9738576112081
 20
182.2144616334844
 30
0.0
 10
312.0710341347142
 20
182.2493275483205
 30
0.0
 10
312.157743849327
 20
182.3013815463603
 30
0.0
 10
312.2041338882875
 20
182.3478178063698
 30
0.0
 10
312.2273484777666
 20
182.3710555258721
 30
0.0
  0
SPLINE
  5
1E8
330
1F
100
AcDbEntity
  8
0
  6
SLD-Durchgehend
 62
     8
370
     0
100
AcDbSpline
210
0.0
220
0.0
230
1.0
 70
     8
 71
     3
 72
    11
 73
     7
 74
     0
 42
0.000000001
 43
0.00000001
 40
0.0
 40
0.0
 40
0.0
 40
0.0
 40
0.2502783348493337
 40
0.4999758192141265
 40
0.7497218843074143
 40
1.0
 40
1.0
 40
1.0
 40
1.0
 10
311.5061918806292
 20
182.3809089187115
 30
0.0
 10
311.5284233365977
 20
182.355425320585
 30
0.0
 10
311.5728346533696
 20
182.3045172671274
 30
0.0
 10
311.6617644717418
 20
182.2485409410373
 30
0.0
 10
311.7634544717531
 20
182.2152513199177
 30
0.0
 10
311.8347103907749
 20
182.2112824946699
 30
0.0
 10
311.8703762602068
 20
182.2092959705323
 30
0.0
  0
SPLINE
  5
1E9
330
1F
100
AcDbEntity
  8
0
  6
SLD-Durchgehend
 62
     8
370
     0
100
AcDbSpline
210
0.0
220
0.0
230
1.0
 70
     8
 71
     3
 72
     9
 73
     5
 74
     0
 42
0.000000001
 43
0.00000001
 40
0.0
 40
0.0
 40
0.0
 40
0.0
 40
0.5011076579184334
 40
0.9999999999999999
 40
0.9999999999999999
 40
0.9999999999999999
 40
0.9999999999999999
 10
311.2934517275549
 20
183.1238538074821
 30
0.0
 10
311.2973390115276
 20
182.9915028633484
 30
0.0
 10
311.3050963944198
 20
182.7273860771802
 30
0.0
 10
311.4392591228317
 20
182.4962306107459
 30
0.0
 10
311.5061918806292
 20
182.3809089187115
 30
0.0
  0
SPLINE
  5
1EA
330
1F
100
AcDbEntity
  8
0
  6
SLD-Durchgehend
 62
     8
370
     0
100
AcDbSpline
210
0.0
220
0.0
230
1.0
 70
     8
 71
     3
 72
    13
 73
     9
 74
     0
 42
0.000000001
 43
0.00000001
 40
0.0
 40
0.0
 40
0.0
 40
0.0
 40
0.2498559858430597
 40
0.375814898636102
 40
0.4997919641830019
 40
0.622959962703691
 40
0.7498688278415694
 40
1.0
 40
1.0
 40
1.0
 40
1.0
 10
312.1396067153669
 20
184.1273091781467
 30
0.0
 10
312.0139375052315
 20
184.1015393049008
 30
0.0
 10
311.8249151717887
 20
184.0627781670834
 30
0.0
 10
311.6051018020664
 20
183.9366202145002
 30
0.0
 10
311.4697572899826
 20
183.8085290927554
 30
0.0
 10
311.3784794710149
 20
183.650114491277
 30
0.0
 10
311.306041414918
 20
183.4209231961234
 30
0.0
 10
311.29847280188
 20
183.2423323238315
 30
0.0
 10
311.2934517275549
 20
183.1238538074821
 30
0.0
  0
LINE
  5
1EB
330
1F
100
AcDbEntity
  8
0
  6
SLD-Durchgehend
 62
     8
370
     0
100
AcDbLine
 10
312.062683196
 20
185.2180937353
 30
0.0
 11
312.1396067154
 21
184.1273091781
 31
0.0
  0
SPLINE
  5
1EC
330
1F
100
AcDbEntity
  8
0
  6
SLD-Durchgehend
 62
     8
370
     0
100
AcDbSpline
210
0.0
220
0.0
230
1.0
 70
     8
 71
     3
 72
    15
 73
    11
 74
     0
 42
0.000000001
 43
0.00000001
 40
0.0
 40
0.0
 40
0.0
 40
0.0
 40
0.2499849546663455
 40
0.3750592826045286
 40
0.500023589188043
 40
0.6249537806919988
 40
0.7498808080315326
 40
0.8748043290834345
 40
0.9373915364339807
 40
1.0
 40
1.0
 40
1.0
 40
1.0
 10
310.2934534262873
 20
183.1105405512779
 30
0.0
 10
310.3041207642048
 20
183.3601376048698
 30
0.0
 10
310.3201252638035
 20
183.7346149088551
 30
0.0
 10
310.4784506405783
 20
184.2182884734353
 30
0.0
 10
310.666098324164
 20
184.5568580836279
 30
0.0
 10
310.9401746179969
 20
184.8408262209931
 30
0.0
 10
311.2768366308159
 20
185.0563996002626
 30
0.0
 10
311.5967055023128
 20
185.1623233711742
 30
0.0
 10
311.8614800204041
 20
185.2061666098037
 30
0.0
 10
311.9956078798782
 20
185.214117576826
 30
0.0
 10
312.062683195994
 20
185.2180937353104
 30
0.0
  0
SPLINE
  5
1ED
330
1F
100
AcDbEntity
  8
0
  6
SLD-Durchgehend
 62
     8
370
     0
100
AcDbSpline
210
0.0
220
0.0
230
1.0
 70
     8
 71
     3
 72
    13
 73
     9
 74
     0
 42
0.000000001
 43
0.00000001
 40
0.0
 40
0.0
 40
0.0
 40
0.0
 40
0.1250857983973145
 40
0.2501914345612014
 40
0.3761381106186499
 40
0.5003610910905464
 40
0.7497352239155325
 40
1.0
 40
1.0
 40
1.0
 40
1.0
 10
311.9509058605886
 20
181.1725635129541
 30
0.0
 10
311.8241358212572
 20
181.1803001026503
 30
0.0
 10
311.5705756377184
 20
181.195774509014
 30
0.0
 10
311.2139236217329
 20
181.3258967775238
 30
0.0
 10
310.8981642186117
 20
181.5182120993721
 30
0.0
 10
310.5674326158632
 20
181.8663608481236
 30
0.0
 10
310.3295012716482
 20
182.4123713481281
 30
0.0
 10
310.3054836458049
 20
182.8775410837573
 30
0.0
 10
310.2934534262873
 20
183.1105405512779
 30
0.0
  0
SPLINE
  5
1EE
330
1F
100
AcDbEntity
  8
0
  6
SLD-Durchgehend
 62
     8
370
     0
100
AcDbSpline
210
0.0
220
0.0
230
1.0
 70
     8
 71
     3
 72
    11
 73
     7
 74
     0
 42
0.000000001
 43
0.00000001
 40
0.0
 40
0.0
 40
0.0
 40
0.0
 40
0.4985792076749402
 40
0.7490675922192026
 40
0.8745096092666041
 40
0.9999999999999999
 40
0.9999999999999999
 40
0.9999999999999999
 40
0.9999999999999999
 10
313.1468171786524
 20
181.6676471430391
 30
0.0
 10
312.9795559881908
 20
181.5271578258072
 30
0.0
 10
312.7282620407454
 20
181.3160860583298
 30
0.0
 10
312.3449373948807
 20
181.2091953221291
 30
0.0
 10
312.1212025920443
 20
181.1762731723479
 30
0.0
 10
312.0076787326234
 20
181.1738002249935
 30
0.0
 10
311.9509058605886
 20
181.1725635129541
 30
0.0
  0
SPLINE
  5
1EF
330
1F
100
AcDbEntity
  8
0
  6
SLD-Durchgehend
 62
     8
370
     0
100
AcDbSpline
210
0.0
220
0.0
230
1.0
 70
     8
 71
     3
 72
     9
 73
     5
 74
     0
 42
0.000000001
 43
0.00000001
 40
0.0
 40
0.0
 40
0.0
 40
0.0
 40
0.5010364183718536
 40
1.0
 40
1.0
 40
1.0
 40
1.0
 10
313.7357594978071
 20
182.9145260203212
 30
0.0
 10
313.6741874570045
 20
182.6900549307643
 30
0.0
 10
313.5512981049634
 20
182.2420414105368
 30
0.0
 10
313.2814577090602
 20
181.8588471324785
 30
0.0
 10
313.1468171786524
 20
181.6676471430391
 30
0.0
  0
SPLINE
  5
1F0
330
1F
100
AcDbEntity
  8
0
  6
SLD-Durchgehend
 62
     8
370
     0
100
AcDbSpline
210
0.0
220
0.0
230
1.0
 70
     8
 71
     3
 72
    11
 73
     7
 74
     0
 42
0.000000001
 43
0.00000001
 40
0.0
 40
0.0
 40
0.0
 40
0.0
 40
0.4999483655043168
 40
0.5063836884256875
 40
0.7499722882662471
 40
1.0
 40
1.0
 40
1.0
 40
1.0
 10
313.9965782474733
 20
183.8168509352535
 30
0.0
 10
313.9490302110746
 20
183.6666606841062
 30
0.0
 10
313.9008701375343
 20
183.5145371877832
 30
0.0
 10
313.838252968111
 20
183.2883024518364
 30
0.0
 10
313.795914979244
 20
183.137843229366
 30
0.0
 10
313.7559849509816
 20
182.9896096477265
 30
0.0
 10
313.7357594978071
 20
182.9145260203212
 30
0.0
  0
SPLINE
  5
1F1
330
1F
100
AcDbEntity
  8
0
  6
SLD-Durchgehend
 62
     8
370
     0
100
AcDbSpline
210
0.0
220
0.0
230
1.0
 70
     8
 71
     3
 72
    11
 73
     7
 74
     0
 42
0.000000001
 43
0.00000001
 40
0.0
 40
0.0
 40
0.0
 40
0.0
 40
0.2498244199283808
 40
0.373414516776934
 40
0.5006339525260979
 40
1.0
 40
1.0
 40
1.0
 40
1.0
 10
314.6191748391844
 20
184.3441350433558
 30
0.0
 10
314.5433358817178
 20
184.3376915188848
 30
0.0
 10
314.4299787981175
 20
184.3280603324005
 30
0.0
 10
314.2960850816534
 20
184.2595178085532
 30
0.0
 10
314.1252417918432
 20
184.1182243238012
 30
0.0
 10
314.0536412771459
 20
183.950511784544
 30
0.0
 10
313.9965782474733
 20
183.8168509352535
 30
0.0
  0
SPLINE
  5
1F2
330
1F
100
AcDbEntity
  8
0
  6
SLD-Durchgehend
 62
     8
370
     0
100
AcDbSpline
210
0.0
220
0.0
230
1.0
 70
     8
 71
     3
 72
    13
 73
     9
 74
     0
 42
0.000000001
 43
0.00000001
 40
0.0
 40
0.0
 40
0.0
 40
0.0
 40
0.2503829266525902
 40
0.4998917065219955
 40
0.624996383746868
 40
0.7501504059382327
 40
0.8750692206084586
 40
0.9999999999999999
 40
0.9999999999999999
 40
0.9999999999999999
 40
0.9999999999999999
 10
315.4472994219519
 20
183.2226866904228
 30
0.0
 10
315.4420946309581
 20
183.3483132442795
 30
0.0
 10
315.4317032201428
 20
183.5991277595958
 30
0.0
 10
315.323906137677
 20
183.9072609523523
 30
0.0
 10
315.1603939481153
 20
184.1116311793511
 30
0.0
 10
315.0078607508924
 20
184.2390775953199
 30
0.0
 10
314.8230044599062
 20
184.3281463742915
 30
0.0
 10
314.6871202151528
 20
184.338805316857
 30
0.0
 10
314.6191748391844
 20
184.3441350433558
 30
0.0
  0
SPLINE
  5
1F3
330
1F
100
AcDbEntity
  8
0
  6
SLD-Durchgehend
 62
     8
370
     0
100
AcDbSpline
210
0.0
220
0.0
230
1.0
 70
     8
 71
     3
 72
    13
 73
     9
 74
     0
 42
0.000000001
 43
0.00000001
 40
0.0
 40
0.0
 40
0.0
 40
0.0
 40
0.2499407170062826
 40
0.3743827374461101
 40
0.5000619375877824
 40
0.6250730871241527
 40
0.7501673173171007
 40
0.9999999999999999
 40
0.9999999999999999
 40
0.9999999999999999
 40
0.9999999999999999
 10
314.2934540819384
 20
182.0001954260796
 30
0.0
 10
314.4528676164789
 20
182.0341856755106
 30
0.0
 10
314.6916509414292
 20
182.0850991992488
 30
0.0
 10
314.9773157656017
 20
182.2311856015195
 30
0.0
 10
315.1633311920615
 20
182.3784827493042
 30
0.0
 10
315.2995949404036
 20
182.5662089408912
 30
0.0
 10
315.4242531504906
 20
182.8444229509021
 30
0.0
 10
315.4380835381688
 20
183.0714242760831
 30
0.0
 10
315.4472994219519
 20
183.2226866904228
 30
0.0
  0
LINE
  5
1F4
330
1F
100
AcDbEntity
  8
0
  6
SLD-Durchgehend
 62
     8
370
     0
100
AcDbLine
 10
314.3703776013
 20
180.9679277289
 30
0.0
 11
314.2934540819
 21
182.0001954261
 31
0.0
  0
SPLINE
  5
1F5
330
1F
100
AcDbEntity
  8
0
  6
SLD-Durchgehend
 62
     8
370
     0
100
AcDbSpline
210
0.0
220
0.0
230
1.0
 70
     8
 71
     3
 72
    13
 73
     9
 74
     0
 42
0.000000001
 43
0.00000001
 40
0.0
 40
0.0
 40
0.0
 40
0.0
 40
0.2500230983764355
 40
0.3751624277486738
 40
0.5002133861706701
 40
0.6254028994221404
 40
0.7503320562559637
 40
1.0
 40
1.0
 40
1.0
 40
1.0
 10
316.4472977232195
 20
183.1937970641583
 30
0.0
 10
316.4323548496041
 20
182.9165312640234
 30
0.0
 10
316.4099329022738
 20
182.5004908606136
 30
0.0
 10
316.2074948407175
 20
181.9840788950899
 30
0.0
 10
315.9661930964334
 20
181.6378914578584
 30
0.0
 10
315.636787801348
 20
181.3589301553427
 30
0.0
 10
315.1132224892579
 20
181.0881357326351
 30
0.0
 10
314.6674702503092
 20
181.0160035989109
 30
0.0
 10
314.3703776013113
 20
180.9679277289241
 30
0.0
  0
SPLINE
  5
1F6
330
1F
100
AcDbEntity
  8
0
  6
SLD-Durchgehend
 62
     8
370
     0
100
AcDbSpline
210
0.0
220
0.0
230
1.0
 70
     8
 71
     3
 72
    13
 73
     9
 74
     0
 42
0.000000001
 43
0.00000001
 40
0.0
 40
0.0
 40
0.0
 40
0.0
 40
0.1251162555916173
 40
0.2502457340270645
 40
0.3753506808195982
 40
0.5004179512632817
 40
0.7496709540411182
 40
1.0
 40
1.0
 40
1.0
 40
1.0
 10
314.6071533273912
 20
185.4381633970469
 30
0.0
 10
314.7488865035838
 20
185.429147530414
 30
0.0
 10
315.0323678349631
 20
185.4111148443113
 30
0.0
 10
315.4312682926412
 20
185.2581196982801
 30
0.0
 10
315.785792695011
 20
185.0316604573508
 30
0.0
 10
316.1609437386387
 20
184.6240305866058
 30
0.0
 10
316.4126633085228
 20
183.9802776624229
 30
0.0
 10
316.4357363527455
 20
183.4563334357647
 30
0.0
 10
316.4472977232195
 20
183.1937970641583
 30
0.0
  0
SPLINE
  5
1F7
330
1F
100
AcDbEntity
  8
0
  6
SLD-Durchgehend
 62
     8
370
     0
100
AcDbSpline
210
0.0
220
0.0
230
1.0
 70
     8
 71
     3
 72
     9
 73
     5
 74
     0
 42
0.000000001
 43
0.00000001
 40
0.0
 40
0.0
 40
0.0
 40
0.0
 40
0.5000821279796863
 40
1.0
 40
1.0
 40
1.0
 40
1.0
 10
314.3920103620745
 20
197.2508237745195
 30
0.0
 10
314.6238667516554
 20
197.2340544510671
 30
0.0
 10
315.0875033757388
 20
197.2005213121801
 30
0.0
 10
315.4796315567351
 20
196.9532947847096
 30
0.0
 10
315.6756634425379
 20
196.8297018251895
 30
0.0
  0
SPLINE
  5
1F8
330
1F
100
AcDbEntity
  8
0
  6
SLD-Durchgehend
 62
     8
370
     0
100
AcDbSpline
210
0.0
220
0.0
230
1.0
 70
     8
 71
     3
 72
    14
 73
    10
 74
     0
 42
0.000000001
 43
0.00000001
 40
0.0
 40
0.0
 40
0.0
 40
0.0
 40
0.125074239179835
 40
0.2500778443912691
 40
0.375106006555332
 40
0.5002159880537128
 40
0.6252932939760307
 40
0.7503644907462728
 40
0.9999999999999999
 40
0.9999999999999999
 40
0.9999999999999999
 40
0.9999999999999999
 10
312.4473007928587
 20
195.5396782654851
 30
0.0
 10
312.4538818806766
 20
195.6603185942929
 30
0.0
 10
312.4670403397328
 20
195.9015311219303
 30
0.0
 10
312.5869478542392
 20
196.2468637883247
 30
0.0
 10
312.7823798167269
 20
196.5528760579626
 30
0.0
 10
313.0361460737058
 20
196.8132449399727
 30
0.0
 10
313.3365324589359
 20
197.0176976332715
 30
0.0
 10
313.7839747248013
 20
197.210425051406
 30
0.0
 10
314.1488948362605
 20
197.2346708449709
 30
0.0
 10
314.3920103620745
 20
197.2508237745195
 30
0.0
  0
SPLINE
  5
1F9
330
1F
100
AcDbEntity
  8
0
  6
SLD-Durchgehend
 62
     8
370
     0
100
AcDbSpline
210
0.0
220
0.0
230
1.0
 70
     8
 71
     3
 72
    10
 73
     6
 74
     0
 42
0.000000001
 43
0.00000001
 40
0.0
 40
0.0
 40
0.0
 40
0.0
 40
0.4995373334692736
 40
0.7497000979266085
 40
1.0
 40
1.0
 40
1.0
 40
1.0
 10
312.6720587324358
 20
194.8012329453185
 30
0.0
 10
312.610144167457
 20
194.9164461925256
 30
0.0
 10
312.5172234740118
 20
195.0893569580007
 30
0.0
 10
312.4568753620088
 20
195.3445405379306
 30
0.0
 10
312.4504928988865
 20
195.4746204747264
 30
0.0
 10
312.4473007928587
 20
195.5396782654851
 30
0.0
  0
LINE
  5
1FA
330
1F
100
AcDbEntity
  8
0
  6
SLD-Durchgehend
 62
     8
370
     0
100
AcDbLine
 10
311.601145805
 20
195.0363509172
 30
0.0
 11
312.6720587324
 21
194.8012329453
 31
0.0
  0
LINE
  5
1FB
330
1F
100
AcDbEntity
  8
0
  6
SLD-Durchgehend
 62
     8
370
     0
100
AcDbLine
 10
311.601145805
 20
197.0225398477
 30
0.0
 11
311.601145805
 21
195.0363509172
 31
0.0
  0
LINE
  5
1FC
330
1F
100
AcDbEntity
  8
0
  6
SLD-Durchgehend
 62
     8
370
     0
100
AcDbLine
 10
310.447300465
 20
197.0225398477
 30
0.0
 11
311.601145805
 21
197.0225398477
 31
0.0
  0
LINE
  5
1FD
330
1F
100
AcDbEntity
  8
0
  6
SLD-Durchgehend
 62
     8
370
     0
100
AcDbLine
 10
310.447300465
 20
197.0225398477
 30
0.0
 11
310.447300465
 21
194.1120424822
 31
0.0
  0
LINE
  5
1FE
330
1F
100
AcDbEntity
  8
0
  6
SLD-Durchgehend
 62
     8
370
     0
100
AcDbLine
 10
313.7670109581
 20
193.4198752792
 30
0.0
 11
310.447300465
 21
194.1120424822
 31
0.0
  0
LINE
  5
1FF
330
1F
100
AcDbEntity
  8
0
  6
SLD-Durchgehend
 62
     8
370
     0
100
AcDbLine
 10
313.9088364851
 20
194.426720082
 30
0.0
 11
313.7670109581
 21
193.4198752792
 31
0.0
  0
SPLINE
  5
200
330
1F
100
AcDbEntity
  8
0
  6
SLD-Durchgehend
 62
     8
370
     0
100
AcDbSpline
210
0.0
220
0.0
230
1.0
 70
     8
 71
     3
 72
    10
 73
     6
 74
     0
 42
0.000000001
 43
0.00000001
 40
0.0
 40
0.0
 40
0.0
 40
0.0
 40
0.2502502689757212
 40
0.5005656238639931
 40
1.0
 40
1.0
 40
1.0
 40
1.0
 10
313.4472990941263
 20
195.2653360135436
 30
0.0
 10
313.4538356881204
 20
195.1828724248674
 30
0.0
 10
313.4669105761673
 20
195.017923800114
 30
0.0
 10
313.6037108117768
 20
194.7103133502572
 30
0.0
 10
313.7868446590389
 20
194.5401030702852
 30
0.0
 10
313.9088364850737
 20
194.426720081973
 30
0.0
  0
SPLINE
  5
201
330
1F
100
AcDbEntity
  8
0
  6
SLD-Durchgehend
 62
     8
370
     0
100
AcDbSpline
210
0.0
220
0.0
230
1.0
 70
     8
 71
     3
 72
    13
 73
     9
 74
     0
 42
0.000000001
 43
0.00000001
 40
0.0
 40
0.0
 40
0.0
 40
0.0
 40
0.2501693034355922
 40
0.3775225692168834
 40
0.5005120770233693
 40
0.6256738527143393
 40
0.7508161634529746
 40
1.0
 40
1.0
 40
1.0
 40
1.0
 10
314.4172529291369
 20
196.106714480701
 30
0.0
 10
314.2952051428992
 20
196.1009734989858
 30
0.0
 10
314.111026695764
 20
196.0923099653819
 30
0.0
 10
313.8802292398696
 20
196.011377352083
 30
0.0
 10
313.7233634585893
 20
195.9153833098458
 30
0.0
 10
313.6007960716226
 20
195.7808964802747
 30
0.0
 10
313.4730266982057
 20
195.5715448357624
 30
0.0
 10
313.4575810515222
 20
195.3877114222516
 30
0.0
 10
313.4472990941263
 20
195.2653360135436
 30
0.0
  0
SPLINE
  5
202
330
1F
100
AcDbEntity
  8
0
  6
SLD-Durchgehend
 62
     8
370
     0
100
AcDbSpline
210
0.0
220
0.0
230
1.0
 70
     8
 71
     3
 72
    13
 73
     9
 74
     0
 42
0.000000001
 43
0.00000001
 40
0.0
 40
0.0
 40
0.0
 40
0.0
 40
0.2491947870767645
 40
0.3743678815203366
 40
0.4995738371385046
 40
0.6247045557809026
 40
0.749858764577027
 40
1.0
 40
1.0
 40
1.0
 40
1.0
 10
315.4472994219519
 20
195.1802325715825
 30
0.0
 10
315.4351646872407
 20
195.3114895224734
 30
0.0
 10
315.4169345509687
 20
195.5086781844685
 30
0.0
 10
315.2833072969993
 20
195.7354939503849
 30
0.0
 10
315.1556363927725
 20
195.8849780162882
 30
0.0
 10
314.9911723726843
 20
195.9946774267244
 30
0.0
 10
314.7456715297178
 20
196.0894968313058
 30
0.0
 10
314.5486028118016
 20
196.0998283414147
 30
0.0
 10
314.4172529291369
 20
196.106714480701
 30
0.0
  0
SPLINE
  5
203
330
1F
100
AcDbEntity
  8
0
  6
SLD-Durchgehend
 62
     8
370
     0
100
AcDbSpline
210
0.0
220
0.0
230
1.0
 70
     8
 71
     3
 72
    11
 73
     7
 74
     0
 42
0.000000001
 43
0.00000001
 40
0.0
 40
0.0
 40
0.0
 40
0.0
 40
0.2506819054077426
 40
0.5006663893264894
 40
0.75045541161258
 40
1.0
 40
1.0
 40
1.0
 40
1.0
 10
314.5242209147669
 20
194.2657958065673
 30
0.0
 10
314.6418937872313
 20
194.2877307551658
 30
0.0
 10
314.8769121547618
 20
194.3315396271983
 30
0.0
 10
315.1791644788326
 20
194.5320492542614
 30
0.0
 10
315.4038914225325
 20
194.8234814300183
 30
0.0
 10
315.4328348116035
 20
195.0613543389272
 30
0.0
 10
315.4472994219519
 20
195.1802325715825
 30
0.0
  0
LINE
  5
204
330
1F
100
AcDbEntity
  8
0
  6
SLD-Durchgehend
 62
     8
370
     0
100
AcDbLine
 10
314.6540286552
 20
193.2660298757
 30
0.0
 11
314.5242209148
 21
194.2657958066
 31
0.0
  0
SPLINE
  5
205
330
1F
100
AcDbEntity
  8
0
  6
SLD-Durchgehend
 62
     8
370
     0
100
AcDbSpline
210
0.0
220
0.0
230
1.0
 70
     8
 71
     3
 72
    12
 73
     8
 74
     0
 42
0.000000001
 43
0.00000001
 40
0.0
 40
0.0
 40
0.0
 40
0.0
 40
0.2498693082052738
 40
0.3748037100585387
 40
0.5004538838038111
 40
0.7499181227166223
 40
1.0
 40
1.0
 40
1.0
 40
1.0
 10
316.4472977232195
 20
195.2281806665986
 30
0.0
 10
316.4290485565375
 20
194.9825326272184
 30
0.0
 10
316.4016748249373
 20
194.614060816136
 30
0.0
 10
316.1905219609724
 20
194.1664805643479
 30
0.0
 10
315.8931601617042
 20
193.7770112809171
 30
0.0
 10
315.3787642600295
 20
193.4072937449259
 30
0.0
 10
314.8958062331116
 20
193.3131566291499
 30
0.0
 10
314.6540286552168
 20
193.266029875739
 30
0.0
  0
SPLINE
  5
206
330
1F
100
AcDbEntity
  8
0
  6
SLD-Durchgehend
 62
     8
370
     0
100
AcDbSpline
210
0.0
220
0.0
230
1.0
 70
     8
 71
     3
 72
    12
 73
     8
 74
     0
 42
0.000000001
 43
0.00000001
 40
0.0
 40
0.0
 40
0.0
 40
0.0
 40
0.2499938156585554
 40
0.499781266887781
 40
0.7496131788297377
 40
0.8747815571684162
 40
1.0
 40
1.0
 40
1.0
 40
1.0
 10
315.6756634425379
 20
196.8297018251895
 30
0.0
 10
315.7939494724142
 20
196.7300889033051
 30
0.0
 10
316.0304238896352
 20
196.5309452878254
 30
0.0
 10
316.2792451942171
 20
196.1340987589109
 30
0.0
 10
316.3978472409955
 20
195.7651970044456
 30
0.0
 10
316.4413001420397
 20
195.4596495867918
 30
0.0
 10
316.44529826302
 20
195.3053472575076
 30
0.0
 10
316.4472977232195
 20
195.2281806665986
 30
0.0
  0
LINE
  5
207
330
1F
100
AcDbEntity
  8
0
  6
SLD-Durchgehend
 62
     8
370
     0
100
AcDbLine
 10
316.3703779291
 20
208.0631058711
 30
0.0
 11
312.4881635021
 21
206.0396976817
 31
0.0
  0
LINE
  5
208
330
1F
100
AcDbEntity
  8
0
  6
SLD-Durchgehend
 62
     8
370
     0
100
AcDbLine
 10
316.3703779291
 20
209.0748285923
 30
0.0
 11
316.3703779291
 21
208.0631058711
 31
0.0
  0
LINE
  5
209
330
1F
100
AcDbEntity
  8
0
  6
SLD-Durchgehend
 62
     8
370
     0
100
AcDbLine
 10
310.3703769457
 20
209.0748285923
 30
0.0
 11
316.3703779291
 21
209.0748285923
 31
0.0
  0
LINE
  5
20A
330
1F
100
AcDbEntity
  8
0
  6
SLD-Durchgehend
 62
     8
370
     0
100
AcDbLine
 10
310.3703769457
 20
209.0748285923
 30
0.0
 11
310.3703769457
 21
208.1357033971
 31
0.0
  0
LINE
  5
20B
330
1F
100
AcDbEntity
  8
0
  6
SLD-Durchgehend
 62
     8
370
     0
100
AcDbLine
 10
314.3126840305
 20
208.1357033971
 30
0.0
 11
310.3703769457
 21
208.1357033971
 31
0.0
  0
LINE
  5
20C
330
1F
100
AcDbEntity
  8
0
  6
SLD-Durchgehend
 62
     8
370
     0
100
AcDbLine
 10
310.3703769457
 20
206.0849105987
 30
0.0
 11
314.3126840305
 21
208.1357033971
 31
0.0
  0
LINE
  5
20D
330
1F
100
AcDbEntity
  8
0
  6
SLD-Durchgehend
 62
     8
370
     0
100
AcDbLine
 10
310.3703769457
 20
206.0849105987
 30
0.0
 11
310.3703769457
 21
205.0178673166
 31
0.0
  0
LINE
  5
20E
330
1F
100
AcDbEntity
  8
0
  6
SLD-Durchgehend
 62
     8
370
     0
100
AcDbLine
 10
316.3703779291
 20
205.0178673166
 30
0.0
 11
310.3703769457
 21
205.0178673166
 31
0.0
  0
LINE
  5
20F
330
1F
100
AcDbEntity
  8
0
  6
SLD-Durchgehend
 62
     8
370
     0
100
AcDbLine
 10
316.3703779291
 20
206.0396976817
 30
0.0
 11
316.3703779291
 21
205.0178673166
 31
0.0
  0
LINE
  5
210
330
1F
100
AcDbEntity
  8
0
  6
SLD-Durchgehend
 62
     8
370
     0
100
AcDbLine
 10
312.4881635021
 20
206.0396976817
 30
0.0
 11
316.3703779291
 21
206.0396976817
 31
0.0
  0
SPLINE
  5
211
330
1F
100
AcDbEntity
  8
0
  6
SLD-Durchgehend
 62
     8
370
     0
100
AcDbSpline
210
0.0
220
0.0
230
1.0
 70
     8
 71
     3
 72
    11
 73
     7
 74
     0
 42
0.000000001
 43
0.00000001
 40
0.0
 40
0.0
 40
0.0
 40
0.0
 40
0.2499175041386375
 40
0.4994503500610333
 40
0.7491691391242924
 40
1.0
 40
1.0
 40
1.0
 40
1.0
 10
311.3703752469278
 20
199.8826496351093
 30
0.0
 10
311.3782473339223
 20
199.8038666025404
 30
0.0
 10
311.3939793916613
 20
199.646421795579
 30
0.0
 10
311.5228597895274
 20
199.4354326519273
 30
0.0
 10
311.7279227940268
 20
199.2985932343368
 30
0.0
 10
311.8820718177014
 20
199.2482858524756
 30
0.0
 10
311.9593175660826
 20
199.223076277557
 30
0.0
  0
SPLINE
  5
212
330
1F
100
AcDbEntity
  8
0
  6
SLD-Durchgehend
 62
     8
370
     0
100
AcDbSpline
210
0.0
220
0.0
230
1.0
 70
     8
 71
     3
 72
    10
 73
     6
 74
     0
 42
0.000000001
 43
0.00000001
 40
0.0
 40
0.0
 40
0.0
 40
0.0
 40
0.3291379654103104
 40
0.6620514987600508
 40
0.9999999999999999
 40
0.9999999999999999
 40
0.9999999999999999
 40
0.9999999999999999
 10
311.9593175660826
 20
199.223076277557
 30
0.0
 10
312.1164639009965
 20
199.1911780488128
 30
0.0
 10
312.4325592090073
 20
199.1270156841901
 30
0.0
 10
312.9202308472118
 20
199.1036107048966
 30
0.0
 10
313.2467547439436
 20
199.0996864183809
 30
0.0
 10
313.4112420093275
 20
199.0977095488041
 30
0.0
  0
SPLINE
  5
213
330
1F
100
AcDbEntity
  8
0
  6
SLD-Durchgehend
 62
     8
370
     0
100
AcDbSpline
210
0.0
220
0.0
230
1.0
 70
     8
 71
     3
 72
    13
 73
     9
 74
     0
 42
0.000000001
 43
0.00000001
 40
0.0
 40
0.0
 40
0.0
 40
0.0
 40
0.5006355008699791
 40
0.6257757809723995
 40
0.7507894098485065
 40
0.8132241772160115
 40
0.875695929393808
 40
1.0
 40
1.0
 40
1.0
 40
1.0
 10
313.4112420093275
 20
199.0977095488041
 30
0.0
 10
313.8193012564903
 20
199.0949321595597
 30
0.0
 10
314.3293601588904
 20
199.0914605261649
 30
0.0
 10
314.9203400123344
 20
199.2348398049692
 30
0.0
 10
315.1539263570276
 20
199.3376582423065
 30
0.0
 10
315.3094369480771
 20
199.4664592640232
 30
0.0
 10
315.4176633409494
 20
199.6366867257906
 30
0.0
 10
315.4354571731158
 20
199.7843655881615
 30
0.0
 10
315.4472994219519
 20
199.8826496351093
 30
0.0
  0
SPLINE
  5
214
330
1F
100
AcDbEntity
  8
0
  6
SLD-Durchgehend
 62
     8
370
     0
100
AcDbSpline
210
0.0
220
0.0
230
1.0
 70
     8
 71
     3
 72
    11
 73
     7
 74
     0
 42
0.000000001
 43
0.00000001
 40
0.0
 40
0.0
 40
0.0
 40
0.0
 40
0.2499400448447094
 40
0.4994145985225142
 40
0.7491443093018015
 40
1.0
 40
1.0
 40
1.0
 40
1.0
 10
315.4472994219519
 20
199.8826496351093
 30
0.0
 10
315.4394994601281
 20
199.9613509412571
 30
0.0
 10
315.4239140632176
 20
200.1186069793497
 30
0.0
 10
315.2947008388712
 20
200.3278079503089
 30
0.0
 10
315.0898022880696
 20
200.4633238893965
 30
0.0
 10
314.9356210991567
 20
200.5129707175014
 30
0.0
 10
314.8583571027971
 20
200.5378499675124
 30
0.0
  0
SPLINE
  5
215
330
1F
100
AcDbEntity
  8
0
  6
SLD-Durchgehend
 62
     8
370
     0
100
AcDbSpline
210
0.0
220
0.0
230
1.0
 70
     8
 71
     3
 72
    10
 73
     6
 74
     0
 42
0.000000001
 43
0.00000001
 40
0.0
 40
0.0
 40
0.0
 40
0.0
 40
0.3284785641196597
 40
0.6618102537556152
 40
1.0
 40
1.0
 40
1.0
 40
1.0
 10
314.8583571027971
 20
200.5378499675124
 30
0.0
 10
314.7020705932555
 20
200.5693098387652
 30
0.0
 10
314.387188510111
 20
200.6326943869554
 30
0.0
 10
313.9010833145314
 20
200.6555651484083
 30
0.0
 10
313.5753080409211
 20
200.6594482700299
 30
0.0
 10
313.4112420093275
 20
200.6614038768738
 30
0.0
  0
SPLINE
  5
216
330
1F
100
AcDbEntity
  8
0
  6
SLD-Durchgehend
 62
     8
370
     0
100
AcDbSpline
210
0.0
220
0.0
230
1.0
 70
     8
 71
     3
 72
    13
 73
     9
 74
     0
 42
0.000000001
 43
0.00000001
 40
0.0
 40
0.0
 40
0.0
 40
0.0
 40
0.5006603764118615
 40
0.6257926230163593
 40
0.7507590002412434
 40
0.8132373175471777
 40
0.8757064149490591
 40
1.0
 40
1.0
 40
1.0
 40
1.0
 10
313.4112420093275
 20
200.6614038768738
 30
0.0
 10
313.0023924892776
 20
200.6649782638655
 30
0.0
 10
312.4913574131551
 20
200.6694460130955
 30
0.0
 10
311.9007773576042
 20
200.5249498554982
 30
0.0
 10
311.6659438491449
 20
200.4248834594758
 30
0.0
 10
311.5110520934384
 20
200.2964283788752
 30
0.0
 10
311.4004107114884
 20
200.128751036428
 30
0.0
 10
311.3823769841018
 20
199.9809881952079
 30
0.0
 10
311.3703752469278
 20
199.8826496351093
 30
0.0
  0
LINE
  5
217
330
1F
100
AcDbEntity
  8
0
  6
SLD-Durchgehend
 62
     8
370
     0
100
AcDbLine
 10
320.3703748595
 20
219.6657208774
 30
0.0
 11
320.3703748595
 21
219.6730988148
 31
0.0
  0
LINE
  5
218
330
1F
100
AcDbEntity
  8
0
  6
SLD-Durchgehend
 62
     8
370
     0
100
AcDbLine
 10
306.37037629
 20
219.6730988148
 30
0.0
 11
306.37037629
 21
219.6657208774
 31
0.0
  0
LINE
  5
219
330
1F
100
AcDbEntity
  8
0
  6
SLD-Durchgehend
 62
     8
370
     0
100
AcDbLine
 10
165.7203758668
 20
193.2730989579
 30
0.0
 11
165.7203758668
 21
181.2730988536
 31
0.0
  0
LINE
  5
21A
330
1F
100
AcDbEntity
  8
0
  6
SLD-Durchgehend
 62
     8
370
     0
100
AcDbLine
 10
165.7203758668
 20
205.2730990622
 30
0.0
 11
165.7203758668
 21
193.2730989579
 31
0.0
  0
LINE
  5
21B
330
1F
100
AcDbEntity
  8
0
  6
SLD-Durchgehend
 62
     8
370
     0
100
AcDbLine
 10
208.7203736018
 20
193.2730989579
 30
0.0
 11
208.7203736018
 21
205.2730990622
 31
0.0
  0
LINE
  5
21C
330
1F
100
AcDbEntity
  8
0
  6
SLD-Durchgehend
 62
     8
370
     0
100
AcDbLine
 10
208.7203736018
 20
181.2730988536
 30
0.0
 11
208.7203736018
 21
193.2730989579
 31
0.0
  0
LINE
  5
21D
330
1F
100
AcDbEntity
  8
0
  6
SLD-Durchgehend
 62
     8
370
     0
100
AcDbLine
 10
164.7203738403
 20
193.5230989697
 30
0.0
 11
164.7203738403
 21
193.023098946
 31
0.0
  0
LWPOLYLINE
  5
21E
330
1F
100
AcDbEntity
  8
0
  6
SLD-Durchgehend
 62
     8
370
     0
100
AcDbPolyline
 90
        9
 70
   128
 43
0.0
 10
164.7203738403
 20
193.5230989697
 10
164.8179168414
 20
193.5279026443
 10
164.9117196511
 20
193.5421290623
 10
164.9981612872
 20
193.5652315665
 10
165.0739336919
 20
193.5963222572
 10
165.1361162376
 20
193.6342063932
 10
165.1823098373
 20
193.6774281134
 10
165.2107710551
 20
193.7243263751
 10
165.2203823041
 20
193.7730989816
  0
LWPOLYLINE
  5
21F
330
1F
100
AcDbEntity
  8
0
  6
SLD-Durchgehend
 62
     8
370
     0
100
AcDbPolyline
 90
        9
 70
   128
 43
0.0
 10
164.7203738403
 20
193.023098946
 10
164.8179168414
 20
193.0182952715
 10
164.9117196511
 20
193.0040688535
 10
164.9981612872
 20
192.9809663493
 10
165.0739336919
 20
192.9498756585
 10
165.1361162376
 20
192.9119915226
 10
165.1823098373
 20
192.8687698023
 10
165.2107710551
 20
192.8218715407
 10
165.2203823041
 20
192.7730989341
  0
LINE
  5
220
330
1F
100
AcDbEntity
  8
0
  6
SLD-Durchgehend
 62
     8
370
     0
100
AcDbLine
 10
164.7203738403
 20
185.5230990845
 30
0.0
 11
164.7203738403
 21
193.023098946
 31
0.0
  0
LWPOLYLINE
  5
221
330
1F
100
AcDbEntity
  8
0
  6
SLD-Durchgehend
 62
     8
370
     0
100
AcDbPolyline
 90
        9
 70
   128
 43
0.0
 10
164.7203738403
 20
185.5230990845
 10
164.8179168414
 20
185.5182953227
 10
164.9117196511
 20
185.5040689047
 10
164.9981612872
 20
185.4809665169
 10
165.0739336919
 20
185.4498757097
 10
165.1361162376
 20
185.4119913701
 10
165.1823098373
 20
185.3687696207
 10
165.2107710551
 20
185.3218719411
 10
165.2203823041
 20
185.2730985779
  0
LINE
  5
222
330
1F
100
AcDbEntity
  8
0
  6
SLD-Durchgehend
 62
     8
370
     0
100
AcDbLine
 10
164.7203738403
 20
193.5230989697
 30
0.0
 11
164.7203738403
 21
201.0230988312
 31
0.0
  0
LWPOLYLINE
  5
223
330
1F
100
AcDbEntity
  8
0
  6
SLD-Durchgehend
 62
     8
370
     0
100
AcDbPolyline
 90
        9
 70
   128
 43
0.0
 10
164.7203738403
 20
201.0230988312
 10
164.8179168414
 20
201.027902593
 10
164.9117196511
 20
201.042129011
 10
164.9981612872
 20
201.0652313988
 10
165.0739336919
 20
201.096322206
 10
165.1361162376
 20
201.1342065457
 10
165.1823098373
 20
201.177428295
 10
165.2107710551
 20
201.2243259746
 10
165.2203823041
 20
201.2730993378
  0
LINE
  5
224
330
1F
100
AcDbEntity
  8
0
  6
SLD-Durchgehend
 62
     8
370
     0
100
AcDbLine
 10
161.7203826617
 20
193.5230989697
 30
0.0
 11
164.7203738403
 21
193.5230989697
 31
0.0
  0
LINE
  5
225
330
1F
100
AcDbEntity
  8
0
  6
SLD-Durchgehend
 62
     8
370
     0
100
AcDbLine
 10
164.7203738403
 20
193.023098946
 30
0.0
 11
161.7203826617
 21
193.023098946
 31
0.0
  0
LINE
  5
226
330
1F
100
AcDbEntity
  8
0
  6
SLD-Durchgehend
 62
     8
370
     0
100
AcDbLine
 10
161.7203826617
 20
193.023098946
 30
0.0
 11
161.7203826617
 21
193.5230989697
 31
0.0
  0
LWPOLYLINE
  5
227
330
1F
100
AcDbEntity
  8
0
  6
SLD-Durchgehend
 62
     8
370
     0
100
AcDbPolyline
 90
        9
 70
   128
 43
0.0
 10
161.2203741979
 20
193.2730989579
 10
161.2299854469
 20
193.3218715389
 10
161.2584317636
 20
193.3687698188
 10
161.3046402644
 20
193.4119915172
 10
161.3668228101
 20
193.4498756532
 10
161.4425952148
 20
193.4809663585
 10
161.5290368509
 20
193.5040688481
 10
161.6228247594
 20
193.5182952661
 10
161.7203826617
 20
193.5230989697
  0
LWPOLYLINE
  5
228
330
1F
100
AcDbEntity
  8
0
  6
SLD-Durchgehend
 62
     8
370
     0
100
AcDbPolyline
 90
        9
 70
   128
 43
0.0
 10
161.2203741979
 20
193.2730989579
 10
161.2299854469
 20
193.2243263768
 10
161.2584317636
 20
193.177428097
 10
161.3046402644
 20
193.1342063985
 10
161.3668228101
 20
193.0963222626
 10
161.4425952148
 20
193.0652315573
 10
161.5290368509
 20
193.0421290676
 10
161.6228247594
 20
193.0279026496
 10
161.7203826617
 20
193.023098946
  0
LINE
  5
229
330
1F
100
AcDbEntity
  8
0
  6
SLD-Durchgehend
 62
     8
370
     0
100
AcDbLine
 10
161.7203826617
 20
193.023098946
 30
0.0
 11
161.7203826617
 21
185.5230990845
 31
0.0
  0
LWPOLYLINE
  5
22A
330
1F
100
AcDbEntity
  8
0
  6
SLD-Durchgehend
 62
     8
370
     0
100
AcDbPolyline
 90
        9
 70
   128
 43
0.0
 10
161.2203741979
 20
185.7730991255
 10
161.2299854469
 20
185.7243262279
 10
161.2584317636
 20
185.6774280827
 10
161.3046402644
 20
185.6342063333
 10
161.3668228101
 20
185.5963224593
 10
161.4425952148
 20
185.5652316521
 10
161.5290368509
 20
185.5421292644
 10
161.6228247594
 20
185.5279028464
 10
161.7203826617
 20
185.5230990845
  0
LINE
  5
22B
330
1F
100
AcDbEntity
  8
0
  6
SLD-Durchgehend
 62
     8
370
     0
100
AcDbLine
 10
161.7203826617
 20
185.5230990845
 30
0.0
 11
164.7203738403
 21
185.5230990845
 31
0.0
  0
LINE
  5
22C
330
1F
100
AcDbEntity
  8
0
  6
SLD-Durchgehend
 62
     8
370
     0
100
AcDbLine
 10
161.7203826617
 20
201.0230988312
 30
0.0
 11
161.7203826617
 21
193.5230989697
 31
0.0
  0
LINE
  5
22D
330
1F
100
AcDbEntity
  8
0
  6
SLD-Durchgehend
 62
     8
370
     0
100
AcDbLine
 10
164.7203738403
 20
201.0230988312
 30
0.0
 11
161.7203826617
 21
201.0230988312
 31
0.0
  0
LWPOLYLINE
  5
22E
330
1F
100
AcDbEntity
  8
0
  6
SLD-Durchgehend
 62
     8
370
     0
100
AcDbPolyline
 90
        9
 70
   128
 43
0.0
 10
161.2203741979
 20
200.7730987902
 10
161.2299854469
 20
200.8218716878
 10
161.2584317636
 20
200.868769833
 10
161.3046402644
 20
200.9119915824
 10
161.3668228101
 20
200.9498754564
 10
161.4425952148
 20
200.9809662636
 10
161.5290368509
 20
201.0040686514
 10
161.6228247594
 20
201.0182950694
 10
161.7203826617
 20
201.0230988312
  0
LINE
  5
22F
330
1F
100
AcDbEntity
  8
0
  6
SLD-Durchgehend
 62
     8
370
     0
100
AcDbLine
 10
164.7203738403
 20
185.5230990845
 30
0.0
 11
164.7203738403
 21
185.2730985779
 31
0.0
  0
LINE
  5
230
330
1F
100
AcDbEntity
  8
0
  6
SLD-Durchgehend
 62
     8
370
     0
100
AcDbLine
 10
164.7203738403
 20
201.0230988312
 30
0.0
 11
164.7203738403
 21
201.2730993378
 31
0.0
  0
LINE
  5
231
330
1F
100
AcDbEntity
  8
0
  6
SLD-Durchgehend
 62
     8
370
     0
100
AcDbLine
 10
161.7203826617
 20
185.2730985779
 30
0.0
 11
161.7203826617
 21
185.5230990845
 31
0.0
  0
LINE
  5
232
330
1F
100
AcDbEntity
  8
0
  6
SLD-Durchgehend
 62
     8
370
     0
100
AcDbLine
 10
161.7203826617
 20
201.2730993378
 30
0.0
 11
161.7203826617
 21
201.0230988312
 31
0.0
  0
INSERT
  5
233
330
1F
100
AcDbEntity
  8
0
  6
Continuous
 62
     7
100
AcDbBlockReference
  2
Text Zuluft
 10
234.7608351935
 20
234.1842903357
 30
0.0
  0
LEADER
  5
235
330
1F
100
AcDbEntity
  8
0
  6
Continuous
 62
     7
100
AcDbLeader
  3
SLDDIMSTYLE0
 76
     2
 10
282.3248292012
 20
217.2078716949
 30
0.0
 10
251.1459476866
 20
231.4769138217
 30
0.0
212
16.385112493111
222
-2.707376514027999
232
0.0
  0
INSERT
  5
236
330
1F
100
AcDbEntity
  8
0
  6
Continuous
 62
     7
100
AcDbBlockReference
  2
Text Abluft
 10
163.2059875431
 20
236.3873964037
 30
0.0
  0
LEADER
  5
237
330
1F
100
AcDbEntity
  8
0
  6
Continuous
 62
     7
100
AcDbLeader
  3
SLDDIMSTYLE0
 76
     2
 10
210.2203762006
 20
192.0047499488
 30
0.0
 10
176.4717178674
 20
228.7292987789
 30
0.0
212
13.26573032431821
222
-7.658097624762632
232
0.0
  0
HATCH
  5
238
330
1F
100
AcDbEntity
  8
0
  6
SLD-Durchgehend
 62
     7
370
     0
100
AcDbHatch
 10
0.0
 20
0.0
 30
0.0
210
0.0
220
0.0
230
1.0
  2
ANSI31
 70
     0
 71
     0
 91
        1
 92
        0
 93
       11
 72
     4
 94
        3
 73
     1
 74
     0
 95
       10
 96
        6
 40
0.3687093101766905
 40
0.3687093101766905
 40
0.3687093101766905
 40
0.3687093101766905
 40
0.435103334264366
 40
0.5914037258161257
 40
0.6278466772057508
 40
0.6278466772057508
 40
0.6278466772057508
 40
0.6278466772057508
 10
335.9203762006022
 20
188.2585400398538
 42
1.0
 10
336.0165374411133
 20
186.4871042396552
 42
1.0
 10
337.5118224689421
 20
180.769914084747
 42
1.0
 10
344.0659590262291
 20
178.0667458887065
 42
1.0
 10
349.4481404497582
 20
177.3417460384668
 42
1.0
 10
350.4514396207003
 20
177.2730989578694
 42
1.0
 72
     1
 10
350.4514396207005
 20
177.2730989578694
 11
353.1362731611748
 21
177.2730989576218
 72
     4
 94
        3
 73
     1
 74
     0
 95
        8
 96
        4
 40
0.6610853682570895
 40
0.6610853682570895
 40
0.6610853682570895
 40
0.6610853682570895
 40
0.6686291671815409
 40
0.6686291671815409
 40
0.6686291671815409
 40
0.6686291671815409
 10
353.1362731611748
 20
177.2730989576218
 42
1.0
 10
353.3329536203572
 20
177.2885990941437
 42
1.0
 10
353.5277506413215
 20
177.3079098897317
 42
1.0
 10
353.7203761913681
 20
177.3312306865303
 42
1.0
 72
     1
 10
353.720376191371
 20
177.3312306865306
 11
353.7203762006022
 21
184.1730989578694
 72
     1
 10
353.7203762006022
 20
184.1730989578694
 11
340.7203762006022
 21
184.1730989578694
 72
     1
 10
340.7203762006022
 20
184.1730989578694
 11
337.6559870435616
 21
189.2730989578694
 72
     1
 10
337.6559870435616
 20
189.2730989578694
 11
340.7203762006022
 21
194.3730989578694
 72
     1
 10
340.7203762006022
 20
194.3730989578694
 11
353.7203762006022
 21
194.3730989578694
 72
     1
 10
353.7203762006022
 20
194.3730989578694
 11
353.7203762006051
 21
200.115397099018
 72
     4
 94
        3
 73
     1
 74
     0
 95
       10
 96
        6
 40
0.037887588230367
 40
0.037887588230367
 40
0.037887588230367
 40
0.037887588230367
 40
0.1517519095758328
 40
0.2542437754171731
 40
0.3503616659382171
 40
0.3503616659382171
 40
0.3503616659382171
 40
0.3503616659382171
 10
353.7203762006051
 20
200.115397099018
 42
1.0
 10
351.0688234420098
 20
201.2776222948741
 42
1.0
 10
345.1194913426356
 20
201.3783897339673
 42
1.0
 10
337.8376992386977
 20
197.6944101804824
 42
1.0
 10
336.0589209038262
 20
192.3295684230075
 42
1.0
 10
335.9203762006022
 20
189.7374967669814
 42
1.0
 72
     1
 10
335.9203762006022
 20
189.7374967669814
 11
335.9203762006022
 21
188.2585400398538
 97
        0
 75
     0
 76
     1
 52
90.0
 41
1.0
 77
     0
 78
     1
 53
135.0000000000002
 43
0.0
 44
0.0
 45
-2.245064030267281
 46
-2.245064030267296
 79
     0
 98
        1
 10
0.0
 20
0.0
  0
DIMENSION
  5
239
330
1F
100
AcDbEntity
  8
0
  6
SLD-Durchgehend
 62
     7
370
     0
100
AcDbDimension
  2
_D
 10
354.1203762006
 20
247.2881687472
 30
0.0
 11
316.6543307081
 21
247.2881687472
 31
0.0
 70
   160
  1
<>
 71
     2
 42
-1.0
  3
SLDDIMSTYLE1
100
AcDbAlignedDimension
 13
281.6203762006
 23
221.7730989579
 33
0.0
 14
354.1203762006
 24
206.435545539
 34
0.0
100
AcDbRotatedDimension
  0
DIMENSION
  5
244
330
1F
100
AcDbEntity
  8
0
  6
SLD-Durchgehend
 62
     7
370
     0
100
AcDbDimension
  2
_D_1
 10
354.1203762006
 20
230.4200386934
 30
0.0
 11
343.1919085249
 21
230.4200386934
 31
0.0
 70
   160
  1
<>
 71
     2
 42
-1.0
  3
SLDDIMSTYLE1
100
AcDbAlignedDimension
 13
335.1203762006
 23
206.435545539
 33
0.0
 14
354.1203762006
 24
219.7730989579
 34
0.0
100
AcDbRotatedDimension
  0
DIMENSION
  5
24E
330
1F
100
AcDbEntity
  8
0
  6
SLD-Durchgehend
 62
     7
370
     0
100
AcDbDimension
  2
_D_2
 10
378.2350277161
 20
219.7730989579
 30
0.0
 11
378.2350277161
 21
203.1417395609
 31
0.0
 70
   160
  1
<>
 71
     2
 42
-1.0
  3
SLDDIMSTYLE1
100
AcDbAlignedDimension
 13
356.0691792174
 23
189.2730989579
 33
0.0
 14
354.1203762006
 24
219.7730989579
 34
0.0
 50
90.0
100
AcDbRotatedDimension
  0
DIMENSION
  5
258
330
1F
100
AcDbEntity
  8
0
  6
SLD-Durchgehend
 62
     7
370
     0
100
AcDbDimension
  2
_D_3
 10
390.4509012902
 20
219.7730989579
 30
0.0
 11
390.4509012902
 21
194.7208132871
 31
0.0
 70
   160
  1
%%c<>
 71
     2
 42
-1.0
  3
SLDDIMSTYLE1
100
AcDbAlignedDimension
 13
354.1203762006
 23
166.7730989579
 33
0.0
 14
341.6203762006
 24
219.7730989579
 34
0.0
 50
90.0
100
AcDbRotatedDimension
  0
DIMENSION
  5
263
330
1F
100
AcDbEntity
  8
0
  6
SLD-Durchgehend
 62
     7
370
     0
100
AcDbDimension
  2
_D_4
 10
341.7203762006
 20
156.7730989579
 30
0.0
 11
347.1261942392
 21
156.7730989579
 31
0.0
 70
   160
  1
<>
 71
     2
 42
-1.0
  3
SLDDIMSTYLE2
100
AcDbAlignedDimension
 13
354.1203762006
 23
169.8530989579
 33
0.0
 14
341.7203762006
 24
183.2730989579
 34
0.0
100
AcDbRotatedDimension
  0
DIMENSION
  5
26E
330
1F
100
AcDbEntity
  8
0
  6
SLD-Durchgehend
 62
     7
370
     0
100
AcDbDimension
  2
_D_5
 10
354.1203762006
 20
145.6358309479
 30
0.0
 11
285.5038306953
 21
145.6358309479
 31
0.0
 70
   160
  1
<>
 71
     2
 42
-1.0
  3
SLDDIMSTYLE2
100
AcDbAlignedDimension
 13
209.2203762006
 23
167.7730989579
 33
0.0
 14
354.1203762006
 24
166.7730989579
 34
0.0
100
AcDbRotatedDimension
  0
DIMENSION
  5
278
330
1F
100
AcDbEntity
  8
0
  6
SLD-Durchgehend
 62
     7
370
     0
100
AcDbDimension
  2
_D_6
 10
354.1203762006
 20
134.0450632711
 30
0.0
 11
283.0416486855
 21
134.0450632711
 31
0.0
 70
   160
  1
<>
 71
     2
 42
-1.0
  3
SLDDIMSTYLE2
100
AcDbAlignedDimension
 13
161.2203762006
 23
185.7730989579
 33
0.0
 14
354.1203762006
 24
166.7730989579
 34
0.0
100
AcDbRotatedDimension
  0
DIMENSION
  5
282
330
1F
100
AcDbEntity
  8
0
  6
SLD-Durchgehend
 62
     7
370
     0
100
AcDbDimension
  2
_D_7
 10
366.4154923621
 20
183.2730989579
 30
0.0
 11
366.4154923621
 21
189.7893130689
 31
0.0
 70
   160
  1
M<>
 71
     2
 42
-1.0
  3
SLDDIMSTYLE3
100
AcDbAlignedDimension
 13
353.7203762006
 23
195.2730989579
 33
0.0
 14
353.7203762006
 24
183.2730989579
 34
0.0
 50
90.0
100
AcDbRotatedDimension
  0
LINE
  5
290
330
1F
100
AcDbEntity
  8
0
  6
SLD-Durchgehend
 62
     7
370
     0
100
AcDbLine
 10
353.7203762107
 20
195.2730990529
 30
0.0
 11
341.7203758445
 21
195.2730990529
 31
0.0
  0
LINE
  5
291
330
1F
100
AcDbEntity
  8
0
  6
SLD-Durchgehend
 62
     7
370
     0
100
AcDbLine
 10
341.7203758445
 20
183.2730991814
 30
0.0
 11
353.7203762107
 21
183.2730991814
 31
0.0
  0
LINE
  5
292
330
1F
100
AcDbEntity
  8
0
  6
SLD-Durchgehend
 62
     7
370
     0
100
AcDbLine
 10
341.7203758445
 20
184.1730985839
 30
0.0
 11
341.7203758445
 21
183.2730991814
 31
0.0
  0
LINE
  5
293
330
1F
100
AcDbEntity
  8
0
  6
SLD-Durchgehend
 62
     7
370
     0
100
AcDbLine
 10
341.7203758445
 20
195.2730990529
 30
0.0
 11
341.7203758445
 21
194.3730989519
 31
0.0
  0
LWPOLYLINE
  5
294
330
1F
100
AcDbEntity
  8
0
  6
SLD-Durchgehend
 62
     7
370
     0
100
AcDbPolyline
 90
       16
 70
   128
 43
0.0
 10
341.7203426361
 20
194.3730989519
 10
341.7203758445
 20
194.2616517704
 10
341.7203758445
 20
193.9321808099
 10
341.7203758445
 20
193.3990856273
 10
341.7203758445
 20
192.685665032
 10
341.7203758445
 20
191.8230989763
 10
341.7203758445
 20
190.8490856226
 10
341.7203758445
 20
189.806194096
 10
341.7203758445
 20
188.7400036726
 10
341.7203758445
 20
187.6971123788
 10
341.7203758445
 20
186.7230989087
 10
341.7203758445
 20
185.8605330858
 10
341.7203758445
 20
185.147112054
 10
341.7203758445
 20
184.6140174243
 10
341.7203758445
 20
184.2845462311
 10
341.7203758445
 20
184.1730985839
  0
LINE
  5
295
330
1F
100
AcDbEntity
  8
0
  6
SLD-Punktstrich
 62
     7
370
     0
100
AcDbLine
 10
342.1203762006
 20
217.4730989579
 30
0.0
 11
342.1203762006
 21
221.7683815574
 31
0.0
  0
LINE
  5
296
330
1F
100
AcDbEntity
  8
0
  6
SLD-Punktstrich
 62
     7
370
     0
100
AcDbLine
 10
356.0691792174
 20
189.2730989579
 30
0.0
 11
323.7511958794
 21
189.2730989579
 31
0.0
  0
LINE
  5
297
330
1F
100
AcDbEntity
  8
0
  6
SLD-Punktstrich
 62
     7
370
     0
100
AcDbLine
 10
298.1346184382
 20
193.2730989579
 30
0.0
 11
167.0087603115
 21
193.2730989579
 31
0.0
  0
SPLINE
  5
298
330
1F
100
AcDbEntity
  8
0
  6
SLD-Durchgehend
 62
     7
370
    15
100
AcDbSpline
210
0.0
220
0.0
230
1.0
 70
     8
 71
     3
 72
     9
 73
     5
 74
     0
 42
0.000000001
 43
0.00000001
 40
0.0
 40
0.0
 40
0.0
 40
0.0
 40
0.7211502335927792
 40
1.0
 40
1.0
 40
1.0
 40
1.0
 10
87.2561440189109
 20
194.4054519339978
 30
0.0
 10
87.5365526654054
 20
194.391414187108
 30
0.0
 10
87.92538793638286
 20
194.3719484139085
 30
0.0
 10
88.29773429107227
 20
194.26367095219
 30
0.0
 10
88.4015629851
 20
194.2334778072826
 30
0.0
  0
LINE
  5
299
330
1F
100
AcDbEntity
  8
0
  6
SLD-Durchgehend
 62
     7
370
    15
100
AcDbLine
 10
97.2561437954
 20
217.8138809327
 30
0.0
 11
97.2561437954
 21
217.817401332
 31
0.0
  0
CIRCLE
  5
29A
330
1F
100
AcDbEntity
  8
0
  6
SLD-Durchgehend
 62
     7
370
    15
100
AcDbCircle
 10
87.2561440189
 20
189.2730989579
 30
0.0
 40
5.099999999999994
  0
CIRCLE
  5
29B
330
1F
100
AcDbEntity
  8
0
  6
SLD-Durchgehend
 62
     7
370
    15
100
AcDbCircle
 10
87.2561440189
 20
174.7730989579
 30
0.0
 40
2.5
  0
CIRCLE
  5
29C
330
1F
100
AcDbEntity
  8
0
  6
SLD-Durchgehend
 62
     7
370
    15
100
AcDbCircle
 10
87.2561440189
 20
203.7730989579
 30
0.0
 40
2.5
  0
LINE
  5
29D
330
1F
100
AcDbEntity
  8
0
  6
SLD-Durchgehend
 62
     7
370
    15
100
AcDbLine
 10
110.2561440636
 20
180.1106527496
 30
0.0
 11
110.2561440636
 21
206.4355451662
 31
0.0
  0
LINE
  5
29E
330
1F
100
AcDbEntity
  8
0
  6
SLD-Durchgehend
 62
     7
370
    15
100
AcDbLine
 10
64.2561439742
 20
206.4355451662
 30
0.0
 11
64.2561439742
 21
180.1106527496
 31
0.0
  0
CIRCLE
  5
29F
330
1F
100
AcDbEntity
  8
0
  6
SLD-Durchgehend
 62
     7
370
    15
100
AcDbCircle
 10
87.2561440189
 20
189.2730989579
 30
0.0
 40
19.42000000000002
  0
ARC
  5
2A0
330
1F
100
AcDbEntity
  8
0
  6
SLD-Durchgehend
 62
     7
370
    15
100
AcDbCircle
 10
87.2561440189
 20
193.2730989579
 30
0.0
 40
26.50000000000001
100
AcDbArc
 50
29.7816552343
 51
150.2183447657
  0
ARC
  5
2A1
330
1F
100
AcDbEntity
  8
0
  6
SLD-Durchgehend
 62
     7
370
    15
100
AcDbCircle
 10
87.2561440189
 20
193.2730989579
 30
0.0
 40
26.50000000000001
100
AcDbArc
 50
209.7816552343
 51
330.2183447657
  0
ARC
  5
2A2
330
1F
100
AcDbEntity
  8
0
  6
SLD-Durchgehend
 62
     7
370
    15
100
AcDbCircle
 10
87.2561440189
 20
193.2730989579
 30
0.0
 40
26.50000000000001
100
AcDbArc
 50
330.2183447657
 51
29.7816552343
  0
ARC
  5
2A3
330
1F
100
AcDbEntity
  8
0
  6
SLD-Durchgehend
 62
     7
370
    15
100
AcDbCircle
 10
87.2561440189
 20
193.2730989579
 30
0.0
 40
26.5
100
AcDbArc
 50
150.2183447657
 51
209.7816552343
  0
CIRCLE
  5
2A4
330
1F
100
AcDbEntity
  8
0
  6
SLD-Punktstrich
 62
     7
370
     0
100
AcDbCircle
 10
87.2561440189
 20
189.2730989579
 30
0.0
 40
14.50000000000003
  0
DIMENSION
  5
2A5
330
1F
100
AcDbEntity
  8
0
  6
SLD-Durchgehend
 62
     7
370
     0
100
AcDbDimension
  2
_D_8
 10
89.7561440189
 20
156.7730989579
 30
0.0
 11
94.7408617799
 21
156.7730989579
 31
0.0
 70
   160
  1
%%c<>
 71
     2
 42
-1.0
  3
SLDDIMSTYLE3
100
AcDbAlignedDimension
 13
84.7561440189
 23
174.7730989579
 33
0.0
 14
89.7561440189
 24
174.7730989579
 34
0.0
100
AcDbRotatedDimension
  0
DIMENSION
  5
2B2
330
1F
100
AcDbEntity
  8
0
  6
SLD-Durchgehend
 62
     7
370
     0
100
AcDbDimension
  2
_D_9
 10
110.2561440189
 20
142.7730989579
 30
0.0
 11
85.9892731931
 21
142.7730989579
 31
0.0
 70
   160
  1
SW<>
 71
     2
 42
-1.0
  3
SLDDIMSTYLE1
100
AcDbAlignedDimension
 13
64.2561440189
 23
180.1106523768
 33
0.0
 14
110.2561440189
 24
180.1106523768
 34
0.0
100
AcDbRotatedDimension
  0
DIMENSION
  5
2BD
330
1F
100
AcDbEntity
  8
0
  6
SLD-Durchgehend
 62
     7
370
     0
100
AcDbDimension
  2
_D_10
 10
56.2915321785
 20
174.7730989579
 30
0.0
 11
56.2915321785
 21
191.061482115
 31
0.0
 70
   160
  1
<>
 71
     2
 42
-1.0
  3
SLDDIMSTYLE1
100
AcDbAlignedDimension
 13
83.7561440189
 23
203.7730989579
 33
0.0
 14
83.7561440189
 24
174.7730989579
 34
0.0
 50
90.0
100
AcDbRotatedDimension
  0
INSERT
  5
2D2
330
1F
100
AcDbEntity
  8
0
  6
SLD-Durchgehend
 62
     7
370
     0
100
AcDbBlockReference
  2
SW_CENTERMARKSYMBOL_0
 10
87.2561440189
 20
203.7730989579
 30
0.0
  0
INSERT
  5
2DE
330
1F
100
AcDbEntity
  8
0
  6
SLD-Durchgehend
 62
     7
370
     0
100
AcDbBlockReference
  2
SW_CENTERMARKSYMBOL_1
 10
87.2561440189
 20
189.2730989579
 30
0.0
  0
INSERT
  5
2EA
330
1F
100
AcDbEntity
  8
0
  6
SLD-Durchgehend
 62
     7
370
     0
100
AcDbBlockReference
  2
SW_CENTERMARKSYMBOL_2
 10
87.2561440189
 20
174.7730989579
 30
0.0
  0
ARC
  5
2EB
330
1F
100
AcDbEntity
  8
0
  6
SLD-Durchgehend
 62
     7
370
     0
100
AcDbCircle
 10
87.2561440189
 20
189.2730989579
 30
0.0
 40
20.49999991059304
100
AcDbArc
 50
75.0
 51
345.0
  0
ARC
  5
2EC
330
1F
100
AcDbEntity
  8
0
  6
SLD-Durchgehend
 62
     7
370
     0
100
AcDbCircle
 10
87.2561440189
 20
189.2730989579
 30
0.0
 40
19.27499966323377
100
AcDbArc
 50
75.0
 51
345.0
  0
ARC
  5
2ED
330
1F
100
AcDbEntity
  8
0
  6
SLD-Durchgehend
 62
     7
370
     0
100
AcDbCircle
 10
87.2561440189
 20
189.2730989579
 30
0.0
 40
6.000000094994919
100
AcDbArc
 50
75.0
 51
345.0
  0
LINE
  5
2EE
330
1F
100
AcDbEntity
  8
0
  6
SLD-Durchgehend
 62
     7
370
    15
100
AcDbLine
 10
140.2470177921
 20
92.3833519482
 30
0.0
 11
140.2366388561
 21
92.4623664313
 31
0.0
  0
LINE
  5
2EF
330
1F
100
AcDbEntity
  8
0
  6
SLD-Durchgehend
 62
     7
370
    15
100
AcDbLine
 10
127.545656422
 20
90.7953442264
 30
0.0
 11
127.556035358
 21
90.7163297432
 31
0.0
  0
LINE
  5
2F0
330
1F
100
AcDbEntity
  8
0
  6
SLD-Durchgehend
 62
     7
370
    15
100
AcDbLine
 10
176.3620089534
 20
87.5209791857
 30
0.0
 11
164.4672999046
 21
90.988702309
 31
0.0
  0
LINE
  5
2F1
330
1F
100
AcDbEntity
  8
0
  6
SLD-Durchgehend
 62
     7
370
    15
100
AcDbLine
 10
156.7603703117
 20
38.2374874315
 30
0.0
 11
161.5841633795
 21
36.8311832761
 31
0.0
  0
LINE
  5
2F2
330
1F
100
AcDbEntity
  8
0
  6
SLD-Durchgehend
 62
     7
370
    15
100
AcDbLine
 10
149.6894543307
 20
40.2989063994
 30
0.0
 11
154.8934118474
 21
38.7817710294
 31
0.0
  0
LINE
  5
2F3
330
1F
100
AcDbEntity
  8
0
  6
SLD-Durchgehend
 62
     7
370
    15
100
AcDbLine
 10
166.5681833579
 20
82.1917956194
 30
0.0
 11
166.5434739651
 21
82.3571610226
 31
0.0
  0
LINE
  5
2F4
330
1F
100
AcDbEntity
  8
0
  6
SLD-Durchgehend
 62
     7
370
    15
100
AcDbLine
 10
154.5264938817
 20
86.5953811283
 30
0.0
 11
154.5473356559
 21
86.4367134173
 31
0.0
  0
LINE
  5
2F5
330
1F
100
AcDbEntity
  8
0
  6
SLD-Durchgehend
 62
     7
370
    15
100
AcDbLine
 10
154.8934118474
 20
38.7817710294
 30
0.0
 11
156.7603703117
 21
38.2374874315
 31
0.0
  0
LINE
  5
2F6
330
1F
100
AcDbEntity
  8
0
  6
SLD-Durchgehend
 62
     7
370
    15
100
AcDbLine
 10
49.6600167277
 20
109.4595656061
 30
0.0
 11
41.6050548448
 21
111.8078683232
 31
0.0
  0
LINE
  5
2F7
330
1F
100
AcDbEntity
  8
0
  6
SLD-Durchgehend
 62
     7
370
    15
100
AcDbLine
 10
56.4431458488
 20
107.4820465592
 30
0.0
 11
51.3558021666
 21
108.9651849236
 31
0.0
  0
LINE
  5
2F8
330
1F
100
AcDbEntity
  8
0
  6
SLD-Durchgehend
 62
     7
370
    15
100
AcDbLine
 10
63.2262749698
 20
105.5045275123
 30
0.0
 11
58.1389312877
 21
106.9876658767
 31
0.0
  0
LINE
  5
2F9
330
1F
100
AcDbEntity
  8
0
  6
SLD-Durchgehend
 62
     7
370
    15
100
AcDbLine
 10
68.3571573474
 20
104.0086960977
 30
0.0
 11
64.9220604087
 21
105.0101468298
 31
0.0
  0
LINE
  5
2FA
330
1F
100
AcDbEntity
  8
0
  6
SLD-Durchgehend
 62
     7
370
    15
100
AcDbLine
 10
34.887852769
 20
88.7670523417
 30
0.0
 11
61.6399552715
 21
80.9678801162
 31
0.0
  0
SPLINE
  5
2FB
330
1F
100
AcDbEntity
  8
0
  6
SLD-Durchgehend
 62
     7
370
    15
100
AcDbSpline
210
0.0
220
0.0
230
1.0
 70
     8
 71
     3
 72
    27
 73
    23
 74
     0
 42
0.000000001
 43
0.00000001
 40
0.0
 40
0.0
 40
0.0
 40
0.0
 40
0.016153447291152
 40
0.0657005173987264
 40
0.1155962196976904
 40
0.1666293347441844
 40
0.2188782431456426
 40
0.2719058563675755
 40
0.3252232134571639
 40
0.3784971413254907
 40
0.431645830456148
 40
0.4846673636209661
 40
0.5375843648270426
 40
0.5904251590081916
 40
0.6432175485619336
 40
0.6959876218991214
 40
0.7487602921664058
 40
0.80155284106786
 40
0.8543906870778857
 40
0.9073021991119261
 40
0.960318996407122
 40
1.0
 40
1.0
 40
1.0
 40
1.0
 10
41.42001279686648
 20
111.8360434517894
 30
0.0
 10
41.34497797327725
 20
111.858469297336
 30
0.0
 10
41.03979068762335
 20
111.9496813853171
 30
0.0
 10
40.46216315210087
 20
111.9392423869282
 30
0.0
 10
39.70730333655849
 20
111.8056985487
 30
0.0
 10
38.93271028131736
 20
111.4983346417365
 30
0.0
 10
38.14763209479029
 20
111.0323827703367
 30
0.0
 10
37.36153932722626
 20
110.4073153400468
 30
0.0
 10
36.58828124892015
 20
109.6342404749476
 30
0.0
 10
35.84047303401535
 20
108.7266909836904
 30
0.0
 10
35.12887620730383
 20
107.6999900616751
 30
0.0
 10
34.46258796045061
 20
106.5695731277493
 30
0.0
 10
33.85006098882955
 20
105.3516728742695
 30
0.0
 10
33.29916251038777
 20
104.0634519357521
 30
0.0
 10
32.81712818440364
 20
102.7229335443938
 30
0.0
 10
32.41045627648815
 20
101.3488272096075
 30
0.0
 10
32.08471232253181
 20
99.96029511485989
 30
0.0
 10
31.84473039728823
 20
98.57680093179358
 30
0.0
 10
31.69353723734546
 20
97.21698934608473
 30
0.0
 10
31.63570298264519
 20
95.90143120269487
 30
0.0
 10
31.66299550345962
 20
94.747346616398
 30
0.0
 10
31.73913139637273
 20
94.06466395384544
 30
0.0
 10
31.77172276975258
 20
93.77242904723472
 30
0.0
  0
SPLINE
  5
2FC
330
1F
100
AcDbEntity
  8
0
  6
SLD-Durchgehend
 62
     7
370
    15
100
AcDbSpline
210
0.0
220
0.0
230
1.0
 70
     8
 71
     3
 72
    15
 73
    11
 74
     0
 42
0.000000001
 43
0.00000001
 40
0.0
 40
0.0
 40
0.0
 40
0.0
 40
0.0798137219679716
 40
0.2323337818380752
 40
0.3853630649458407
 40
0.5386185223979445
 40
0.6910057064356014
 40
0.8408252953831399
 40
0.9866638576974291
 40
1.0
 40
1.0
 40
1.0
 40
1.0
 10
31.77172276975258
 20
93.77242904723472
 30
0.0
 10
31.80087624331777
 20
93.57286099318534
 30
0.0
 10
31.88574055737452
 20
92.99192829655
 30
0.0
 10
32.09842778923928
 20
92.10375809067354
 30
0.0
 10
32.44026050642972
 20
91.15638778857986
 30
0.0
 10
32.87680488555426
 20
90.33903779723221
 30
0.0
 10
33.40082771744267
 20
89.66011135433598
 30
0.0
 10
34.0104779536
 20
89.15998226298025
 30
0.0
 10
34.47221763485257
 20
88.8807554773677
 30
0.0
 10
34.73561285792943
 20
88.82097033312998
 30
0.0
 10
34.75768091318503
 20
88.8159613513759
 30
0.0
  0
LINE
  5
2FD
330
1F
100
AcDbEntity
  8
0
  6
SLD-Durchgehend
 62
     7
370
    15
100
AcDbLine
 10
31.3327749878
 20
104.8605198761
 30
0.0
 11
29.8599108738
 21
96.5058194592
 31
0.0
  0
ARC
  5
2FE
330
1F
100
AcDbEntity
  8
0
  6
SLD-Durchgehend
 62
     7
370
    15
100
AcDbCircle
 10
31.8251831709
 20
104.7737121237
 30
0.0
 40
0.500000000000015
100
AcDbArc
 50
137.1698672643
 51
170.0019632351
  0
LINE
  5
2FF
330
1F
100
AcDbEntity
  8
0
  6
SLD-Durchgehend
 62
     7
370
    15
100
AcDbLine
 10
35.961067064
 20
109.9708335154
 30
0.0
 11
31.4584962628
 21
105.1136259148
 31
0.0
  0
ARC
  5
300
330
1F
100
AcDbEntity
  8
0
  6
SLD-Durchgehend
 62
     7
370
    15
100
AcDbCircle
 10
30.3523193002
 20
96.4190120281
 30
0.0
 40
0.4999999999999905
100
AcDbArc
 50
170.0019632351
 51
220.9007848882
  0
LINE
  5
301
330
1F
100
AcDbEntity
  8
0
  6
SLD-Durchgehend
 62
     7
370
    15
100
AcDbLine
 10
29.9743954983
 20
96.0916369193
 30
0.0
 11
31.7446634136
 21
94.0480402857
 31
0.0
  0
LINE
  5
302
330
1F
100
AcDbEntity
  8
0
  6
SLD-Durchgehend
 62
     7
370
    15
100
AcDbLine
 10
36.9510362649
 20
109.9700262174
 30
0.0
 11
36.4677011536
 21
110.1109352834
 31
0.0
  0
ARC
  5
303
330
1F
100
AcDbEntity
  8
0
  6
SLD-Durchgehend
 62
     7
370
    15
100
AcDbCircle
 10
36.327753956
 20
109.630919707
 30
0.0
 40
0.5000000000000053
100
AcDbArc
 50
73.7467519403
 51
137.1698672643
  0
LINE
  5
304
330
1F
100
AcDbEntity
  8
0
  6
SLD-Durchgehend
 62
     7
370
    15
100
AcDbLine
 10
101.2002245873
 20
109.5374265438
 30
0.0
 11
83.3945090653
 21
114.7284145023
 31
0.0
  0
LINE
  5
305
330
1F
100
AcDbEntity
  8
0
  6
SLD-Durchgehend
 62
     7
370
    15
100
AcDbLine
 10
68.5606863302
 20
63.8466136724
 30
0.0
 11
86.3664018522
 21
58.6556257139
 31
0.0
  0
LINE
  5
306
330
1F
100
AcDbEntity
  8
0
  6
SLD-Durchgehend
 62
     7
370
    15
100
AcDbLine
 10
75.9256116198
 20
112.6919528599
 30
0.0
 11
75.079693186
 21
112.0559531813
 31
0.0
  0
LINE
  5
307
330
1F
100
AcDbEntity
  8
0
  6
SLD-Durchgehend
 62
     7
370
    15
100
AcDbLine
 10
62.984717085
 20
70.5687245176
 30
0.0
 11
63.356322909
 21
69.5777740144
 31
0.0
  0
LINE
  5
308
330
1F
100
AcDbEntity
  8
0
  6
SLD-Durchgehend
 62
     7
370
    15
100
AcDbLine
 10
205.4060300739
 20
79.1577947442
 30
0.0
 11
177.4256271876
 21
87.3150594313
 31
0.0
  0
LINE
  5
309
330
1F
100
AcDbEntity
  8
0
  6
SLD-Durchgehend
 62
     7
370
    15
100
AcDbLine
 10
162.5918044525
 20
36.4332586014
 30
0.0
 11
190.5722073389
 21
28.2759939143
 31
0.0
  0
LINE
  5
30A
330
1F
100
AcDbEntity
  8
0
  6
SLD-Durchgehend
 62
     7
370
    15
100
AcDbLine
 10
164.2833153053
 20
91.1465023545
 30
0.0
 11
101.3698056581
 21
109.4879877389
 31
0.0
  0
LINE
  5
30B
330
1F
100
AcDbEntity
  8
0
  6
SLD-Durchgehend
 62
     7
370
    15
100
AcDbLine
 10
86.535982923
 20
58.606186909
 30
0.0
 11
149.4494925702
 21
40.2647015246
 31
0.0
  0
ARC
  5
30C
330
1F
100
AcDbEntity
  8
0
  6
SLD-Durchgehend
 62
     7
370
    15
100
AcDbCircle
 10
136.6350251651
 20
91.548813995
 30
0.0
 40
3.715669419190883
100
AcDbArc
 50
14.2329483422
 51
80.9640741934
  0
ARC
  5
30D
330
1F
100
AcDbEntity
  8
0
  6
SLD-Durchgehend
 62
     7
370
    15
100
AcDbCircle
 10
131.1923012603
 20
90.8390886828
 30
0.0
 40
3.646907203941108
100
AcDbArc
 50
118.8663460885
 51
180.6872762861
  0
ARC
  5
30E
330
1F
100
AcDbEntity
  8
0
  6
SLD-Durchgehend
 62
     7
370
    15
100
AcDbCircle
 10
134.5287917776
 20
87.3211827505
 30
0.0
 40
8.346944331740811
100
AcDbArc
 50
72.1031416676
 51
140.1805328468
  0
LWPOLYLINE
  5
30F
330
1F
100
AcDbEntity
  8
0
  6
SLD-Durchgehend
 62
     7
370
    15
100
AcDbPolyline
 90
       17
 70
   128
 43
0.0
 10
128.1613428246
 20
89.8902911669
 10
128.172613845
 20
89.8744805925
 10
128.6852588603
 20
89.3188665414
 10
129.3645603936
 20
88.84257606
 10
130.1886802254
 20
88.4609188227
 10
131.1311363127
 20
88.186159957
 10
132.1616309797
 20
88.0271322934
 10
133.2470490473
 20
87.9889453765
 10
134.3524995585
 20
88.0728280679
 10
135.4424538373
 20
88.2760837294
 10
136.4818861144
 20
88.5921780221
 10
137.4373793444
 20
89.0109536301
 10
138.2782245554
 20
89.5189505432
 10
138.9774008754
 20
90.0998400008
 10
139.5124276622
 20
90.7349541928
 10
139.8661203914
 20
91.4038766144
 10
139.9749918761
 20
91.7607289084
  0
LWPOLYLINE
  5
310
330
1F
100
AcDbEntity
  8
0
  6
SLD-Durchgehend
 62
     7
370
    15
100
AcDbPolyline
 90
       14
 70
   128
 43
0.0
 10
130.5740892769
 20
87.9603240011
 10
131.5669385248
 20
87.7401438354
 10
132.6307309442
 20
87.6357174115
 10
133.7331277503
 20
87.650221721
 10
134.840647861
 20
87.7832122771
 10
135.9196319315
 20
88.0306502633
 10
136.9372958704
 20
88.3850175529
 10
137.8627214164
 20
88.8355456219
 10
138.6677821078
 20
89.3685478948
 10
139.3280260815
 20
89.9678267132
 10
139.8233890408
 20
90.6151741059
 10
140.1388226098
 20
91.2909197858
 10
140.2647331685
 20
91.9745343975
 10
140.2470177921
 20
92.3833519482
  0
ARC
  5
311
330
1F
100
AcDbEntity
  8
0
  6
SLD-Durchgehend
 62
     7
370
    15
100
AcDbCircle
 10
131.1576407471
 20
91.6298730883
 30
0.0
 40
3.715659136986705
100
AcDbArc
 50
194.2328439327
 51
260.9641786029
  0
ARC
  5
312
330
1F
100
AcDbEntity
  8
0
  6
SLD-Durchgehend
 62
     7
370
    15
100
AcDbCircle
 10
133.1738555301
 20
96.9681120108
 30
0.0
 40
9.385853071330708
100
AcDbArc
 50
254.7104266572
 51
303.5492342653
  0
LWPOLYLINE
  5
313
330
1F
100
AcDbEntity
  8
0
  6
SLD-Durchgehend
 62
     7
370
    15
100
AcDbPolyline
 90
       16
 70
   128
 43
0.0
 10
139.1695739485
 20
91.6091560287
 10
139.0045121012
 20
91.2011319443
 10
138.5982876525
 20
90.5924037596
 10
138.0211765332
 20
90.0268496181
 10
137.294049416
 20
89.5249064595
 10
136.4431846866
 20
89.104716358
 10
135.4993288835
 20
88.781467878
 10
134.4965983522
 20
88.566843148
 10
133.4712393095
 20
88.4685978585
 10
132.4603043471
 20
88.4902848455
 10
131.5003322664
 20
88.6311197711
 10
130.626020681
 20
88.8860121345
 10
129.8689686266
 20
89.2457497132
 10
129.2565394508
 20
89.6973300702
 10
128.8108629338
 20
90.2244336029
 10
128.6595869158
 20
90.5021816564
  0
ARC
  5
314
330
1F
100
AcDbEntity
  8
0
  6
SLD-Durchgehend
 62
     7
370
    15
100
AcDbCircle
 10
134.4145861861
 20
88.0493943353
 30
0.0
 40
7.151360143685452
100
AcDbArc
 50
71.4440093664
 51
142.0471241799
  0
ARC
  5
315
330
1F
100
AcDbEntity
  8
0
  6
SLD-Durchgehend
 62
     7
370
    15
100
AcDbCircle
 10
136.2649339779
 20
91.7200814678
 30
0.0
 40
2.848953933148124
100
AcDbArc
 50
8.1386045741
 51
80.0866834961
  0
LWPOLYLINE
  5
316
330
1F
100
AcDbEntity
  8
0
  6
SLD-Durchgehend
 62
     7
370
    15
100
AcDbPolyline
 90
       16
 70
   128
 43
0.0
 10
135.3070544771
 20
94.8123163435
 10
134.7037450072
 20
94.84346053
 10
133.6868509209
 20
94.7959503376
 10
132.6777438001
 20
94.6272344632
 10
131.715192342
 20
94.3437990834
 10
130.8362035892
 20
93.9565319406
 10
130.0745423165
 20
93.4803197166
 10
129.4594878633
 20
92.9334600692
 10
129.0146714781
 20
92.3369700793
 10
128.7571923415
 20
91.7137711535
 10
128.6969357425
 20
91.0878149928
 10
128.8362316696
 20
90.483152617
 10
129.1697108494
 20
89.9230259447
 10
129.6845677033
 20
89.4289568552
 10
130.3610168561
 20
89.0199325142
 10
131.1730644517
 20
88.7116706031
  0
SPLINE
  5
317
330
1F
100
AcDbEntity
  8
0
  6
SLD-Durchgehend
 62
     7
370
    15
100
AcDbSpline
210
0.0
220
0.0
230
1.0
 70
     8
 71
     3
 72
    12
 73
     8
 74
     0
 42
0.000000001
 43
0.00000001
 40
0.0
 40
0.0
 40
0.0
 40
0.0
 40
0.2146828665127724
 40
0.4293671153074431
 40
0.6440305083310484
 40
0.8587038833187727
 40
1.0
 40
1.0
 40
1.0
 40
1.0
 10
154.5987808605403
 20
86.78035303616012
 30
0.0
 10
154.5741455522999
 20
86.74822099951948
 30
0.0
 10
154.5248747771995
 20
86.68395671934911
 30
0.0
 10
154.519914573912
 20
86.57967429742365
 30
0.0
 10
154.5686320128495
 20
86.48528151908536
 30
0.0
 10
154.6566723156966
 20
86.41694391919714
 30
0.0
 10
154.7322717917038
 20
86.39054619438888
 30
0.0
 10
154.7622797351736
 20
86.38006806047031
 30
0.0
  0
LWPOLYLINE
  5
318
330
1F
100
AcDbEntity
  8
0
  6
SLD-Durchgehend
 62
     7
370
    15
100
AcDbPolyline
 90
       10
 70
   128
 43
0.0
 10
154.5987808605
 20
86.7803530362
 10
155.7803887979
 20
87.9302028542
 10
156.9714192404
 20
88.918265981
 10
158.1632265047
 20
89.7373682512
 10
159.3471581694
 20
90.3815649398
 10
160.5146197878
 20
90.8461786466
 10
161.6571358439
 20
91.127838168
 10
162.7664126887
 20
91.2244959806
 10
163.8343976524
 20
91.1354516826
 10
164.4672999046
 20
90.988702309
  0
LWPOLYLINE
  5
319
330
1F
100
AcDbEntity
  8
0
  6
SLD-Durchgehend
 62
     7
370
    15
100
AcDbPolyline
 90
       29
 70
   128
 43
0.0
 10
149.6894543307
 20
40.2989063994
 10
149.1660283836
 20
40.4789326428
 10
148.2119426981
 20
40.9613203502
 10
147.3222228189
 20
41.6228922418
 10
146.5033268909
 20
42.4588411819
 10
145.7611996494
 20
43.4631004568
 10
145.1012300222
 20
44.628380372
 10
144.5282077652
 20
45.9462206118
 10
144.0462919616
 20
47.4070532944
 10
143.6589826216
 20
49.0002760942
 10
143.3690905935
 20
50.7143213765
 10
143.1787211831
 20
52.5367472349
 10
143.0892552231
 20
54.4543226926
 10
143.1013425795
 20
56.4531276344
 10
143.2148957248
 20
58.518652244
 10
143.4290893647
 20
60.6359008473
 10
143.7423710157
 20
62.7895049816
 10
144.1524637385
 20
64.9638288436
 10
144.6563913367
 20
67.1430888893
 10
145.2504966795
 20
69.3114668577
 10
145.9304651549
 20
71.4532174067
 10
146.6913620691
 20
73.5527958339
 10
147.5276630693
 20
75.5949589483
 10
148.4332966721
 20
77.5648832023
 10
149.4016891126
 20
79.448265162
 10
150.4258095826
 20
81.2314358419
 10
151.4982245652
 20
82.901447883
 10
152.6111482751
 20
84.4461786959
 10
153.7565017719
 20
85.8544143939
  0
SPLINE
  5
31A
330
1F
100
AcDbEntity
  8
0
  6
SLD-Durchgehend
 62
     7
370
    15
100
AcDbSpline
210
0.0
220
0.0
230
1.0
 70
     8
 71
     3
 72
    12
 73
     8
 74
     0
 42
0.000000001
 43
0.00000001
 40
0.0
 40
0.0
 40
0.0
 40
0.0
 40
0.2146869321638504
 40
0.4293727509553731
 40
0.6440532494231502
 40
0.858721689520694
 40
1.0
 40
1.0
 40
1.0
 40
1.0
 10
154.4385550773327
 20
86.02419010391803
 30
0.0
 10
154.3880336819707
 20
86.034884861009
 30
0.0
 10
154.286991153252
 20
86.05627431972765
 30
0.0
 10
154.1153671837805
 20
86.0432647001265
 30
0.0
 10
153.953951783673
 20
85.99712279451508
 30
0.0
 10
153.8306023088487
 20
85.92926691474982
 30
0.0
 10
153.7775562188507
 20
85.87568250466951
 30
0.0
 10
153.7565017719137
 20
85.85441439388634
 30
0.0
  0
LINE
  5
31B
330
1F
100
AcDbEntity
  8
0
  6
SLD-Durchgehend
 62
     7
370
    15
100
AcDbLine
 10
154.4385550773
 20
86.0241901039
 30
0.0
 11
166.3090278805
 21
82.5635326927
 31
0.0
  0
SPLINE
  5
31C
330
1F
100
AcDbEntity
  8
0
  6
SLD-Durchgehend
 62
     7
370
    15
100
AcDbSpline
210
0.0
220
0.0
230
1.0
 70
     8
 71
     3
 72
    12
 73
     8
 74
     0
 42
0.000000001
 43
0.00000001
 40
0.0
 40
0.0
 40
0.0
 40
0.0
 40
0.2146828172848087
 40
0.4293670945032215
 40
0.644030504971244
 40
0.8587038779538538
 40
1.0
 40
1.0
 40
1.0
 40
1.0
 10
166.4748672945325
 20
82.14656664139541
 30
0.0
 10
166.4991461803885
 20
82.18123882740684
 30
0.0
 10
166.5477041172074
 20
82.25058343521516
 30
0.0
 10
166.5519804076715
 20
82.35974009689039
 30
0.0
 10
166.5028611421384
 20
82.4569967560582
 30
0.0
 10
166.4146573031373
 20
82.52649996503789
 30
0.0
 10
166.339042076698
 20
82.55300998487074
 30
0.0
 10
166.3090278805022
 20
82.56353269271524
 30
0.0
  0
ARC
  5
31D
330
1F
100
AcDbEntity
  8
0
  6
SLD-Durchgehend
 62
     7
370
    15
100
AcDbCircle
 10
176.9981026083
 20
75.2236874791
 30
0.0
 40
12.46293923447814
100
AcDbArc
 50
101.0633184913
 51
140.9666516887
  0
LWPOLYLINE
  5
31E
330
1F
100
AcDbEntity
  8
0
  6
SLD-Durchgehend
 62
     7
370
    15
100
AcDbPolyline
 90
       27
 70
   128
 43
0.0
 10
160.1391753532
 20
37.8301938531
 10
160.0405883415
 20
37.9150444893
 10
159.2216924135
 20
38.7509934294
 10
158.4795651721
 20
39.7552527043
 10
157.8195955448
 20
40.9205326195
 10
157.2465732878
 20
42.2383728593
 10
156.7646574843
 20
43.6992055419
 10
156.3773481443
 20
45.2924283417
 10
156.0874561161
 20
47.006473624
 10
155.8970867058
 20
48.8288994824
 10
155.8076207457
 20
50.7464749401
 10
155.8197081021
 20
52.7452798819
 10
155.9332612475
 20
54.8108044915
 10
156.1474548874
 20
56.9280530948
 10
156.4607365383
 20
59.0816572291
 10
156.8708292612
 20
61.2559810911
 10
157.3747568594
 20
63.4352411368
 10
157.9688622022
 20
65.6036191052
 10
158.6488306775
 20
67.7453696543
 10
159.4097275918
 20
69.8449480814
 10
160.2460285919
 20
71.8871111958
 10
161.1516621948
 20
73.8570354498
 10
162.1200546352
 20
75.7404174095
 10
163.1441751052
 20
77.5235880894
 10
164.2165900879
 20
79.1936001305
 10
165.3295137977
 20
80.7383309435
 10
166.4748672945
 20
82.1465666414
  0
SPLINE
  5
31F
330
1F
100
AcDbEntity
  8
0
  6
SLD-Durchgehend
 62
     7
370
    15
100
AcDbSpline
210
0.0
220
0.0
230
1.0
 70
     8
 71
     3
 72
    12
 73
     8
 74
     0
 42
0.000000001
 43
0.00000001
 40
0.0
 40
0.0
 40
0.0
 40
0.0
 40
0.214686639905339
 40
0.4293721664994286
 40
0.6440523659403498
 40
0.8587223945893018
 40
1.0
 40
1.0
 40
1.0
 40
1.0
 10
166.6327525383431
 20
82.91941064926755
 30
0.0
 10
166.6832876568345
 20
82.90861786010736
 30
0.0
 10
166.7843576317547
 20
82.8870323377557
 30
0.0
 10
166.9562351456448
 20
82.89823742398339
 30
0.0
 10
167.1181449072155
 20
82.94084993651025
 30
0.0
 10
167.2422083864229
 20
83.0036508067747
 30
0.0
 10
167.2958540997174
 20
83.05294152293206
 30
0.0
 10
167.3171463831591
 20
83.07250528366919
 30
0.0
  0
LINE
  5
320
330
1F
100
AcDbEntity
  8
0
  6
SLD-Durchgehend
 62
     7
370
    15
100
AcDbLine
 10
154.7622797352
 20
86.3800680605
 30
0.0
 11
166.6327525383
 21
82.9194106493
 31
0.0
  0
LINE
  5
321
330
1F
100
AcDbEntity
  8
0
  6
SLD-Durchgehend
 62
     7
370
    15
100
AcDbLine
 10
167.3379081216
 20
82.9144468821
 30
0.0
 11
168.0250601016
 21
83.6035491383
 31
0.0
  0
LWPOLYLINE
  5
322
330
1F
100
AcDbEntity
  8
0
  6
SLD-Durchgehend
 62
     7
370
    15
100
AcDbPolyline
 90
       21
 70
   128
 43
0.0
 10
156.6585677237
 20
44.6151080788
 10
156.4792844607
 20
45.4171796
 10
156.1915201151
 20
47.1180655069
 10
156.0025127923
 20
48.9265108725
 10
155.9136351085
 20
50.8293893564
 10
155.9255317517
 20
52.8128876019
 10
156.0381168644
 20
54.8626093354
 10
156.250573213
 20
56.9636742779
 10
156.5613571981
 20
59.1008315107
 10
156.9682143687
 20
61.2585686282
 10
157.4681914034
 20
63.4212225411
 10
158.0576583067
 20
65.5730966782
 10
158.7323364124
 20
67.6985676497
 10
159.4873293929
 20
69.7822111156
 10
160.3171553262
 20
71.8088985511
 10
161.2157919375
 20
73.7639199837
 10
162.1767156384
 20
75.6330865995
 10
163.1929514579
 20
77.4028282953
 10
164.2571229269
 20
79.0602979003
 10
165.3615052517
 20
80.5934671861
 10
166.4980817163
 20
81.991206194
  0
SPLINE
  5
323
330
1F
100
AcDbEntity
  8
0
  6
SLD-Durchgehend
 62
     7
370
    15
100
AcDbSpline
210
0.0
220
0.0
230
1.0
 70
     8
 71
     3
 72
    10
 73
     6
 74
     0
 42
0.000000001
 43
0.00000001
 40
0.0
 40
0.0
 40
0.0
 40
0.0
 40
0.1265838589260991
 40
0.6533323208563426
 40
1.0
 40
1.0
 40
1.0
 40
1.0
 10
166.5631187157323
 20
82.19069162077331
 30
0.0
 10
166.5658865824619
 20
82.18267618541608
 30
0.0
 10
166.5801722647727
 20
82.14130643236038
 30
0.0
 10
166.5561118723469
 20
82.06997543243341
 30
0.0
 10
166.5145700748793
 20
82.01358723749311
 30
0.0
 10
166.4980817163084
 20
81.99120619396552
 30
0.0
  0
SPLINE
  5
324
330
1F
100
AcDbEntity
  8
0
  6
SLD-Durchgehend
 62
     7
370
    15
100
AcDbSpline
210
0.0
220
0.0
230
1.0
 70
     8
 71
     3
 72
    10
 73
     6
 74
     0
 42
0.000000001
 43
0.00000001
 40
0.0
 40
0.0
 40
0.0
 40
0.0
 40
0.3581902973802968
 40
0.7163787373316759
 40
1.0
 40
1.0
 40
1.0
 40
1.0
 10
154.7830376071616
 20
86.2220390941473
 30
0.0
 10
154.7385698692903
 20
86.23908357699017
 30
0.0
 10
154.6496346241393
 20
86.2731724542902
 30
0.0
 10
154.5686492238074
 20
86.3518787364934
 30
0.0
 10
154.557056728274
 20
86.41128562542488
 30
0.0
 10
154.5519339041608
 20
86.43753804383049
 30
0.0
  0
LINE
  5
325
330
1F
100
AcDbEntity
  8
0
  6
SLD-Durchgehend
 62
     7
370
    15
100
AcDbLine
 10
154.7830376072
 20
86.2220390941
 30
0.0
 11
166.6535104103
 21
82.7613816829
 31
0.0
  0
SPLINE
  5
326
330
1F
100
AcDbEntity
  8
0
  6
SLD-Durchgehend
 62
     7
370
    15
100
AcDbSpline
210
0.0
220
0.0
230
1.0
 70
     8
 71
     3
 72
    12
 73
     8
 74
     0
 42
0.000000001
 43
0.00000001
 40
0.0
 40
0.0
 40
0.0
 40
0.0
 40
0.2146828310680644
 40
0.4293670972602925
 40
0.6440304539025148
 40
0.8587038821421609
 40
1.0
 40
1.0
 40
1.0
 40
1.0
 10
167.3379081216085
 20
82.91444688210741
 30
0.0
 10
167.3039026019861
 20
82.88505244326392
 30
0.0
 10
167.2358913354191
 20
82.82626336907927
 30
0.0
 10
167.0847728031401
 20
82.76459817380743
 30
0.0
 10
166.9183692663869
 20
82.73292653690649
 30
0.0
 10
166.7680000929831
 20
82.73408925011069
 30
0.0
 10
166.6860422114709
 20
82.75362664356447
 30
0.0
 10
166.653510410331
 20
82.76138168294453
 30
0.0
  0
LWPOLYLINE
  5
327
330
1F
100
AcDbEntity
  8
0
  6
SLD-Durchgehend
 62
     7
370
    15
100
AcDbPolyline
 90
       17
 70
   128
 43
0.0
 10
60.4118579071
 20
85.2762561625
 10
60.3026658581
 20
86.5714523425
 10
60.3020921157
 20
87.9596454169
 10
60.410147009
 20
89.4170834544
 10
60.6249810623
 20
90.9188286473
 10
60.9429182839
 20
92.4391856793
 10
61.3585195428
 20
93.9521409184
 10
61.8646725119
 20
95.4318076887
 10
62.4527180143
 20
96.8528679647
 10
63.1125937954
 20
98.1910076593
 10
63.8330092725
 20
99.4233307196
 10
64.6016380824
 20
100.5287508337
 10
65.4053286071
 20
101.4883546435
 10
66.2303295211
 20
102.2857231912
 10
67.0625248918
 20
102.9072132625
 10
67.8876756586
 20
103.3421901601
 10
68.0014242167
 20
103.3875850923
  0
LINE
  5
328
330
1F
100
AcDbEntity
  8
0
  6
SLD-Durchgehend
 62
     7
370
    15
100
AcDbLine
 10
61.9615878268
 20
84.8244557649
 30
0.0
 11
60.4118579071
 21
85.2762561625
 31
0.0
  0
ARC
  5
329
330
1F
100
AcDbEntity
  8
0
  6
SLD-Durchgehend
 62
     7
370
    15
100
AcDbCircle
 10
84.836305911
 20
86.704891337
 30
0.0
 40
22.83308309373399
100
AcDbArc
 50
144.2529686772
 51
183.2405355096
  0
LINE
  5
32A
330
1F
100
AcDbEntity
  8
0
  6
SLD-Durchgehend
 62
     7
370
    15
100
AcDbLine
 10
34.7722351763
 20
88.803659272
 30
0.0
 11
34.887852769
 21
88.7670523417
 31
0.0
  0
LWPOLYLINE
  5
32B
330
1F
100
AcDbEntity
  8
0
  6
SLD-Durchgehend
 62
     7
370
    15
100
AcDbPolyline
 90
        3
 70
   128
 43
0.0
 10
41.6050548448
 20
111.8078683232
 10
41.5189048562
 20
111.831410418
 10
41.4481508649
 20
111.8484333368
  0
LWPOLYLINE
  5
32C
330
1F
100
AcDbEntity
  8
0
  6
SLD-Durchgehend
 62
     7
370
    15
100
AcDbPolyline
 90
       19
 70
   128
 43
0.0
 10
55.3245142249
 20
86.7593945268
 10
55.2153221759
 20
88.0545907068
 10
55.2147484336
 20
89.4427837812
 10
55.3228033268
 20
90.9002218188
 10
55.5376373802
 20
92.4019670116
 10
55.8555746018
 20
93.9223240436
 10
56.2711758607
 20
95.4352792827
 10
56.7773288298
 20
96.914946053
 10
57.3653743322
 20
98.336006329
 10
58.0252501133
 20
99.6741460236
 10
58.7456655903
 20
100.9064690839
 10
59.5142944003
 20
102.0118891981
 10
60.317984925
 20
102.9714930078
 10
61.142985839
 20
103.7688615555
 10
61.9751812096
 20
104.3903516269
 10
62.8003319764
 20
104.8253285244
 10
63.6043194781
 20
105.0663506412
 10
64.373387296
 20
105.1092942479
 10
64.9220604087
 20
105.0101468298
  0
LWPOLYLINE
  5
32D
330
1F
100
AcDbEntity
  8
0
  6
SLD-Durchgehend
 62
     7
370
    15
100
AcDbPolyline
 90
       20
 70
   128
 43
0.0
 10
53.628728786
 20
87.2537752094
 10
53.519536737
 20
88.5489713894
 10
53.5189629947
 20
89.9371644638
 10
53.6270178879
 20
91.3946025013
 10
53.8418519413
 20
92.8963476942
 10
54.1597891629
 20
94.4167047262
 10
54.5753904218
 20
95.9296599653
 10
55.0815433909
 20
97.4093267356
 10
55.6695888933
 20
98.8303870116
 10
56.3294646744
 20
100.1685267062
 10
57.0498801514
 20
101.4008497665
 10
57.8185089614
 20
102.5062698806
 10
58.6221994861
 20
103.4658736904
 10
59.4472004001
 20
104.2632422381
 10
60.2793957707
 20
104.8847323094
 10
61.1045465375
 20
105.319709207
 10
61.9085340392
 20
105.5607313238
 10
62.6776018571
 20
105.6036749304
 10
63.3985907011
 20
105.4478035661
 10
64.0325567854
 20
105.1146122312
  0
LINE
  5
32E
330
1F
100
AcDbEntity
  8
0
  6
SLD-Durchgehend
 62
     7
370
    15
100
AcDbLine
 10
53.628728786
 20
87.2537752094
 30
0.0
 11
55.3245142249
 21
86.7593945268
 31
0.0
  0
LWPOLYLINE
  5
32F
330
1F
100
AcDbEntity
  8
0
  6
SLD-Durchgehend
 62
     7
370
    15
100
AcDbPolyline
 90
       19
 70
   128
 43
0.0
 10
48.5413851039
 20
88.7369135737
 10
48.4321930549
 20
90.0321097537
 10
48.4316193125
 20
91.4203028281
 10
48.5396742058
 20
92.8777408656
 10
48.7545082591
 20
94.3794860585
 10
49.0724454807
 20
95.8998430905
 10
49.4880467396
 20
97.4127983296
 10
49.9941997088
 20
98.8924650999
 10
50.5822452112
 20
100.3135253759
 10
51.2421209922
 20
101.6516650705
 10
51.9625364693
 20
102.8839881308
 10
52.7311652792
 20
103.989408245
 10
53.5348558039
 20
104.9490120547
 10
54.359856718
 20
105.7463806024
 10
55.1920520886
 20
106.3678706737
 10
56.0172028554
 20
106.8028475713
 10
56.821190357
 20
107.0438696881
 10
57.590258175
 20
107.0868132947
 10
58.1389312877
 20
106.9876658767
  0
LWPOLYLINE
  5
330
330
1F
100
AcDbEntity
  8
0
  6
SLD-Durchgehend
 62
     7
370
    15
100
AcDbPolyline
 90
       20
 70
   128
 43
0.0
 10
46.845599665
 20
89.2312942562
 10
46.736407616
 20
90.5264904363
 10
46.7358338736
 20
91.9146835107
 10
46.8438887669
 20
93.3721215482
 10
47.0587228202
 20
94.8738667411
 10
47.3766600418
 20
96.3942237731
 10
47.7922613007
 20
97.9071790122
 10
48.2984142699
 20
99.3868457825
 10
48.8864597723
 20
100.8079060585
 10
49.5463355533
 20
102.1460457531
 10
50.2667510304
 20
103.3783688134
 10
51.0353798403
 20
104.4837889275
 10
51.839070365
 20
105.4433927372
 10
52.6640712791
 20
106.240761285
 10
53.4962666497
 20
106.8622513563
 10
54.3214174165
 20
107.2972282538
 10
55.1254049181
 20
107.5382503707
 10
55.8944727361
 20
107.5811939773
 10
56.6154615801
 20
107.425322613
 10
57.2494276643
 20
107.0921312781
  0
LINE
  5
331
330
1F
100
AcDbEntity
  8
0
  6
SLD-Durchgehend
 62
     7
370
    15
100
AcDbLine
 10
46.845599665
 20
89.2312942562
 30
0.0
 11
48.5413851039
 21
88.7369135737
 31
0.0
  0
LWPOLYLINE
  5
332
330
1F
100
AcDbEntity
  8
0
  6
SLD-Durchgehend
 62
     7
370
    15
100
AcDbPolyline
 90
       19
 70
   128
 43
0.0
 10
41.7582559829
 20
90.7144326206
 10
41.6490639339
 20
92.0096288006
 10
41.6484901915
 20
93.397821875
 10
41.7565450848
 20
94.8552599125
 10
41.9713791381
 20
96.3570051054
 10
42.2893163597
 20
97.8773621374
 10
42.7049176186
 20
99.3903173765
 10
43.2110705877
 20
100.8699841468
 10
43.7991160901
 20
102.2910444228
 10
44.4589918712
 20
103.6291841174
 10
45.1794073482
 20
104.8615071777
 10
45.9480361582
 20
105.9669272918
 10
46.7517266829
 20
106.9265311016
 10
47.5767275969
 20
107.7238996493
 10
48.4089229676
 20
108.3453897206
 10
49.2340737344
 20
108.7803666182
 10
50.038061236
 20
109.021388735
 10
50.807129054
 20
109.0643323416
 10
51.3558021666
 20
108.9651849236
  0
LWPOLYLINE
  5
333
330
1F
100
AcDbEntity
  8
0
  6
SLD-Durchgehend
 62
     7
370
    15
100
AcDbPolyline
 90
       20
 70
   128
 43
0.0
 10
40.062470544
 20
91.2088133031
 10
39.953278495
 20
92.5040094832
 10
39.9527047526
 20
93.8922025576
 10
40.0607596459
 20
95.3496405951
 10
40.2755936992
 20
96.851385788
 10
40.5935309208
 20
98.37174282
 10
41.0091321797
 20
99.8846980591
 10
41.5152851488
 20
101.3643648294
 10
42.1033306512
 20
102.7854251053
 10
42.7632064323
 20
104.1235648
 10
43.4836219094
 20
105.3558878603
 10
44.2522507193
 20
106.4613079744
 10
45.055941244
 20
107.4209117841
 10
45.880942158
 20
108.2182803319
 10
46.7131375287
 20
108.8397704032
 10
47.5382882955
 20
109.2747473007
 10
48.3422757971
 20
109.5157694176
 10
49.1113436151
 20
109.5587130242
 10
49.832332459
 20
109.4028416599
 10
50.4662985433
 20
109.069650325
  0
LINE
  5
334
330
1F
100
AcDbEntity
  8
0
  6
SLD-Durchgehend
 62
     7
370
    15
100
AcDbLine
 10
40.062470544
 20
91.2088133031
 30
0.0
 11
41.7582559829
 21
90.7144326206
 31
0.0
  0
LWPOLYLINE
  5
335
330
1F
100
AcDbEntity
  8
0
  6
SLD-Durchgehend
 62
     7
370
    15
100
AcDbPolyline
 90
       15
 70
   128
 43
0.0
 10
67.3543141445
 20
102.1913218622
 10
66.6965691587
 20
101.7716338084
 10
65.9020602509
 20
101.0989669477
 10
65.1214990274
 20
100.2569262393
 10
64.3694258881
 20
99.2611973309
 10
63.6598503695
 20
98.1303294324
 10
63.0059907193
 20
96.8853871654
 10
62.4200271308
 20
95.5495633791
 10
61.9128746398
 20
94.1477409241
 10
61.4939811339
 20
92.7060323678
 10
61.1711493209
 20
91.2512951452
 10
60.9503930866
 20
89.8106279389
 10
60.8358245212
 20
88.4108671664
 10
60.8295781601
 20
87.0780884318
 10
60.9317700833
 20
85.8371182755
  0
LINE
  5
336
330
1F
100
AcDbEntity
  8
0
  6
SLD-Durchgehend
 62
     7
370
    15
100
AcDbLine
 10
60.9317700833
 20
85.8371182755
 30
0.0
 11
60.4118579071
 21
85.2762561625
 31
0.0
  0
LINE
  5
337
330
1F
100
AcDbEntity
  8
0
  6
SLD-Durchgehend
 62
     7
370
    15
100
AcDbLine
 10
62.031444324
 20
85.5165248271
 30
0.0
 11
60.9317700833
 21
85.8371182755
 31
0.0
  0
LWPOLYLINE
  5
338
330
1F
100
AcDbEntity
  8
0
  6
SLD-Durchgehend
 62
     7
370
    15
100
AcDbPolyline
 90
       18
 70
   128
 43
0.0
 10
62.4018743177
 20
104.6381878284
 10
62.2330055084
 20
104.6427203341
 10
61.4851160579
 20
104.5396325729
 10
60.7070964019
 20
104.2399161646
 10
59.9134400377
 20
103.7491528553
 10
59.1189311298
 20
103.0764859946
 10
58.3383699064
 20
102.2344452862
 10
57.586296767
 20
101.2387163778
 10
56.8767212484
 20
100.1078484793
 10
56.2228615982
 20
98.8629062123
 10
55.6368980098
 20
97.527082426
 10
55.1297455187
 20
96.125259971
 10
54.7108520128
 20
94.6835514147
 10
54.3880201998
 20
93.228814192
 10
54.1672639656
 20
91.7881469858
 10
54.0526954002
 20
90.3883862133
 10
54.0464490391
 20
89.0556074787
 10
54.1486409622
 20
87.8146373224
  0
LINE
  5
339
330
1F
100
AcDbEntity
  8
0
  6
SLD-Durchgehend
 62
     7
370
    15
100
AcDbLine
 10
54.1486409622
 20
87.8146373224
 30
0.0
 11
53.628728786
 21
87.2537752094
 31
0.0
  0
LINE
  5
33A
330
1F
100
AcDbEntity
  8
0
  6
SLD-Durchgehend
 62
     7
370
    15
100
AcDbLine
 10
54.1486409622
 20
87.8146373224
 30
0.0
 11
55.248315203
 21
87.4940438739
 31
0.0
  0
LWPOLYLINE
  5
33B
330
1F
100
AcDbEntity
  8
0
  6
SLD-Durchgehend
 62
     7
370
    15
100
AcDbPolyline
 90
       18
 70
   128
 43
0.0
 10
55.6187451967
 20
106.6157068753
 10
55.4498763874
 20
106.6202393809
 10
54.7019869369
 20
106.5171516198
 10
53.9239672809
 20
106.2174352115
 10
53.1303109167
 20
105.7266719022
 10
52.3358020088
 20
105.0540050415
 10
51.5552407854
 20
104.2119643331
 10
50.803167646
 20
103.2162354247
 10
50.0935921274
 20
102.0853675262
 10
49.4397324772
 20
100.8404252592
 10
48.8537688888
 20
99.5046014729
 10
48.3466163977
 20
98.1027790179
 10
47.9277228918
 20
96.6610704616
 10
47.6048910788
 20
95.2063332389
 10
47.3841348446
 20
93.7656660327
 10
47.2695662791
 20
92.3659052602
 10
47.2633199181
 20
91.0331265256
 10
47.3655118412
 20
89.7921563693
  0
LINE
  5
33C
330
1F
100
AcDbEntity
  8
0
  6
SLD-Durchgehend
 62
     7
370
    15
100
AcDbLine
 10
47.3655118412
 20
89.7921563693
 30
0.0
 11
46.845599665
 21
89.2312942562
 31
0.0
  0
LINE
  5
33D
330
1F
100
AcDbEntity
  8
0
  6
SLD-Durchgehend
 62
     7
370
    15
100
AcDbLine
 10
47.3655118412
 20
89.7921563693
 30
0.0
 11
48.4651860819
 21
89.4715629208
 31
0.0
  0
LWPOLYLINE
  5
33E
330
1F
100
AcDbEntity
  8
0
  6
SLD-Durchgehend
 62
     7
370
    15
100
AcDbPolyline
 90
       18
 70
   128
 43
0.0
 10
48.8356160756
 20
108.5932259222
 10
48.6667472663
 20
108.5977584278
 10
47.9188578158
 20
108.4946706667
 10
47.1408381598
 20
108.1949542584
 10
46.3471817956
 20
107.7041909491
 10
45.5526728877
 20
107.0315240884
 10
44.7721116643
 20
106.18948338
 10
44.020038525
 20
105.1937544715
 10
43.3104630064
 20
104.0628865731
 10
42.6566033562
 20
102.817944306
 10
42.0706397677
 20
101.4821205198
 10
41.5634872766
 20
100.0802980648
 10
41.1445937708
 20
98.6385895085
 10
40.8217619578
 20
97.1838522858
 10
40.6010057235
 20
95.7431850796
 10
40.4864371581
 20
94.3434243071
 10
40.480190797
 20
93.0106455725
 10
40.5823827202
 20
91.7696754162
  0
LINE
  5
33F
330
1F
100
AcDbEntity
  8
0
  6
SLD-Durchgehend
 62
     7
370
    15
100
AcDbLine
 10
40.5823827202
 20
91.7696754162
 30
0.0
 11
40.062470544
 21
91.2088133031
 31
0.0
  0
LINE
  5
340
330
1F
100
AcDbEntity
  8
0
  6
SLD-Durchgehend
 62
     7
370
    15
100
AcDbLine
 10
40.5823827202
 20
91.7696754162
 30
0.0
 11
41.6820569609
 21
91.4490819677
 31
0.0
  0
LWPOLYLINE
  5
341
330
1F
100
AcDbEntity
  8
0
  6
SLD-Durchgehend
 62
     7
370
    15
100
AcDbPolyline
 90
       33
 70
   128
 43
0.0
 10
200.7166722388
 20
53.5155818284
 10
200.5624568535
 20
54.2467845173
 10
200.3122703492
 20
54.839964077
 10
199.9757270349
 20
55.2723249214
 10
199.565760223
 20
55.5272516141
 10
199.0981246835
 20
55.5949475914
 10
198.5907913161
 20
55.4728112425
 10
198.0632567629
 20
55.1655362893
 10
197.5357938253
 20
54.6849310494
 10
197.0286726075
 20
54.0494649947
 10
196.5613815121
 20
53.2835586666
 10
196.1518782121
 20
52.4166453757
 10
195.8158997896
 20
51.4820402443
 10
195.5663576317
 20
50.5156595573
 10
195.4128415141
 20
49.5546406412
 10
195.3612510696
 20
48.6359152203
 10
195.4135687196
 20
47.7947890063
 10
195.5677840566
 20
47.0635866853
 10
195.8179705609
 20
46.4704071256
 10
196.1545138631
 20
46.0380463732
 10
196.5644807022
 20
45.7831194734
 10
197.0321162206
 20
45.7154236571
 10
197.5394496424
 20
45.8375595921
 10
198.0669841351
 20
46.1448350052
 10
198.5944471332
 20
46.6254397852
 10
199.1015682906
 20
47.2609062998
 10
199.5688594463
 20
48.026812168
 10
199.9783626919
 20
48.8937258729
 10
200.3143411357
 20
49.8283308433
 10
200.5638832664
 20
50.7947117372
 10
200.717399396
 20
51.7557305613
 10
200.7689898405
 20
52.6744559823
 10
200.7166722388
 20
53.5155818284
  0
LWPOLYLINE
  5
342
330
1F
100
AcDbEntity
  8
0
  6
SLD-Durchgehend
 62
     7
370
    15
100
AcDbPolyline
 90
       23
 70
   128
 43
0.0
 10
200.8698489583
 20
40.6002208796
 10
200.7440964908
 20
41.0999484331
 10
200.523231281
 20
41.4455971918
 10
200.2251465204
 20
41.6091638551
 10
199.8739911273
 20
41.5773985754
 10
199.49821398
 20
41.3528726182
 10
199.1282579399
 20
40.9537776634
 10
198.7940947447
 20
40.4124461185
 10
198.5227964746
 20
39.7727313044
 10
198.3363418713
 20
39.0864614155
 10
198.2498365861
 20
38.4092326838
 10
198.2702885615
 20
37.7959108365
 10
198.396041029
 20
37.296183283
 10
198.6169062388
 20
36.9505345243
 10
198.9149909994
 20
36.786967861
 10
199.2661461992
 20
36.8187346125
 10
199.6419235398
 20
37.0432590979
 10
200.0118795799
 20
37.4423540527
 10
200.3460425818
 20
37.9836870694
 10
200.6173410452
 20
38.6234004117
 10
200.8037956485
 20
39.3096703006
 10
200.8903009337
 20
39.9868990323
 10
200.8698489583
 20
40.6002208796
  0
LWPOLYLINE
  5
343
330
1F
100
AcDbEntity
  8
0
  6
SLD-Durchgehend
 62
     7
370
    15
100
AcDbPolyline
 90
       23
 70
   128
 43
0.0
 10
197.8599523969
 20
63.5144599981
 10
197.7341999295
 20
64.0141875516
 10
197.5133347197
 20
64.3598363103
 10
197.2152499591
 20
64.5234029737
 10
196.8640946626
 20
64.491636958
 10
196.4883174187
 20
64.2671117367
 10
196.1183613785
 20
63.8680167819
 10
195.78419828
 20
63.3266845011
 10
195.5128999133
 20
62.686970423
 10
195.32644531
 20
62.000700534
 10
195.2399400248
 20
61.3234718023
 10
195.2603920002
 20
60.7101499551
 10
195.3861444676
 20
60.2104224015
 10
195.6070095808
 20
59.8647743787
 10
195.9050944381
 20
59.7012069795
 10
196.2562497345
 20
59.7329729951
 10
196.6320269784
 20
59.9574982165
 10
197.0019830186
 20
60.3565931712
 10
197.3361461171
 20
60.897925452
 10
197.6074444838
 20
61.5376395302
 10
197.7938989905
 20
62.223910155
 10
197.8804043724
 20
62.9011381508
 10
197.8599523969
 20
63.5144599981
  0
LWPOLYLINE
  5
344
330
1F
100
AcDbEntity
  8
0
  6
SLD-Durchgehend
 62
     7
370
    15
100
AcDbPolyline
 90
       39
 70
   128
 43
0.0
 10
101.2848256666
 20
109.5120656753
 10
100.821206105
 20
109.6342636661
 10
99.7646408711
 20
109.7692602681
 10
98.6649809514
 20
109.7192833363
 10
97.5301486252
 20
109.4846960156
 10
96.3683196363
 20
109.0671850738
 10
95.1878661173
 20
108.4697598222
 10
93.9972926843
 20
107.696725184
 10
92.8051774426
 20
106.7536499797
 10
91.6201096762
 20
105.6473299542
 10
90.4506278241
 20
104.3857359911
 10
89.3051580367
 20
102.9779579114
 10
88.1919534083
 20
101.4341389192
 10
87.1190348529
 20
99.7654017397
 10
86.0941325609
 20
97.9837703412
 10
85.1246306477
 20
96.1020799789
 10
84.2175155063
 20
94.1338895539
 10
83.3793215674
 20
92.0933810928
 10
82.6160881435
 20
89.9952527017
 10
81.9333152601
 20
87.8546255503
 10
81.3359226746
 20
85.6869223685
 10
80.8282133529
 20
83.5077583135
 10
80.4138451758
 20
81.3328365137
 10
80.0958047721
 20
79.1778274239
 10
79.8763833868
 20
77.0582579371
 10
79.7571617055
 20
74.9893996555
 10
79.7389979697
 20
72.9861573524
 10
79.8220248332
 20
71.0629666513
 10
80.0056429718
 20
69.233682744
 10
80.2885291237
 20
67.5114855145
 10
80.668645339
 20
65.9087838676
 10
81.1432540406
 20
64.4371263266
 10
81.708933811
 20
63.1071145139
 10
82.3616098025
 20
61.9283315675
 10
83.0965796453
 20
60.909271161
 10
83.908548047
 20
60.05727611
 10
84.7916639108
 20
59.3784830564
 10
85.7395639929
 20
58.8777847084
 10
86.4513782821
 20
58.6315485628
  0
LWPOLYLINE
  5
345
330
1F
100
AcDbEntity
  8
0
  6
SLD-Durchgehend
 62
     7
370
    15
100
AcDbPolyline
 90
       11
 70
   128
 43
0.0
 10
62.1999274498
 20
74.4246707025
 10
62.4828136016
 20
72.702473473
 10
62.8629298169
 20
71.0997718261
 10
63.3375385185
 20
69.6281142851
 10
63.9032182889
 20
68.2981024724
 10
64.5558942805
 20
67.119319526
 10
65.2908641233
 20
66.1002591195
 10
66.102832525
 20
65.2482640685
 10
66.9859483888
 20
64.5694710149
 10
67.9338484708
 20
64.0687726669
 10
68.5606863302
 20
63.8466136724
  0
LWPOLYLINE
  5
346
330
1F
100
AcDbEntity
  8
0
  6
SLD-Durchgehend
 62
     7
370
    15
100
AcDbPolyline
 90
       29
 70
   128
 43
0.0
 10
83.3945090653
 20
114.7284145023
 10
83.015490583
 20
114.8252516246
 10
81.958925349
 20
114.9602482267
 10
80.8592654293
 20
114.9102712948
 10
79.7244331032
 20
114.6756839741
 10
78.5626041142
 20
114.2581730323
 10
77.3821505953
 20
113.6607477808
 10
76.1915771623
 20
112.8877131425
 10
74.9994619206
 20
111.9446379382
 10
73.8143941542
 20
110.8383179127
 10
72.644912302
 20
109.5767239496
 10
71.4994425147
 20
108.1689458699
 10
70.3862378862
 20
106.6251268778
 10
69.3133193309
 20
104.9563896982
 10
68.2884170389
 20
103.1747582997
 10
67.3189151256
 20
101.2930679375
 10
66.4117999842
 20
99.3248775125
 10
65.5736060453
 20
97.2843690513
 10
64.8103726215
 20
95.1862406602
 10
64.127599738
 20
93.0456135088
 10
63.5302071525
 20
90.877910327
 10
63.0224978309
 20
88.698746272
 10
62.6081296538
 20
86.5238244723
 10
62.2900892501
 20
84.3688153824
 10
62.0706678648
 20
82.2492458956
 10
61.9514461834
 20
80.1803876141
 10
61.9332824477
 20
78.177145311
 10
62.0163093112
 20
76.2539546099
 10
62.1999274498
 20
74.4246707025
  0
LWPOLYLINE
  5
347
330
1F
100
AcDbEntity
  8
0
  6
SLD-Durchgehend
 62
     7
370
    15
100
AcDbPolyline
 90
       22
 70
   128
 43
0.0
 10
61.8719595411
 20
75.2327194735
 10
61.6917396739
 20
77.0432197158
 10
61.6137916213
 20
78.948788535
 10
61.6387070892
 20
80.9349216926
 10
61.7662977775
 20
82.9865045505
 10
61.9955928381
 20
85.087924011
 10
62.3248456769
 20
87.2231850749
 10
62.751551409
 20
89.3760388911
 10
63.2724625195
 20
91.5300992099
 10
63.8836146456
 20
93.668974375
 10
64.5803564221
 20
95.7763852154
 10
65.3573847506
 20
97.8362921493
 10
66.2087870391
 20
99.8330197252
 10
67.1280826647
 20
101.7513702433
 10
68.1082754757
 20
103.5767459243
 10
69.1419057566
 20
105.2952520172
 10
70.2211071824
 20
106.893810328
 10
71.3376658984
 20
108.3602565597
 10
72.483084488
 20
109.6834278019
 10
73.6486454088
 20
110.8532561678
 10
74.8254783935
 20
111.8608364626
 10
75.079693186
 20
112.0559531813
  0
ARC
  5
348
330
1F
100
AcDbEntity
  8
0
  6
SLD-Durchgehend
 62
     7
370
    15
100
AcDbCircle
 10
82.903477084
 20
77.7857755487
 30
0.0
 40
21.18591101373089
100
AcDbArc
 50
186.9213788572
 51
199.9166831521
  0
LWPOLYLINE
  5
349
330
1F
100
AcDbEntity
  8
0
  6
SLD-Durchgehend
 62
     7
370
    15
100
AcDbPolyline
 90
       25
 70
   128
 43
0.0
 10
208.580972634
 20
77.0169773508
 10
207.732964751
 20
77.8715829138
 10
206.8102601797
 20
78.5410182747
 10
205.8199317942
 20
79.0201480613
 10
204.7695720214
 20
79.3053022236
 10
203.6672328171
 20
79.394295298
 10
202.5213654485
 20
79.2864429421
 10
201.3407532077
 20
78.9825733635
 10
200.1344467335
 20
78.4850146787
 10
198.911694445
 20
77.7975837189
 10
197.681869629
 20
76.9255477019
 10
196.4544002875
 20
75.8755922424
 10
195.2386960282
 20
74.6557676893
 10
194.0440767436
 20
73.2754239487
 10
192.8797003212
 20
71.7451442632
 10
191.7544930612
 20
70.0766583864
 10
190.6770810615
 20
68.2827568017
 10
189.6557229079
 20
66.3771929061
 10
188.6982495747
 20
64.3745744894
 10
187.8120007916
 20
62.2902547612
 10
187.0037701695
 20
60.1402093031
 10
186.2797536686
 20
57.9409233473
 10
185.6455016442
 20
55.7092560298
 10
185.1058773812
 20
53.4623141638
 10
184.665016403
 20
51.217324328
  0
LINE
  5
34A
330
1F
100
AcDbEntity
  8
0
  6
SLD-Durchgehend
 62
     7
370
    15
100
AcDbLine
 10
168.5550878992
 20
55.9139311435
 30
0.0
 11
184.665016403
 21
51.217324328
 31
0.0
  0
LWPOLYLINE
  5
34B
330
1F
100
AcDbEntity
  8
0
  6
SLD-Durchgehend
 62
     7
370
    15
100
AcDbPolyline
 90
       13
 70
   128
 43
0.0
 10
171.2873362749
 20
35.1134181232
 10
170.5284088418
 20
36.1344700079
 10
169.8546161464
 20
37.3226224364
 10
169.2710109046
 20
38.6689619477
 10
168.7819699775
 20
40.1633906286
 10
168.3911624605
 20
41.7947007005
 10
168.1015199546
 20
43.5506577599
 10
167.9152127912
 20
45.4180891822
 10
167.8336404461
 20
47.3829907718
 10
167.8574142055
 20
49.4306250552
 10
167.9863546969
 20
51.5456326683
 10
168.2194950852
 20
53.7121511153
 10
168.5550878992
 20
55.9139311435
  0
LINE
  5
34C
330
1F
100
AcDbEntity
  8
0
  6
SLD-Durchgehend
 62
     7
370
    15
100
AcDbLine
 10
187.3972647788
 20
30.4168113077
 30
0.0
 11
171.2873362749
 21
35.1134181232
 31
0.0
  0
LWPOLYLINE
  5
34D
330
1F
100
AcDbEntity
  8
0
  6
SLD-Durchgehend
 62
     7
370
    15
100
AcDbPolyline
 90
       25
 70
   128
 43
0.0
 10
187.3972647788
 20
30.4168113077
 10
188.2452726618
 20
29.5622057447
 10
189.1679772331
 20
28.8927703838
 10
190.1583056186
 20
28.4136405972
 10
191.2086653914
 20
28.1284864349
 10
192.3110045957
 20
28.0394933604
 10
193.4568719643
 20
28.1473457163
 10
194.6374842051
 20
28.451215295
 10
195.8437906793
 20
28.9487739798
 10
197.0665429678
 20
29.6362049396
 10
198.2963677838
 20
30.5082409566
 10
199.5238371253
 20
31.558196416
 10
200.7395413846
 20
32.7780209692
 10
201.9341606692
 20
34.1583647098
 10
203.0985370916
 20
35.6886443953
 10
204.2237443516
 20
37.3571302721
 10
205.3011563513
 20
39.1510318568
 10
206.3225145049
 20
41.0565957524
 10
207.2799878381
 20
43.0592141691
 10
208.1662366212
 20
45.1435338973
 10
208.9744672433
 20
47.2935793554
 10
209.6984837442
 20
49.4928653112
 10
210.3327357686
 20
51.7245326287
 10
210.8723600316
 20
53.9714744947
 10
211.3132210098
 20
56.2164643305
  0
LWPOLYLINE
  5
34E
330
1F
100
AcDbEntity
  8
0
  6
SLD-Durchgehend
 62
     7
370
    15
100
AcDbPolyline
 90
       39
 70
   128
 43
0.0
 10
177.4256271876
 20
87.3150594313
 10
177.0466087053
 20
87.4118965536
 10
175.9900434714
 20
87.5468931557
 10
174.8903835517
 20
87.4969162238
 10
173.7555512256
 20
87.2623289031
 10
172.5937222366
 20
86.8448179613
 10
171.4132687176
 20
86.2473927098
 10
170.2226952846
 20
85.4743580715
 10
169.0305800429
 20
84.5312828672
 10
167.8455122765
 20
83.4249628417
 10
166.6760304244
 20
82.1633688787
 10
165.530560637
 20
80.755590799
 10
164.4173560086
 20
79.2117718068
 10
163.3444374532
 20
77.5430346272
 10
162.3195351612
 20
75.7614032287
 10
161.350033248
 20
73.8797128665
 10
160.4429181066
 20
71.9115224415
 10
159.6047241677
 20
69.8710139803
 10
158.8414907438
 20
67.7728855893
 10
158.1587178604
 20
65.6322584378
 10
157.5613252749
 20
63.464555256
 10
157.0536159532
 20
61.285391201
 10
156.6392477762
 20
59.1104694013
 10
156.3212073724
 20
56.9554603114
 10
156.1017859871
 20
54.8358908246
 10
155.9825643058
 20
52.7670325431
 10
155.96440057
 20
50.76379024
 10
156.0474274335
 20
48.8405995389
 10
156.2310455721
 20
47.0113156316
 10
156.513931724
 20
45.289118402
 10
156.8940479393
 20
43.6864167551
 10
157.3686566409
 20
42.2147592141
 10
157.9343364113
 20
40.8847474014
 10
158.5870124028
 20
39.705964455
 10
159.3219822456
 20
38.6869040485
 10
160.1339506473
 20
37.8349089975
 10
161.0170665111
 20
37.1561159439
 10
161.9649665932
 20
36.655417596
 10
162.5918044525
 20
36.4332586014
  0
SPLINE
  5
34F
330
1F
100
AcDbEntity
  8
0
  6
SLD-Durchgehend
 62
     7
370
    15
100
AcDbSpline
210
0.0
220
0.0
230
1.0
 70
    11
 71
     3
 72
    22
 73
    18
 74
     0
 42
0.000000001
 43
0.00000001
 40
0.0
 40
0.0
 40
0.0
 40
0.0
 40
0.1250000000000001
 40
0.1250000000000001
 40
0.2500000000000001
 40
0.2500000000000001
 40
0.3750000000000001
 40
0.3750000000000001
 40
0.5000000000000001
 40
0.5000000000000001
 40
0.625
 40
0.625
 40
0.75
 40
0.75
 40
0.875
 40
0.875
 40
1.0
 40
1.0
 40
1.0
 40
1.0
 10
184.8045375533535
 20
77.337887573768
 30
0.0
 10
184.9165718293338
 20
77.30522566940171
 30
0.0
 10
185.054192707167
 20
77.30458571795633
 30
0.0
 10
185.3063080791418
 20
77.3644207750071
 30
0.0
 10
185.41993811174
 20
77.42516239076107
 30
0.0
 10
185.5556843839175
 20
77.57144172697498
 30
0.0
 10
185.5783177069127
 20
77.65648504562101
 30
0.0
 10
185.5174804643095
 20
77.80539153148322
 30
0.0
 10
185.4352431050565
 20
77.8664171563206
 30
0.0
 10
185.2139562884221
 20
77.93099449872682
 30
0.0
 10
185.0750314298271
 20
77.93385250663518
 30
0.0
 10
184.8224895153088
 20
77.8780989207114
 30
0.0
 10
184.7090051758193
 20
77.81985940989841
 30
0.0
 10
184.5716418572195
 20
77.67199368042945
 30
0.0
 10
184.5502576044498
 20
77.58511165460914
 30
0.0
 10
184.6108714626903
 20
77.43391563858863
 30
0.0
 10
184.6925032773732
 20
77.37054947813431
 30
0.0
 10
184.8045375533535
 20
77.337887573768
 30
0.0
  0
LINE
  5
350
330
1F
100
AcDbEntity
  8
0
  6
SLD-Durchgehend
 62
     7
370
    15
100
AcDbLine
 10
211.3132210098
 20
56.2164643305
 30
0.0
 11
208.580972634
 21
77.0169773508
 31
0.0
  0
LINE
  5
351
330
1F
100
AcDbEntity
  8
0
  6
SLD-Durchgehend
 62
     7
370
    15
100
AcDbLine
 10
184.665016403
 20
51.217324328
 30
0.0
 11
187.3972647788
 21
30.4168113077
 31
0.0
  0
LWPOLYLINE
  5
352
330
1F
100
AcDbEntity
  8
0
  6
SLD-Durchgehend
 62
     7
370
    15
100
AcDbPolyline
 90
       64
 70
   128
 43
0.0
 10
196.3886840503
 20
65.9009483846
 10
195.3933940403
 20
64.7402100555
 10
194.428027541
 20
63.4385060849
 10
193.5021787127
 20
62.0087731398
 10
192.6250492421
 20
60.4652207756
 10
191.8053561039
 20
58.8231882449
 10
191.0512464617
 20
57.0989964054
 10
190.3702140777
 20
55.3097802509
 10
189.7690280664
 20
53.4733221574
 10
189.2536629535
 20
51.6078730937
 10
188.8292408852
 20
49.7319739174
 10
188.4999795962
 20
47.8642664996
 10
188.2691513681
 20
46.0233137666
 10
188.1390517052
 20
44.2274131042
 10
188.1109717138
 20
42.494411028
 10
188.1851908277
 20
40.8415312956
 10
188.3609719066
 20
39.2852017977
 10
188.6365684984
 20
37.8408898452
 10
189.0092405513
 20
36.5229488827
 10
189.4752849309
 20
35.3444787567
 10
190.0300697614
 20
34.3171905301
 10
190.6680802939
 20
33.4512929724
 10
191.3829773149
 20
32.7553929995
 10
192.1676557032
 20
32.2364076134
 10
193.0143157699
 20
31.8994921546
 10
193.9145436089
 20
31.7479967564
 10
194.8593929969
 20
31.7834278328
 10
195.8394726246
 20
32.0054321189
 10
196.8450422866
 20
32.4118029801
 10
197.8661085438
 20
32.9985012728
 10
198.8925232208
 20
33.7596977487
 10
199.9140854466
 20
34.687827682
 10
200.9206426165
 20
35.7736644965
 10
201.9021912187
 20
37.0064167722
 10
202.8489757339
 20
38.3738349338
 10
203.751586756
 20
39.8623288623
 10
204.6010538337
 20
41.4571033355
 10
205.3889347521
 20
43.1423097921
 10
206.107399338
 20
44.9012005895
 10
206.749306176
 20
46.7162940974
 10
207.3082763733
 20
48.5695517313
 10
207.7787554653
 20
50.4425547936
 10
208.1560661242
 20
52.3166881978
 10
208.4364585441
 20
54.1733250458
 10
208.6171475629
 20
55.9940153817
 10
208.6963364211
 20
57.7606630498
 10
208.6732377624
 20
59.455710919
 10
208.5480819967
 20
61.0623128957
 10
208.3221120113
 20
62.5645004491
 10
207.9975739586
 20
63.9473453268
 10
207.5776937973
 20
65.1971044837
 10
207.0666448506
 20
66.3013576324
 10
206.4695042878
 20
67.2491281187
 10
205.7922081043
 20
68.0309983955
 10
205.0414877118
 20
68.6391971526
 10
204.2248034526
 20
69.0676803982
 10
203.3502723374
 20
69.3121891899
 10
202.4265854678
 20
69.3702932976
 10
201.4629234705
 20
69.2414163389
 10
200.468862777
 20
68.9268380164
 10
199.4542836923
 20
68.4296848418
 10
198.4292690188
 20
67.7548980698
 10
197.4040060041
 20
66.9091842135
 10
196.3886840503
 20
65.9009483846
  0
LINE
  5
353
330
1F
100
AcDbEntity
  8
0
  6
SLD-Durchgehend
 62
     7
370
    15
100
AcDbLine
 10
168.5550878992
 20
55.9139311435
 30
0.0
 11
171.2873362749
 21
35.1134181232
 31
0.0
  0
LWPOLYLINE
  5
354
330
1F
100
AcDbEntity
  8
0
  6
SLD-Durchgehend
 62
     7
370
    15
100
AcDbPolyline
 90
       28
 70
   128
 43
0.0
 10
158.6046966108
 20
89.9975312931
 10
158.0137265512
 20
89.6598779465
 10
156.8194684065
 20
88.8484371088
 10
155.6255574257
 20
87.8656563598
 10
154.4408332837
 20
86.7188099159
 10
153.2740673195
 20
85.4163887544
 10
152.1338976779
 20
83.968035688
 10
151.0287661437
 20
82.3844738631
 10
149.9668539948
 20
80.6774274791
 10
148.9560238802
 20
78.8595355633
 10
148.0037595778
 20
76.9442550589
 10
147.1171110792
 20
74.9457696575
 10
146.3026431529
 20
72.8788721404
 10
145.566385172
 20
70.7588665659
 10
144.9137894557
 20
68.6014477161
 10
144.3496856445
 20
66.4225897062
 10
143.8782515308
 20
64.2384229413
 10
143.5029774051
 20
62.0651183602
 10
143.2266419225
 20
59.9187681432
 10
143.0512898563
 20
57.8152604749
 10
142.9782199235
 20
55.7701702131
 10
143.0079730198
 20
53.798638027
 10
143.140329897
 20
51.9152618221
 10
143.3743093961
 20
50.1339839333
 10
143.7081791974
 20
48.4679924515
 10
144.1394687247
 20
46.9296229831
 10
144.664983769
 20
45.5302641553
 10
145.2779923489
 20
44.285325991
  0
ARC
  5
355
330
1F
100
AcDbEntity
  8
0
  6
SLD-Durchgehend
 62
     7
370
    15
100
AcDbCircle
 10
185.1359642802
 20
77.0774895443
 30
0.0
 40
0.6284172549033014
100
AcDbArc
 50
50.4939950996
 51
144.9284669988
  0
LWPOLYLINE
  5
356
330
1F
100
AcDbEntity
  8
0
  6
SLD-Durchgehend
 62
     7
370
    15
100
AcDbPolyline
 90
       41
 70
   128
 43
0.0
 10
165.2909552181
 20
90.7485770474
 10
164.9101531647
 20
90.9243433599
 10
163.904296823
 20
91.2433394768
 10
162.8477315891
 20
91.3783360788
 10
161.7480716693
 20
91.328359147
 10
160.6132393432
 20
91.0937718263
 10
159.4514103542
 20
90.6762608845
 10
158.2709568353
 20
90.0788356329
 10
157.0803834023
 20
89.3058009947
 10
155.8882681606
 20
88.3627257903
 10
154.7032003942
 20
87.2564057648
 10
153.533718542
 20
85.9948118018
 10
152.3882487547
 20
84.5870337221
 10
151.2750441262
 20
83.0432147299
 10
150.2021255709
 20
81.3744775504
 10
149.1772232789
 20
79.5928461518
 10
148.2077213656
 20
77.7111557896
 10
147.3006062242
 20
75.7429653646
 10
146.4624122853
 20
73.7024569034
 10
145.6991788615
 20
71.6043285124
 10
145.016405978
 20
69.4637013609
 10
144.4190133925
 20
67.2959981792
 10
143.9113040709
 20
65.1168341242
 10
143.4969358938
 20
62.9419123244
 10
143.1788954901
 20
60.7869032346
 10
142.9594741048
 20
58.6673337477
 10
142.8402524234
 20
56.5984754662
 10
142.8220886877
 20
54.5952331631
 10
142.9051155512
 20
52.672042462
 10
143.0887336898
 20
50.8427585547
 10
143.3716198416
 20
49.1205613251
 10
143.7517360569
 20
47.5178596783
 10
144.2263447585
 20
46.0462021372
 10
144.7920245289
 20
44.7161903246
 10
145.4447005205
 20
43.5374073782
 10
146.1796703633
 20
42.5183469716
 10
146.991638765
 20
41.6663519206
 10
147.8747546288
 20
40.9875588671
 10
148.8226547108
 20
40.4868605191
 10
149.8285110525
 20
40.1678644023
 10
150.5131094509
 20
40.0587826095
  0
LWPOLYLINE
  5
357
330
1F
100
AcDbEntity
  8
0
  6
SLD-Durchgehend
 62
     7
370
    15
100
AcDbPolyline
 90
       39
 70
   128
 43
0.0
 10
101.3698056581
 20
109.4879877389
 10
100.9907871758
 20
109.5848248612
 10
99.9342219419
 20
109.7198214632
 10
98.8345620222
 20
109.6698445314
 10
97.699729696
 20
109.4352572107
 10
96.5379007071
 20
109.0177462689
 10
95.3574471881
 20
108.4203210173
 10
94.1668737551
 20
107.6472863791
 10
92.9747585134
 20
106.7042111747
 10
91.789690747
 20
105.5978911492
 10
90.6202088949
 20
104.3362971862
 10
89.4747391075
 20
102.9285191065
 10
88.3615344791
 20
101.3847001143
 10
87.2886159237
 20
99.7159629348
 10
86.2637136317
 20
97.9343315362
 10
85.2942117185
 20
96.052641174
 10
84.3870965771
 20
94.084450749
 10
83.5489026382
 20
92.0439422878
 10
82.7856692143
 20
89.9458138968
 10
82.1028963309
 20
87.8051867453
 10
81.5055037454
 20
85.6374835636
 10
80.9977944237
 20
83.4583195086
 10
80.5834262466
 20
81.2833977088
 10
80.2653858429
 20
79.128388619
 10
80.0459644576
 20
77.0088191321
 10
79.9267427763
 20
74.9399608506
 10
79.9085790405
 20
72.9367185475
 10
79.991605904
 20
71.0135278464
 10
80.1752240426
 20
69.1842439391
 10
80.4581101945
 20
67.4620467095
 10
80.8382264098
 20
65.8593450627
 10
81.3128351114
 20
64.3876875216
 10
81.8785148818
 20
63.057675709
 10
82.5311908733
 20
61.8788927626
 10
83.2661607161
 20
60.859832356
 10
84.0781291178
 20
60.007837305
 10
84.9612449816
 20
59.3290442515
 10
85.9091450637
 20
58.8283459035
 10
86.535982923
 20
58.606186909
  0
SPLINE
  5
358
330
1F
100
AcDbEntity
  8
0
  6
SLD-Durchgehend
 62
     7
370
    15
100
AcDbSpline
210
0.0
220
0.0
230
1.0
 70
    11
 71
     3
 72
    97
 73
    93
 74
     0
 42
0.000000001
 43
0.00000001
 40
0.0
 40
0.0
 40
0.0
 40
0.0
 40
0.0312499999999996
 40
0.0312499999999996
 40
0.0468749999999994
 40
0.0468749999999994
 40
0.0624999999999992
 40
0.0624999999999992
 40
0.0937499999999988
 40
0.0937499999999988
 40
0.1093749999999987
 40
0.1093749999999987
 40
0.1249999999999985
 40
0.1249999999999985
 40
0.1562499999999981
 40
0.1562499999999981
 40
0.1874999999999978
 40
0.1874999999999978
 40
0.2031249999999978
 40
0.2031249999999978
 40
0.2187499999999978
 40
0.2187499999999978
 40
0.2499999999999977
 40
0.2499999999999977
 40
0.2656249999999976
 40
0.2656249999999976
 40
0.2812499999999976
 40
0.2812499999999976
 40
0.3124999999999977
 40
0.3124999999999977
 40
0.3437499999999978
 40
0.3437499999999978
 40
0.3593749999999978
 40
0.3593749999999978
 40
0.3749999999999978
 40
0.3749999999999978
 40
0.4062499999999978
 40
0.4062499999999978
 40
0.4218749999999981
 40
0.4218749999999981
 40
0.4374999999999984
 40
0.4374999999999984
 40
0.4687499999999983
 40
0.4687499999999983
 40
0.4843749999999984
 40
0.4843749999999984
 40
0.4999999999999983
 40
0.5156249999999983
 40
0.5156249999999983
 40
0.5312499999999983
 40
0.5312499999999983
 40
0.562499999999999
 40
0.562499999999999
 40
0.578124999999999
 40
0.578124999999999
 40
0.593749999999999
 40
0.593749999999999
 40
0.624999999999999
 40
0.624999999999999
 40
0.6562499999999991
 40
0.6562499999999991
 40
0.6718749999999993
 40
0.6718749999999993
 40
0.6874999999999996
 40
0.6874999999999996
 40
0.7187499999999997
 40
0.7187499999999997
 40
0.7499999999999998
 40
0.7499999999999998
 40
0.78125
 40
0.78125
 40
0.796875
 40
0.796875
 40
0.8125
 40
0.8125
 40
0.828125
 40
0.828125
 40
0.84375
 40
0.84375
 40
0.8750000000000003
 40
0.8750000000000003
 40
0.8906250000000002
 40
0.8906250000000002
 40
0.9062500000000001
 40
0.9062500000000001
 40
0.9375
 40
0.9375
 40
0.9531250000000001
 40
0.9531250000000001
 40
0.9687500000000001
 40
0.9687500000000001
 40
1.0
 40
1.0
 40
1.0
 40
1.0
 10
128.7708237905864
 20
85.42034284670049
 30
0.0
 10
129.3367099350001
 20
85.25536727141932
 30
0.0
 10
129.923530573589
 20
85.15209792259053
 30
0.0
 10
130.8339869515861
 20
85.08294378904698
 30
0.0
 10
131.1425571412317
 20
85.07425634004778
 30
0.0
 10
131.7702321114598
 20
85.085307792396
 30
0.0
 10
132.0885721612391
 20
85.10521376820188
 30
0.0
 10
133.0383117828655
 20
85.20417291785908
 30
0.0
 10
133.6714314541923
 20
85.32213143824856
 30
0.0
 10
134.6236314693275
 20
85.56838894726744
 30
0.0
 10
134.9427983710039
 20
85.66263245832374
 30
0.0
 10
135.5704102228189
 20
85.8696309470408
 30
0.0
 10
135.8800085166656
 20
85.98258963752986
 30
0.0
 10
136.7972017346784
 20
86.34730203123645
 30
0.0
 10
137.3945441444793
 20
86.62527007494276
 30
0.0
 10
138.5557091745961
 20
87.24061592874713
 30
0.0
 10
139.1029057144482
 20
87.56896302160743
 30
0.0
 10
139.8764832188168
 20
88.08599238454556
 30
0.0
 10
140.1264042098049
 20
88.26247857732884
 30
0.0
 10
140.6100246622862
 20
88.62329039997617
 30
0.0
 10
140.8445116498814
 20
88.80838746935356
 30
0.0
 10
141.5066555676638
 20
89.36168025701903
 30
0.0
 10
141.8988463596261
 20
89.73152814413116
 30
0.0
 10
142.4136590522345
 20
90.28634965172519
 30
0.0
 10
142.5735753757961
 20
90.47216383075892
 30
0.0
 10
142.8645993531836
 20
90.8401187061857
 30
0.0
 10
142.9946740074645
 20
91.02079240682039
 30
0.0
 10
143.3402117742483
 20
91.55383286759738
 30
0.0
 10
143.5114386578232
 20
91.89717377466474
 30
0.0
 10
143.7330812950736
 20
92.56543069195004
 30
0.0
 10
143.7800136873201
 20
92.88021780734259
 30
0.0
 10
143.7586928675575
 20
93.3301310143999
 30
0.0
 10
143.7362069781898
 20
93.47647667654007
 30
0.0
 10
143.6597527375001
 20
93.76321886407209
 30
0.0
 10
143.6056470720103
 20
93.90334861060205
 30
0.0
 10
143.3992260660312
 20
94.30855957979487
 30
0.0
 10
143.2026473020886
 20
94.56155988116875
 30
0.0
 10
142.8170465287014
 20
94.92459838887996
 30
0.0
 10
142.6723620715394
 20
95.0434677440868
 30
0.0
 10
142.3554196627232
 20
95.27356166969673
 30
0.0
 10
142.1837308042426
 20
95.38456066697498
 30
0.0
 10
141.629365463376
 20
95.70762511026287
 30
0.0
 10
141.2077909506566
 20
95.90994898382104
 30
0.0
 10
140.4917977984443
 20
96.19897185815678
 30
0.0
 10
140.2397041954608
 20
96.29249016088036
 30
0.0
 10
139.719744786442
 20
96.4704595715946
 30
0.0
 10
139.1811565394611
 20
96.6405493516737
 30
0.0
 10
138.6057018590211
 20
96.7954217409258
 30
0.0
 10
138.0115133744761
 20
96.94237286878244
 30
0.0
 10
137.7032197608092
 20
97.01222735786692
 30
0.0
 10
136.7691362819583
 20
97.2046028711722
 30
0.0
 10
136.1312102300795
 20
97.31128863258695
 30
0.0
 10
135.1521623343546
 20
97.43442873941207
 30
0.0
 10
134.82039493631
 20
97.46938260698462
 30
0.0
 10
134.158127345271
 20
97.52449769785012
 30
0.0
 10
133.8284796704597
 20
97.5446713382994
 30
0.0
 10
132.8436428763226
 20
97.58175237201884
 30
0.0
 10
132.1925209663066
 20
97.57552265504958
 30
0.0
 10
130.9003167244257
 20
97.48765066990872
 30
0.0
 10
130.2786780976625
 20
97.40719437124191
 30
0.0
 10
129.3827707457206
 20
97.2255165328152
 30
0.0
 10
129.0901812209676
 20
97.15472876098993
 30
0.0
 10
128.5173833946466
 20
96.99084549170709
 30
0.0
 10
128.2359582990251
 20
96.89716596872968
 30
0.0
 10
127.4288802622244
 20
96.58632795756856
 30
0.0
 10
126.934993249214
 20
96.3386026922583
 30
0.0
 10
126.0360269870529
 20
95.75607183016321
 30
0.0
 10
125.6284951729523
 20
95.41690073845878
 30
0.0
 10
124.9435014800677
 20
94.67731082286943
 30
0.0
 10
124.6606946996383
 20
94.2747818479422
 30
0.0
 10
124.3272603102167
 20
93.6225409472281
 30
0.0
 10
124.2318187942887
 20
93.39740851094618
 30
0.0
 10
124.0754873468795
 20
92.9419609047456
 30
0.0
 10
124.0139124284348
 20
92.71039730134146
 30
0.0
 10
123.9230987080105
 20
92.240461651194
 30
0.0
 10
123.8938607802354
 20
92.00208778774741
 30
0.0
 10
123.8678513451597
 20
91.51935360178628
 30
0.0
 10
123.8712912874286
 20
91.27414574220737
 30
0.0
 10
123.9299294771253
 20
90.54578107430257
 30
0.0
 10
124.0322656357121
 20
90.06544610553597
 30
0.0
 10
124.2783119355809
 20
89.35927436601213
 30
0.0
 10
124.3764051845664
 20
89.125261519146
 30
0.0
 10
124.6022519989576
 20
88.66852194027685
 30
0.0
 10
124.7292912103004
 20
88.44688386561393
 30
0.0
 10
125.1516369693077
 20
87.80350556124908
 30
0.0
 10
125.4877219224689
 20
87.40307017902555
 30
0.0
 10
126.077263415673
 20
86.85419411267814
 30
0.0
 10
126.288153789828
 20
86.68026654237623
 30
0.0
 10
126.7284609610623
 20
86.35957517122834
 30
0.0
 10
126.9590684369986
 20
86.21162746188304
 30
0.0
 10
127.68180810473
 20
85.80572112319157
 30
0.0
 10
128.2049376461727
 20
85.58531842198164
 30
0.0
 10
128.7708237905864
 20
85.42034284670048
 30
0.0
  0
LWPOLYLINE
  5
359
330
1F
100
AcDbEntity
  8
0
  6
SLD-Durchgehend
 62
     7
370
    15
100
AcDbPolyline
 90
       23
 70
   128
 43
0.0
 10
143.7936534011
 20
92.7764275288
 10
143.6040555199
 20
93.3141181826
 10
143.1641347633
 20
94.0812617395
 10
142.5453375338
 20
94.7883700352
 10
141.7597088377
 20
95.4216793608
 10
140.822549338
 20
95.9688605165
 10
139.7520905877
 20
96.4192657669
 10
138.5691735452
 20
96.7641273994
 10
137.2968183797
 20
96.9967342308
 10
135.9597948961
 20
97.112556843
 10
134.5841240897
 20
97.1093418082
 10
133.1965783836
 20
96.9871525519
 10
131.8241661981
 20
96.7483673452
 10
130.4936064413
 20
96.3976317983
 10
129.2307858556
 20
95.9417755461
 10
128.0602965222
 20
95.3896682436
 10
127.0049095562
 20
94.7520586662
 10
126.0851718637
 20
94.0413561199
 10
125.3189855889
 20
93.2713931778
 10
124.7212625432
 20
92.4571567703
 10
124.3036364813
 20
91.6144951121
 10
124.0742404872
 20
90.7598083013
 10
124.0316954369
 20
90.0111383313
  0
ARC
  5
35A
330
1F
100
AcDbEntity
  8
0
  6
SLD-Durchgehend
 62
     7
370
    15
100
AcDbCircle
 10
133.3168807003
 20
95.7776940437
 30
0.0
 40
8.338691479664654
100
AcDbArc
 50
253.7586734199
 51
309.2592316594
  0
LWPOLYLINE
  5
35B
330
1F
100
AcDbEntity
  8
0
  6
SLD-Durchgehend
 62
     8
370
     0
100
AcDbPolyline
 90
       20
 70
   128
 43
0.0
 10
140.2366388561
 20
92.4623664313
 10
140.2543542325
 20
92.0535488807
 10
140.1284436738
 20
91.3699342689
 10
139.8130101048
 20
90.6941885891
 10
139.3176471455
 20
90.0468411964
 10
138.6574031718
 20
89.4475623779
 10
137.8523424804
 20
88.9145601051
 10
136.9269169344
 20
88.464032036
 10
135.9092529955
 20
88.1096647464
 10
134.830268925
 20
87.8622267603
 10
133.7227488143
 20
87.7292362042
 10
132.6203520082
 20
87.7147318947
 10
131.5565595888
 20
87.8191583185
 10
130.5637103409
 20
88.0393384842
 10
129.6719569608
 20
88.3685858064
 10
128.9084065802
 20
88.7968936306
 10
128.2962493079
 20
89.3112503367
 10
127.854090037
 20
89.8960265567
 10
127.5953710646
 20
90.5334517006
 10
127.545656422
 20
90.7953442264
  0
ARC
  5
35C
330
1F
100
AcDbEntity
  8
0
  6
SLD-Durchgehend
 62
     8
370
     0
100
AcDbCircle
 10
130.1897398552
 20
91.3104729033
 30
0.0
 40
2.476148355449073
100
AcDbArc
 50
146.7999820592
 51
214.9977793989
  0
ARC
  5
35D
330
1F
100
AcDbEntity
  8
0
  6
SLD-Durchgehend
 62
     8
370
     0
100
AcDbCircle
 10
136.6824686623
 20
91.9895049322
 30
0.0
 40
3.300461722599347
100
AcDbArc
 50
356.0252773087
 51
82.8399175925
  0
LWPOLYLINE
  5
35E
330
1F
100
AcDbEntity
  8
0
  6
SLD-Durchgehend
 62
     8
370
     0
100
AcDbPolyline
 90
        8
 70
   128
 43
0.0
 10
136.6903722954
 20
94.8289776182
 10
137.5097622154
 20
94.5202654456
 10
138.1976186128
 20
94.1127607497
 10
138.7290777213
 20
93.6211928896
 10
139.0849254788
 20
93.0633301518
 10
139.2523125323
 20
92.4593313973
 10
139.2251811136
 20
91.8310292664
 10
139.1695739485
 20
91.6091560287
  0
ARC
  5
35F
330
1F
100
AcDbEntity
  8
0
  6
SLD-Durchgehend
 62
     8
370
     0
100
AcDbCircle
 10
130.6137701669
 20
91.361782993
 30
0.0
 40
2.134887968200052
100
AcDbArc
 50
149.429757274
 51
203.7436162198
  0
ARC
  5
360
330
1F
100
AcDbEntity
  8
0
  6
SLD-Durchgehend
 62
     8
370
     0
100
AcDbCircle
 10
134.7441289931
 20
88.1471673514
 30
0.0
 40
6.688878544843273
100
AcDbArc
 50
72.5009810261
 51
85.1723672227
  0
ARC
  5
361
330
1F
100
AcDbEntity
  8
0
  6
SLD-Durchgehend
 62
     8
370
     0
100
AcDbCircle
 10
205.8891393687
 20
51.414103115
 30
0.0
 40
56.19319450404971
100
AcDbArc
 50
161.6172606821
 51
164.2037767941
  0
LINE
  5
362
330
1F
100
AcDbEntity
  8
0
  6
SLD-Durchgehend
 62
     8
370
     0
100
AcDbLine
 10
151.7155344733
 20
69.3825563905
 30
0.0
 11
152.5634240341
 21
69.1353669701
 31
0.0
  0
ARC
  5
363
330
1F
100
AcDbEntity
  8
0
  6
SLD-Durchgehend
 62
     8
370
     0
100
AcDbCircle
 10
205.0412498078
 20
51.6612925355
 30
0.0
 40
56.19319450393529
100
AcDbArc
 50
161.6172606821
 51
164.2037767941
  0
LINE
  5
364
330
1F
100
AcDbEntity
  8
0
  6
SLD-Durchgehend
 62
     8
370
     0
100
AcDbLine
 10
149.7309123826
 20
67.3193029135
 30
0.0
 11
150.9701385025
 21
66.9580252182
 31
0.0
  0
ARC
  5
365
330
1F
100
AcDbEntity
  8
0
  6
SLD-Durchgehend
 62
     8
370
     0
100
AcDbCircle
 10
203.7605040581
 20
52.0350493281
 30
0.0
 40
56.14984580821192
100
AcDbArc
 50
161.2246650298
 51
164.2044966865
  0
LINE
  5
366
330
1F
100
AcDbEntity
  8
0
  6
SLD-Durchgehend
 62
     8
370
     0
100
AcDbLine
 10
149.7506197162
 20
70.3545240268
 30
0.0
 11
150.598509277
 21
70.1073346064
 31
0.0
  0
ARC
  5
367
330
1F
100
AcDbEntity
  8
0
  6
SLD-Durchgehend
 62
     8
370
     0
100
AcDbCircle
 10
202.9542380126
 20
52.2690339972
 30
0.0
 40
56.19350451287093
100
AcDbArc
 50
161.22557735
 51
165.3788082186
  0
LINE
  5
368
330
1F
100
AcDbEntity
  8
0
  6
SLD-Durchgehend
 62
     8
370
     0
100
AcDbLine
 10
153.6678579656
 20
64.9706673142
 30
0.0
 11
148.5805111248
 21
66.4538065994
 31
0.0
  0
ARC
  5
369
330
1F
100
AcDbEntity
  8
0
  6
SLD-Durchgehend
 62
     8
370
     0
100
AcDbCircle
 10
208.0295726709
 20
50.788528873
 30
0.0
 40
56.18121640256935
100
AcDbArc
 50
164.2023437119
 51
165.3783152832
  0
LINE
  5
36A
330
1F
100
AcDbEntity
  8
0
  6
SLD-Durchgehend
 62
     8
370
     0
100
AcDbLine
 10
151.8180280633
 20
66.7108357978
 30
0.0
 11
153.9703696625
 21
66.0833530487
 31
0.0
  0
SPLINE
  5
36B
330
1F
100
AcDbEntity
  8
0
  6
SLD-Durchgehend
 62
     8
370
     0
100
AcDbSpline
210
0.0
220
0.0
230
1.0
 70
     8
 71
     3
 72
    13
 73
     9
 74
     0
 42
0.000000001
 43
0.00000001
 40
0.0
 40
0.0
 40
0.0
 40
0.0
 40
0.1250247226646383
 40
0.2498731779590373
 40
0.3747927758937621
 40
0.499666117031854
 40
0.7494622299554053
 40
1.0
 40
1.0
 40
1.0
 40
1.0
 10
152.0719035573526
 20
53.91661066942196
 30
0.0
 10
152.0580122532301
 20
53.76430343319167
 30
0.0
 10
152.030249229781
 20
53.4599036926291
 30
0.0
 10
151.8431962669246
 20
53.0852259381847
 30
0.0
 10
151.5546045416103
 20
52.81887458420136
 30
0.0
 10
151.0575403562287
 20
52.64009207499734
 30
0.0
 10
150.3361718013797
 20
52.69265479981843
 30
0.0
 10
149.7575790611264
 20
52.8447186346045
 30
0.0
 10
149.4678538599325
 20
52.9208632559636
 30
0.0
  0
SPLINE
  5
36C
330
1F
100
AcDbEntity
  8
0
  6
SLD-Durchgehend
 62
     8
370
     0
100
AcDbSpline
210
0.0
220
0.0
230
1.0
 70
     8
 71
     3
 72
    10
 73
     6
 74
     0
 42
0.000000001
 43
0.00000001
 40
0.0
 40
0.0
 40
0.0
 40
0.0
 40
0.2505901225971966
 40
0.5010798162947964
 40
1.0
 40
1.0
 40
1.0
 40
1.0
 10
151.6145552033411
 20
55.31731178436881
 30
0.0
 10
151.6906539050878
 20
55.21311215461211
 30
0.0
 10
151.842820810536
 20
55.00475465514111
 30
0.0
 10
152.0446626933022
 20
54.52162652978746
 30
0.0
 10
152.0610161988568
 20
54.15841741076583
 30
0.0
 10
152.0719035573526
 20
53.91661066942196
 30
0.0
  0
SPLINE
  5
36D
330
1F
100
AcDbEntity
  8
0
  6
SLD-Durchgehend
 62
     8
370
     0
100
AcDbSpline
210
0.0
220
0.0
230
1.0
 70
     8
 71
     3
 72
    10
 73
     6
 74
     0
 42
0.000000001
 43
0.00000001
 40
0.0
 40
0.0
 40
0.0
 40
0.0
 40
0.5002357311187563
 40
0.7504049876810558
 40
1.0
 40
1.0
 40
1.0
 40
1.0
 10
149.594384167781
 20
56.46657911528678
 30
0.0
 10
149.9521852161987
 20
56.34670604003635
 30
0.0
 10
150.4889235470046
 20
56.16688411217164
 30
0.0
 10
151.1795788227992
 20
55.76768413505756
 30
0.0
 10
151.4696741859393
 20
55.46732085910561
 30
0.0
 10
151.6145552033411
 20
55.31731178436881
 30
0.0
  0
SPLINE
  5
36E
330
1F
100
AcDbEntity
  8
0
  6
SLD-Durchgehend
 62
     8
370
     0
100
AcDbSpline
210
0.0
220
0.0
230
1.0
 70
     8
 71
     3
 72
    10
 73
     6
 74
     0
 42
0.000000001
 43
0.00000001
 40
0.0
 40
0.0
 40
0.0
 40
0.0
 40
0.2495530248417513
 40
0.4996972023096249
 40
1.0
 40
1.0
 40
1.0
 40
1.0
 10
147.5017401963653
 20
56.52085415681648
 30
0.0
 10
147.660273924045
 20
56.58162643158731
 30
0.0
 10
147.9777169213539
 20
56.70331494127471
 30
0.0
 10
148.6955146364927
 20
56.691306560496
 30
0.0
 10
149.2348342793665
 20
56.5564706123685
 30
0.0
 10
149.594384167781
 20
56.46657911528678
 30
0.0
  0
SPLINE
  5
36F
330
1F
100
AcDbEntity
  8
0
  6
SLD-Durchgehend
 62
     8
370
     0
100
AcDbSpline
210
0.0
220
0.0
230
1.0
 70
     8
 71
     3
 72
    11
 73
     7
 74
     0
 42
0.000000001
 43
0.00000001
 40
0.0
 40
0.0
 40
0.0
 40
0.0
 40
0.4986723437261499
 40
0.7490471697869285
 40
0.8744981613578668
 40
1.0
 40
1.0
 40
1.0
 40
1.0
 10
146.9193371153641
 20
55.41876374620767
 30
0.0
 10
146.9475061503723
 20
55.65132312569876
 30
0.0
 10
146.9898183744488
 20
56.00064657867706
 30
0.0
 10
147.2141224598394
 20
56.30171329142694
 30
0.0
 10
147.3688230624
 20
56.44042287098296
 30
0.0
 10
147.4574285007489
 20
56.49404010696778
 30
0.0
 10
147.5017401963653
 20
56.52085415681648
 30
0.0
  0
SPLINE
  5
370
330
1F
100
AcDbEntity
  8
0
  6
SLD-Durchgehend
 62
     8
370
     0
100
AcDbSpline
210
0.0
220
0.0
230
1.0
 70
     8
 71
     3
 72
    10
 73
     6
 74
     0
 42
0.000000001
 43
0.00000001
 40
0.0
 40
0.0
 40
0.0
 40
0.0
 40
0.2506095750174979
 40
0.5010996529118029
 40
1.0
 40
1.0
 40
1.0
 40
1.0
 10
147.4141923258661
 20
54.04251813004157
 30
0.0
 10
147.333514553094
 20
54.14374169288043
 30
0.0
 10
147.1721974767973
 20
54.34614055254689
 30
0.0
 10
146.9532201114466
 20
54.81775326452004
 30
0.0
 10
146.9328790231345
 20
55.17855982527328
 30
0.0
 10
146.9193371153641
 20
55.41876374620767
 30
0.0
  0
SPLINE
  5
371
330
1F
100
AcDbEntity
  8
0
  6
SLD-Durchgehend
 62
     8
370
     0
100
AcDbSpline
210
0.0
220
0.0
230
1.0
 70
     8
 71
     3
 72
    10
 73
     6
 74
     0
 42
0.000000001
 43
0.00000001
 40
0.0
 40
0.0
 40
0.0
 40
0.0
 40
0.5002124086453139
 40
0.7503939521578912
 40
1.0
 40
1.0
 40
1.0
 40
1.0
 10
149.4678538599325
 20
52.9208632559636
 30
0.0
 10
149.1097854693716
 20
53.03963434642843
 30
0.0
 10
148.5726289532759
 20
53.21780887076175
 30
0.0
 10
147.8681538642646
 20
53.60630062528671
 30
0.0
 10
147.565396632315
 20
53.89722395930627
 30
0.0
 10
147.4141923258661
 20
54.04251813004157
 30
0.0
  0
SPLINE
  5
372
330
1F
100
AcDbEntity
  8
0
  6
SLD-Durchgehend
 62
     8
370
     0
100
AcDbSpline
210
0.0
220
0.0
230
1.0
 70
     8
 71
     3
 72
    11
 73
     7
 74
     0
 42
0.000000001
 43
0.00000001
 40
0.0
 40
0.0
 40
0.0
 40
0.0
 40
0.2500448771322066
 40
0.4998571531104199
 40
0.7497353608013595
 40
1.0
 40
1.0
 40
1.0
 40
1.0
 10
149.7748005657487
 20
47.56817452406433
 30
0.0
 10
149.7939778636992
 20
47.67280050700384
 30
0.0
 10
149.8323146201559
 20
47.88195514585642
 30
0.0
 10
150.0744312872989
 20
48.07353708443464
 30
0.0
 10
150.4145951352438
 20
48.14551682213889
 30
0.0
 10
150.6858051520834
 20
48.08382663498513
 30
0.0
 10
150.8215149346656
 20
48.05295770918493
 30
0.0
  0
SPLINE
  5
373
330
1F
100
AcDbEntity
  8
0
  6
SLD-Durchgehend
 62
     8
370
     0
100
AcDbSpline
210
0.0
220
0.0
230
1.0
 70
     8
 71
     3
 72
    12
 73
     8
 74
     0
 42
0.000000001
 43
0.00000001
 40
0.0
 40
0.0
 40
0.0
 40
0.0
 40
0.2496742504501983
 40
0.4993297254482148
 40
0.7493574399181102
 40
0.8746553321511698
 40
1.0
 40
1.0
 40
1.0
 40
1.0
 10
148.5913307719865
 20
48.53364708582767
 30
0.0
 10
148.7067074430802
 20
48.49171263146781
 30
0.0
 10
148.9374521089659
 20
48.40784687621043
 30
0.0
 10
149.2699714233314
 20
48.16813561425585
 30
0.0
 10
149.5018385766898
 20
47.92671155302189
 30
0.0
 10
149.6651935804657
 20
47.72384148460196
 30
0.0
 10
149.7382603586789
 20
47.62006996628723
 30
0.0
 10
149.7748005657487
 20
47.56817452406433
 30
0.0
  0
SPLINE
  5
374
330
1F
100
AcDbEntity
  8
0
  6
SLD-Durchgehend
 62
     8
370
     0
100
AcDbSpline
210
0.0
220
0.0
230
1.0
 70
     8
 71
     3
 72
     9
 73
     5
 74
     0
 42
0.000000001
 43
0.00000001
 40
0.0
 40
0.0
 40
0.0
 40
0.0
 40
0.5004397155322117
 40
1.0
 40
1.0
 40
1.0
 40
1.0
 10
147.7971629828572
 20
48.4669889743959
 30
0.0
 10
147.9060334905192
 20
48.52042047255784
 30
0.0
 10
148.1235831858829
 20
48.62718957281825
 30
0.0
 10
148.4355063482582
 20
48.5648096285376
 30
0.0
 10
148.5913307719865
 20
48.53364708582767
 30
0.0
  0
SPLINE
  5
375
330
1F
100
AcDbEntity
  8
0
  6
SLD-Durchgehend
 62
     8
370
     0
100
AcDbSpline
210
0.0
220
0.0
230
1.0
 70
     8
 71
     3
 72
    11
 73
     7
 74
     0
 42
0.000000001
 43
0.00000001
 40
0.0
 40
0.0
 40
0.0
 40
0.0
 40
0.4988988560699638
 40
0.7491910019343199
 40
0.874573365258961
 40
1.0
 40
1.0
 40
1.0
 40
1.0
 10
147.5316870658191
 20
47.61671126221348
 30
0.0
 10
147.5107272427024
 20
47.79271660555894
 30
0.0
 10
147.4792521036233
 20
48.05702192100003
 30
0.0
 10
147.602358145211
 20
48.29181716093671
 30
0.0
 10
147.7028681992075
 20
48.40148958241763
 30
0.0
 10
147.7657276897708
 20
48.44515327464536
 30
0.0
 10
147.7971629828572
 20
48.4669889743959
 30
0.0
  0
SPLINE
  5
376
330
1F
100
AcDbEntity
  8
0
  6
SLD-Durchgehend
 62
     8
370
     0
100
AcDbSpline
210
0.0
220
0.0
230
1.0
 70
     8
 71
     3
 72
    12
 73
     8
 74
     0
 42
0.000000001
 43
0.00000001
 40
0.0
 40
0.0
 40
0.0
 40
0.0
 40
0.2504405499650847
 40
0.3757125538547036
 40
0.5008652829384126
 40
0.750178580197753
 40
1.0
 40
1.0
 40
1.0
 40
1.0
 10
149.2004612940967
 20
45.95208135355109
 30
0.0
 10
149.0073591982167
 20
46.04057908799601
 30
0.0
 10
148.7176661688415
 20
46.17334396901582
 30
0.0
 10
148.3449723095159
 20
46.41641246006989
 30
0.0
 10
148.0112371649412
 20
46.70440158317518
 30
0.0
 10
147.684793744331
 20
47.12372796107265
 30
0.0
 10
147.5827572499386
 20
47.45227200847359
 30
0.0
 10
147.5316870658191
 20
47.61671126221348
 30
0.0
  0
LINE
  5
377
330
1F
100
AcDbEntity
  8
0
  6
SLD-Durchgehend
 62
     8
370
     0
100
AcDbLine
 10
149.138243677
 20
46.7127469274
 30
0.0
 11
149.2004612941
 21
45.9520813536
 31
0.0
  0
SPLINE
  5
378
330
1F
100
AcDbEntity
  8
0
  6
SLD-Durchgehend
 62
     8
370
     0
100
AcDbSpline
210
0.0
220
0.0
230
1.0
 70
     8
 71
     3
 72
    13
 73
     9
 74
     0
 42
0.000000001
 43
0.00000001
 40
0.0
 40
0.0
 40
0.0
 40
0.0
 40
0.1251496932962341
 40
0.2501535253591495
 40
0.3716939699020399
 40
0.5002762191609245
 40
0.7496750315968371
 40
1.0
 40
1.0
 40
1.0
 40
1.0
 10
148.3780602435375
 20
47.3765123240027
 30
0.0
 10
148.3876823736196
 20
47.34191144924069
 30
0.0
 10
148.4069154192475
 20
47.27275002683322
 30
0.0
 10
148.4718870468101
 20
47.16564556947317
 30
0.0
 10
148.5580227478019
 20
47.06256266912859
 30
0.0
 10
148.696055531511
 20
46.93766905322943
 30
0.0
 10
148.8964122456533
 20
46.8098964163413
 30
0.0
 10
149.0575336625142
 20
46.74517007693535
 30
0.0
 10
149.1382436769888
 20
46.71274692741174
 30
0.0
  0
SPLINE
  5
379
330
1F
100
AcDbEntity
  8
0
  6
SLD-Durchgehend
 62
     8
370
     0
100
AcDbSpline
210
0.0
220
0.0
230
1.0
 70
     8
 71
     3
 72
    14
 73
    10
 74
     0
 42
0.000000001
 43
0.00000001
 40
0.0
 40
0.0
 40
0.0
 40
0.0
 40
0.2497499618302304
 40
0.3765731010488735
 40
0.4998300990251227
 40
0.6265778190389003
 40
0.7498553358437826
 40
0.8748108859325936
 40
1.0
 40
1.0
 40
1.0
 40
1.0
 10
148.8331957854332
 20
47.63839695240695
 30
0.0
 10
148.765189632066
 20
47.65498020038643
 30
0.0
 10
148.662649924447
 20
47.67998442890097
 30
0.0
 10
148.5440781010998
 20
47.67166086079914
 30
0.0
 10
148.4684664799868
 20
47.64623103805094
 30
0.0
 10
148.4105169560712
 20
47.60242902431845
 30
0.0
 10
148.374451503609
 20
47.54034697712044
 30
0.0
 10
148.3637286394507
 20
47.46323754980206
 30
0.0
 10
148.3732800694021
 20
47.4054387218252
 30
0.0
 10
148.3780602435375
 20
47.3765123240027
 30
0.0
  0
SPLINE
  5
37A
330
1F
100
AcDbEntity
  8
0
  6
SLD-Durchgehend
 62
     8
370
     0
100
AcDbSpline
210
0.0
220
0.0
230
1.0
 70
     8
 71
     3
 72
    13
 73
     9
 74
     0
 42
0.000000001
 43
0.00000001
 40
0.0
 40
0.0
 40
0.0
 40
0.0
 40
0.2498649642903252
 40
0.375083950415564
 40
0.5001547100683436
 40
0.6252576901912474
 40
0.7504179636738356
 40
1.0
 40
1.0
 40
1.0
 40
1.0
 10
149.5908941854406
 20
46.8584266503053
 30
0.0
 10
149.5714121895655
 20
46.93547357715866
 30
0.0
 10
149.5421668570094
 20
47.05113231216226
 30
0.0
 10
149.4483057690751
 20
47.2144253570108
 30
0.0
 10
149.351624939197
 20
47.33270176033806
 30
0.0
 10
149.2336541540791
 20
47.4376957034773
 30
0.0
 10
149.0605079877236
 20
47.55852264285596
 30
0.0
 10
148.9240668890201
 20
47.60646612518342
 30
0.0
 10
148.8331957854332
 20
47.63839695240695
 30
0.0
  0
LINE
  5
37B
330
1F
100
AcDbEntity
  8
0
  6
SLD-Durchgehend
 62
     8
370
     0
100
AcDbLine
 10
150.3983596758
 20
46.5502985407
 30
0.0
 11
149.5908941854
 21
46.8584266503
 31
0.0
  0
LINE
  5
37C
330
1F
100
AcDbEntity
  8
0
  6
SLD-Durchgehend
 62
     8
370
     0
100
AcDbLine
 10
150.2527610265
 20
46.9030099218
 30
0.0
 11
150.3983596758
 21
46.5502985407
 31
0.0
  0
SPLINE
  5
37D
330
1F
100
AcDbEntity
  8
0
  6
SLD-Durchgehend
 62
     8
370
     0
100
AcDbSpline
210
0.0
220
0.0
230
1.0
 70
     8
 71
     3
 72
    13
 73
     9
 74
     0
 42
0.000000001
 43
0.00000001
 40
0.0
 40
0.0
 40
0.0
 40
0.0
 40
0.2502732935890392
 40
0.4995554386333592
 40
0.6247340593323151
 40
0.7498446217598619
 40
0.8747776795211326
 40
0.9999999999999999
 40
0.9999999999999999
 40
0.9999999999999999
 40
0.9999999999999999
 10
150.90839724255
 20
47.19528199970656
 30
0.0
 10
150.8194561893826
 20
47.21749377721591
 30
0.0
 10
150.6419263131805
 20
47.26182936771136
 30
0.0
 10
150.4467418369565
 20
47.24227258744109
 30
0.0
 10
150.3315681136144
 20
47.17903208123787
 30
0.0
 10
150.2671954363624
 20
47.11043417882883
 30
0.0
 10
150.2376938442303
 20
47.01606030989737
 30
0.0
 10
150.2477347622223
 20
46.94072242306009
 30
0.0
 10
150.2527610265367
 20
46.90300992182943
 30
0.0
  0
SPLINE
  5
37E
330
1F
100
AcDbEntity
  8
0
  6
SLD-Durchgehend
 62
     8
370
     0
100
AcDbSpline
210
0.0
220
0.0
230
1.0
 70
     8
 71
     3
 72
    13
 73
     9
 74
     0
 42
0.000000001
 43
0.00000001
 40
0.0
 40
0.0
 40
0.0
 40
0.0
 40
0.1249017434104358
 40
0.2490090658131856
 40
0.375048529510462
 40
0.500677302373298
 40
0.7498684553289774
 40
1.0
 40
1.0
 40
1.0
 40
1.0
 10
151.8350374809897
 20
46.36786462357257
 30
0.0
 10
151.8234130827965
 20
46.41092777771881
 30
0.0
 10
151.8002382218562
 20
46.49678018851893
 30
0.0
 10
151.7232840776631
 20
46.63330635313923
 30
0.0
 10
151.6199321237956
 20
46.76537204477368
 30
0.0
 10
151.4541318157101
 20
46.92745677558835
 30
0.0
 10
151.2074781602053
 20
47.09406584944153
 30
0.0
 10
151.0082159742252
 20
47.16150094866624
 30
0.0
 10
150.90839724255
 20
47.19528199970656
 30
0.0
  0
SPLINE
  5
37F
330
1F
100
AcDbEntity
  8
0
  6
SLD-Durchgehend
 62
     8
370
     0
100
AcDbSpline
210
0.0
220
0.0
230
1.0
 70
     8
 71
     3
 72
    13
 73
     9
 74
     0
 42
0.000000001
 43
0.00000001
 40
0.0
 40
0.0
 40
0.0
 40
0.0
 40
0.2502221119136324
 40
0.4996513591052466
 40
0.6271215588351235
 40
0.7498387603013044
 40
0.8748317878124475
 40
1.0
 40
1.0
 40
1.0
 40
1.0
 10
151.1865437838247
 20
46.01421513086811
 30
0.0
 10
151.2783082038247
 20
45.99910982560859
 30
0.0
 10
151.4615462750721
 20
45.96894707842009
 30
0.0
 10
151.6594621511151
 20
45.99667648016492
 30
0.0
 10
151.7722921135835
 20
46.06817505647703
 30
0.0
 10
151.8287041830314
 20
46.14672036407054
 30
0.0
 10
151.854437653114
 20
46.24665315668865
 30
0.0
 10
151.8415072233686
 20
46.32744194283104
 30
0.0
 10
151.8350374809897
 20
46.36786462357257
 30
0.0
  0
LINE
  5
380
330
1F
100
AcDbEntity
  8
0
  6
SLD-Durchgehend
 62
     8
370
     0
100
AcDbLine
 10
151.5191144771
 20
45.1802520799
 30
0.0
 11
151.1865437838
 21
46.0142151309
 31
0.0
  0
SPLINE
  5
381
330
1F
100
AcDbEntity
  8
0
  6
SLD-Durchgehend
 62
     8
370
     0
100
AcDbSpline
210
0.0
220
0.0
230
1.0
 70
     8
 71
     3
 72
    12
 73
     8
 74
     0
 42
0.000000001
 43
0.00000001
 40
0.0
 40
0.0
 40
0.0
 40
0.0
 40
0.2498414130509293
 40
0.3740556289149135
 40
0.5004617262011374
 40
0.7500220114416762
 40
1.0
 40
1.0
 40
1.0
 40
1.0
 10
152.6867213164709
 20
46.10320320589466
 30
0.0
 10
152.709662919243
 20
45.93230980350274
 30
0.0
 10
152.7440104501365
 20
45.67645294483181
 30
0.0
 10
152.6391943777098
 20
45.41980658626358
 30
0.0
 10
152.4593284829463
 20
45.22450188012537
 30
0.0
 10
152.1033289826861
 20
45.09214212186318
 30
0.0
 10
151.7139611726925
 20
45.15086572609079
 30
0.0
 10
151.5191144771404
 20
45.18025207992125
 30
0.0
  0
SPLINE
  5
382
330
1F
100
AcDbEntity
  8
0
  6
SLD-Durchgehend
 62
     8
370
     0
100
AcDbSpline
210
0.0
220
0.0
230
1.0
 70
     8
 71
     3
 72
    12
 73
     8
 74
     0
 42
0.000000001
 43
0.00000001
 40
0.0
 40
0.0
 40
0.0
 40
0.0
 40
0.2494947787804903
 40
0.3721049290756969
 40
0.5003840930065465
 40
0.7500025821360226
 40
1.0
 40
1.0
 40
1.0
 40
1.0
 10
150.8215149346656
 20
48.05295770918493
 30
0.0
 10
151.0405083728488
 20
47.9694998334442
 30
0.0
 10
151.3671225736809
 20
47.84502794234847
 30
0.0
 10
151.7723149147611
 20
47.53344434843577
 30
0.0
 10
152.1346140809253
 20
47.18400360679907
 30
0.0
 10
152.5148481931803
 20
46.67768882865578
 30
0.0
 10
152.6294013148141
 20
46.29479521410445
 30
0.0
 10
152.686721316471
 20
46.10320320589466
 30
0.0
  0
ARC
  5
383
330
1F
100
AcDbEntity
  8
0
  6
SLD-Durchgehend
 62
     8
370
     0
100
AcDbCircle
 10
157.4812002513
 20
46.4529573811
 30
0.0
 40
8.278662022566147
100
AcDbArc
 50
219.2382711952
 51
225.7028229612
  0
LINE
  5
384
330
1F
100
AcDbEntity
  8
0
  6
SLD-Durchgehend
 62
     8
370
     0
100
AcDbLine
 10
150.2213036098
 20
41.4635056948
 30
0.0
 11
151.0691931706
 21
41.2163162743
 31
0.0
  0
ARC
  5
385
330
1F
100
AcDbEntity
  8
0
  6
SLD-Durchgehend
 62
     8
370
     0
100
AcDbCircle
 10
155.9932810205
 20
46.1010788253
 30
0.0
 40
7.404242552081558
100
AcDbArc
 50
218.7806061306
 51
237.2746598073
  0
LINE
  5
386
330
1F
100
AcDbEntity
  8
0
  6
SLD-Durchgehend
 62
     8
370
     0
100
AcDbLine
 10
152.8383449309
 20
39.6249091847
 30
0.0
 11
151.9904553701
 21
39.8720986052
 31
0.0
  0
ARC
  5
387
330
1F
100
AcDbEntity
  8
0
  6
SLD-Durchgehend
 62
     8
370
     0
100
AcDbCircle
 10
156.4082049776
 20
45.2772920548
 30
0.0
 40
6.685307237760449
100
AcDbArc
 50
230.2696725612
 51
237.7248337624
  0
LINE
  5
388
330
1F
100
AcDbEntity
  8
0
  6
SLD-Durchgehend
 62
     8
370
     0
100
AcDbLine
 10
156.3745811262
 20
38.8999308558
 30
0.0
 11
152.1351238462
 21
40.1358807206
 31
0.0
  0
ARC
  5
389
330
1F
100
AcDbEntity
  8
0
  6
SLD-Durchgehend
 62
     8
370
     0
100
AcDbCircle
 10
161.0829628773
 20
44.5722183448
 30
0.0
 40
7.371818233788375
100
AcDbArc
 50
225.7502920983
 51
230.3050354637
  0
LINE
  5
38A
330
1F
100
AcDbEntity
  8
0
  6
SLD-Durchgehend
 62
     8
370
     0
100
AcDbLine
 10
151.6995480823
 20
40.5276942578
 30
0.0
 11
155.9390053623
 21
39.291744393
 31
0.0
  0
LINE
  5
38B
330
1F
100
AcDbEntity
  8
0
  6
SLD-Durchgehend
 62
     8
370
     0
100
AcDbLine
 10
158.0069735249
 20
37.9084820069
 30
0.0
 11
156.7678017177
 21
38.2627525587
 31
0.0
  0
ARC
  5
38C
330
1F
100
AcDbEntity
  8
0
  6
SLD-Durchgehend
 62
     8
370
     0
100
AcDbCircle
 10
160.2814594638
 20
43.4367100498
 30
0.0
 40
5.977841715915161
100
AcDbArc
 50
241.9998365747
 51
247.6362012695
  0
LINE
  5
38D
330
1F
100
AcDbEntity
  8
0
  6
SLD-Durchgehend
 62
     8
370
     0
100
AcDbLine
 10
152.3876708758
 20
39.6417363862
 30
0.0
 11
157.4750177166
 21
38.1585971011
 31
0.0
  0
ARC
  5
38E
330
1F
100
AcDbEntity
  8
0
  6
SLD-Durchgehend
 62
     8
370
     0
100
AcDbCircle
 10
155.1974641942
 20
44.9266549991
 30
0.0
 40
5.985424231973985
100
AcDbArc
 50
242.0020940288
 51
247.2355254305
  0
LINE
  5
38F
330
1F
100
AcDbEntity
  8
0
  6
SLD-Durchgehend
 62
     8
370
     0
100
AcDbLine
 10
156.2240873566
 20
38.432977616
 30
0.0
 11
152.8814406556
 21
39.4074758749
 31
0.0
  0
LINE
  5
390
330
1F
100
AcDbEntity
  8
0
  6
SLD-Durchgehend
 62
     8
370
     0
100
AcDbLine
 10
154.9009790674
 20
38.807382625
 30
0.0
 11
156.2240873566
 21
38.432977616
 31
0.0
  0
SPLINE
  5
391
330
1F
100
AcDbEntity
  8
0
  6
SLD-Durchgehend
 62
     8
370
     0
100
AcDbSpline
210
0.0
220
0.0
230
1.0
 70
     8
 71
     3
 72
    13
 73
     9
 74
     0
 42
0.000000001
 43
0.00000001
 40
0.0
 40
0.0
 40
0.0
 40
0.0
 40
0.1247472516955559
 40
0.500509220822714
 40
0.6255514363968147
 40
0.7503343600057559
 40
0.8749993353268692
 40
1.0
 40
1.0
 40
1.0
 40
1.0
 10
151.0992404383152
 20
41.97294924009037
 30
0.0
 10
151.1183033834023
 20
42.03391240864051
 30
0.0
 10
151.1947874715282
 20
42.27850800153084
 30
0.0
 10
151.0152205812555
 20
42.74861492704792
 30
0.0
 10
151.1289830632922
 20
43.12180001468278
 30
0.0
 10
151.3580262072151
 20
43.25560840205895
 30
0.0
 10
151.7287368580209
 20
43.27314764799773
 30
0.0
 10
152.0375117670247
 20
43.1935883603011
 30
0.0
 10
152.192106804054
 20
43.15375523050707
 30
0.0
  0
SPLINE
  5
392
330
1F
100
AcDbEntity
  8
0
  6
SLD-Durchgehend
 62
     8
370
     0
100
AcDbSpline
210
0.0
220
0.0
230
1.0
 70
     8
 71
     3
 72
    11
 73
     7
 74
     0
 42
0.000000001
 43
0.00000001
 40
0.0
 40
0.0
 40
0.0
 40
0.0
 40
0.2501342466625832
 40
0.499870055903672
 40
0.7497240442440389
 40
1.0
 40
1.0
 40
1.0
 40
1.0
 10
150.851831823233
 20
41.97488190795931
 30
0.0
 10
150.8805017207342
 20
41.96726573917237
 30
0.0
 10
150.9377958476195
 20
41.95204553335049
 30
0.0
 10
151.0082198021962
 20
41.94656336132378
 30
0.0
 10
151.0639216880137
 20
41.95286611649804
 30
0.0
 10
151.0874609014145
 20
41.96625110118632
 30
0.0
 10
151.0992404383152
 20
41.97294924009037
 30
0.0
  0
SPLINE
  5
393
330
1F
100
AcDbEntity
  8
0
  6
SLD-Durchgehend
 62
     8
370
     0
100
AcDbSpline
210
0.0
220
0.0
230
1.0
 70
     8
 71
     3
 72
    11
 73
     7
 74
     0
 42
0.000000001
 43
0.00000001
 40
0.0
 40
0.0
 40
0.0
 40
0.0
 40
0.2502783348493337
 40
0.4999758192141265
 40
0.7497218843074143
 40
1.0
 40
1.0
 40
1.0
 40
1.0
 10
150.4844342871827
 20
42.15649333029656
 30
0.0
 10
150.5119464288747
 20
42.13735347845996
 30
0.0
 10
150.5669068615829
 20
42.09911819490095
 30
0.0
 10
150.6614743655246
 20
42.04731300037582
 30
0.0
 10
150.7591257394303
 20
42.00447489762455
 30
0.0
 10
150.8209078822078
 20
41.98475323279183
 30
0.0
 10
150.851831823233
 20
41.97488190795931
 30
0.0
  0
SPLINE
  5
394
330
1F
100
AcDbEntity
  8
0
  6
SLD-Durchgehend
 62
     8
370
     0
100
AcDbSpline
210
0.0
220
0.0
230
1.0
 70
     8
 71
     3
 72
     9
 73
     5
 74
     0
 42
0.000000001
 43
0.00000001
 40
0.0
 40
0.0
 40
0.0
 40
0.0
 40
0.5011076579184334
 40
0.9999999999999999
 40
0.9999999999999999
 40
0.9999999999999999
 40
0.9999999999999999
 10
150.0590862092068
 20
42.61503687758516
 30
0.0
 10
150.1051412603373
 20
42.54080770100556
 30
0.0
 10
150.1970477606727
 20
42.3926775030199
 30
0.0
 10
150.3887803611014
 20
42.2351050302729
 30
0.0
 10
150.4844342871827
 20
42.15649333029656
 30
0.0
  0
SPLINE
  5
395
330
1F
100
AcDbEntity
  8
0
  6
SLD-Durchgehend
 62
     8
370
     0
100
AcDbSpline
210
0.0
220
0.0
230
1.0
 70
     8
 71
     3
 72
    13
 73
     9
 74
     0
 42
0.000000001
 43
0.00000001
 40
0.0
 40
0.0
 40
0.0
 40
0.0
 40
0.2498559858430597
 40
0.375814898636102
 40
0.4997919641830019
 40
0.622959962703691
 40
0.7498688278415694
 40
1.0
 40
1.0
 40
1.0
 40
1.0
 10
150.4675187074078
 20
42.9777499091248
 30
0.0
 10
150.3685849327077
 20
42.99378698229739
 30
0.0
 10
150.2197760643304
 20
43.01790876192354
 30
0.0
 10
150.0711072168566
 20
42.99911498546244
 30
0.0
 10
149.9949838025638
 20
42.95869534206767
 30
0.0
 10
149.9659507505727
 20
42.890520438731
 30
0.0
 10
149.9753459722714
 20
42.77806291176609
 30
0.0
 10
150.0256885606768
 20
42.6800556354734
 30
0.0
 10
150.0590862092068
 20
42.61503687758516
 30
0.0
  0
LINE
  5
396
330
1F
100
AcDbEntity
  8
0
  6
SLD-Durchgehend
 62
     8
370
     0
100
AcDbLine
 10
150.093622605
 20
43.6477873915
 30
0.0
 11
150.4675187074
 21
42.9777499091
 31
0.0
  0
SPLINE
  5
397
330
1F
100
AcDbEntity
  8
0
  6
SLD-Durchgehend
 62
     8
370
     0
100
AcDbSpline
210
0.0
220
0.0
230
1.0
 70
     8
 71
     3
 72
    15
 73
    11
 74
     0
 42
0.000000001
 43
0.00000001
 40
0.0
 40
0.0
 40
0.0
 40
0.0
 40
0.2499849546663455
 40
0.3750592826045286
 40
0.500023589188043
 40
0.6249537806919988
 40
0.7498808080315326
 40
0.8748043290834345
 40
0.9373915364339807
 40
1.0
 40
1.0
 40
1.0
 40
1.0
 10
149.2154633236414
 20
42.85481900191189
 30
0.0
 10
149.1457832395107
 20
42.99242082668242
 30
0.0
 10
149.0412402985135
 20
43.19886861772005
 30
0.0
 10
149.0317849237551
 20
43.44104304481193
 30
0.0
 10
149.092873305797
 20
43.59434916186614
 30
0.0
 10
149.2452500161849
 20
43.69645896232928
 30
0.0
 10
149.4712140033069
 20
43.74353631944491
 30
0.0
 10
149.7136262995938
 20
43.72895278024681
 30
0.0
 10
149.9262477464706
 20
43.69024058393624
 30
0.0
 10
150.0378246708385
 20
43.66194005727431
 30
0.0
 10
150.093622605008
 20
43.64778739145576
 30
0.0
  0
SPLINE
  5
398
330
1F
100
AcDbEntity
  8
0
  6
SLD-Durchgehend
 62
     8
370
     0
100
AcDbSpline
210
0.0
220
0.0
230
1.0
 70
     8
 71
     3
 72
    13
 73
     9
 74
     0
 42
0.000000001
 43
0.00000001
 40
0.0
 40
0.0
 40
0.0
 40
0.0
 40
0.1250857983973145
 40
0.2501914345612014
 40
0.3761381106186499
 40
0.5003610910905464
 40
0.7497352239155325
 40
1.0
 40
1.0
 40
1.0
 40
1.0
 10
151.2909429632611
 20
41.41976720021898
 30
0.0
 10
151.1805727229531
 20
41.45497258073896
 30
0.0
 10
150.9598147383592
 20
41.52538892511559
 30
0.0
 10
150.6092449452566
 20
41.67897274118252
 30
0.0
 10
150.2711990217611
 20
41.85466022176214
 30
0.0
 10
149.8657484485277
 20
42.11560867055011
 30
0.0
 10
149.4734300001093
 20
42.46139550920048
 30
0.0
 10
149.3015543428155
 20
42.72352208434762
 30
0.0
 10
149.2154633236414
 20
42.85481900191189
 30
0.0
  0
SPLINE
  5
399
330
1F
100
AcDbEntity
  8
0
  6
SLD-Durchgehend
 62
     8
370
     0
100
AcDbSpline
210
0.0
220
0.0
230
1.0
 70
     8
 71
     3
 72
    11
 73
     7
 74
     0
 42
0.000000001
 43
0.00000001
 40
0.0
 40
0.0
 40
0.0
 40
0.0
 40
0.4985792076749402
 40
0.7490675922192026
 40
0.8745096092666041
 40
0.9999999999999999
 40
0.9999999999999999
 40
0.9999999999999999
 40
0.9999999999999999
 10
152.1242159627721
 20
41.37580594430178
 30
0.0
 10
152.0332780964223
 20
41.34530329463916
 30
0.0
 10
151.8966526464644
 20
41.29947597976649
 30
0.0
 10
151.6114391464798
 20
41.34074179067658
 30
0.0
 10
151.4339518380099
 20
41.37952488637181
 30
0.0
 10
151.3386187141492
 20
41.40635137177121
 30
0.0
 10
151.2909429632611
 20
41.41976720021898
 30
0.0
  0
SPLINE
  5
39A
330
1F
100
AcDbEntity
  8
0
  6
SLD-Durchgehend
 62
     8
370
     0
100
AcDbSpline
210
0.0
220
0.0
230
1.0
 70
     8
 71
     3
 72
     9
 73
     5
 74
     0
 42
0.000000001
 43
0.00000001
 40
0.0
 40
0.0
 40
0.0
 40
0.0
 40
0.5010364183718536
 40
1.0
 40
1.0
 40
1.0
 40
1.0
 10
152.1974957190345
 20
41.89540943453738
 30
0.0
 10
152.2194518336337
 20
41.78813545756253
 30
0.0
 10
152.2632732282352
 20
41.57403130656402
 30
0.0
 10
152.1705042863026
 20
41.44178969329753
 30
0.0
 10
152.1242159627721
 20
41.37580594430179
 30
0.0
  0
SPLINE
  5
39B
330
1F
100
AcDbEntity
  8
0
  6
SLD-Durchgehend
 62
     8
370
     0
100
AcDbSpline
210
0.0
220
0.0
230
1.0
 70
     8
 71
     3
 72
    11
 73
     7
 74
     0
 42
0.000000001
 43
0.00000001
 40
0.0
 40
0.0
 40
0.0
 40
0.0
 40
0.4999483655043168
 40
0.5063836884256875
 40
0.7499722882662471
 40
1.0
 40
1.0
 40
1.0
 40
1.0
 10
152.1350144386044
 20
42.33896794548987
 30
0.0
 10
152.140657548532
 20
42.26481164637427
 30
0.0
 10
152.1463732964303
 20
42.18970080922158
 30
0.0
 10
152.1643929608329
 20
42.07780362750464
 30
0.0
 10
152.1761601770474
 20
42.003957783196
 30
0.0
 10
152.1903222911921
 20
41.93190551919206
 30
0.0
 10
152.1974957190345
 20
41.89540943453738
 30
0.0
  0
SPLINE
  5
39C
330
1F
100
AcDbEntity
  8
0
  6
SLD-Durchgehend
 62
     8
370
     0
100
AcDbSpline
210
0.0
220
0.0
230
1.0
 70
     8
 71
     3
 72
    11
 73
     7
 74
     0
 42
0.000000001
 43
0.00000001
 40
0.0
 40
0.0
 40
0.0
 40
0.0
 40
0.2498244199283808
 40
0.373414516776934
 40
0.5006339525260979
 40
1.0
 40
1.0
 40
1.0
 40
1.0
 10
152.5063456718578
 20
42.49184272648518
 30
0.0
 10
152.4439101277699
 20
42.5067913007729
 30
0.0
 10
152.3505872311052
 20
42.52913505181914
 30
0.0
 10
152.2570685419765
 20
42.52198381569633
 30
0.0
 10
152.1536064028324
 20
42.48140690395627
 30
0.0
 10
152.143260082789
 20
42.40214045137175
 30
0.0
 10
152.1350144386043
 20
42.33896794548987
 30
0.0
  0
SPLINE
  5
39D
330
1F
100
AcDbEntity
  8
0
  6
SLD-Durchgehend
 62
     8
370
     0
100
AcDbSpline
210
0.0
220
0.0
230
1.0
 70
     8
 71
     3
 72
    13
 73
     9
 74
     0
 42
0.000000001
 43
0.00000001
 40
0.0
 40
0.0
 40
0.0
 40
0.0
 40
0.2503829266525902
 40
0.4998917065219955
 40
0.624996383746868
 40
0.7501504059382327
 40
0.8750692206084586
 40
0.9999999999999999
 40
0.9999999999999999
 40
0.9999999999999999
 40
0.9999999999999999
 10
153.5495614961295
 20
41.64338753711603
 30
0.0
 10
153.5055548287335
 20
41.71529105477806
 30
0.0
 10
153.4176951317604
 20
41.85884705769547
 30
0.0
 10
153.2328940167634
 20
42.06270609727975
 30
0.0
 10
153.0333762517624
 20
42.22181704099307
 30
0.0
 10
152.8665257631346
 20
42.33401837199466
 30
0.0
 10
152.6838108653472
 20
42.43203991376151
 30
0.0
 10
152.5655026248573
 20
42.47190781918324
 30
0.0
 10
152.5063456718578
 20
42.49184272648517
 30
0.0
  0
SPLINE
  5
39E
330
1F
100
AcDbEntity
  8
0
  6
SLD-Durchgehend
 62
     8
370
     0
100
AcDbSpline
210
0.0
220
0.0
230
1.0
 70
     8
 71
     3
 72
    13
 73
     9
 74
     0
 42
0.000000001
 43
0.00000001
 40
0.0
 40
0.0
 40
0.0
 40
0.0
 40
0.2499407170062826
 40
0.3743827374461101
 40
0.5000619375877824
 40
0.6250730871241527
 40
0.7501673173171007
 40
0.9999999999999999
 40
0.9999999999999999
 40
0.9999999999999999
 40
0.9999999999999999
 10
152.9787975161299
 20
41.26545686861257
 30
0.0
 10
153.1020930698445
 20
41.24390977674124
 30
0.0
 10
153.2867757716766
 20
41.21163468633014
 30
0.0
 10
153.4785885735324
 20
41.21843783906078
 30
0.0
 10
153.5859841739347
 20
41.2510460406774
 30
0.0
 10
153.6382544828972
 20
41.3184632282119
 30
0.0
 10
153.6514707877479
 20
41.43886445606425
 30
0.0
 10
153.5903136060552
 20
41.56160159837581
 30
0.0
 10
153.5495614961295
 20
41.64338753711603
 30
0.0
  0
LINE
  5
39F
330
1F
100
AcDbEntity
  8
0
  6
SLD-Durchgehend
 62
     8
370
     0
100
AcDbLine
 10
153.4190883677
 20
40.7198322712
 30
0.0
 11
152.9787975161
 21
41.2654568686
 31
0.0
  0
SPLINE
  5
3A0
330
1F
100
AcDbEntity
  8
0
  6
SLD-Durchgehend
 62
     8
370
     0
100
AcDbSpline
210
0.0
220
0.0
230
1.0
 70
     8
 71
     3
 72
    13
 73
     9
 74
     0
 42
0.000000001
 43
0.00000001
 40
0.0
 40
0.0
 40
0.0
 40
0.0
 40
0.2500230983764355
 40
0.3751624277486738
 40
0.5002133861706701
 40
0.6254028994221404
 40
0.7503320562559637
 40
1.0
 40
1.0
 40
1.0
 40
1.0
 10
154.4066434593036
 20
41.38005290658452
 30
0.0
 10
154.48393458314
 20
41.23066891291332
 30
0.0
 10
154.5999107703411
 20
41.00651657620362
 30
0.0
 10
154.6067881910719
 20
40.78328040726564
 30
0.0
 10
154.5249446227
 20
40.66305092880055
 30
0.0
 10
154.3470710648707
 20
40.60223752978695
 30
0.0
 10
154.0034580502799
 20
40.5955853593213
 30
0.0
 10
153.6528005999484
 20
40.67014108425008
 30
0.0
 10
153.4190883676655
 20
40.71983227115091
 30
0.0
  0
SPLINE
  5
3A1
330
1F
100
AcDbEntity
  8
0
  6
SLD-Durchgehend
 62
     8
370
     0
100
AcDbSpline
210
0.0
220
0.0
230
1.0
 70
     8
 71
     3
 72
    13
 73
     9
 74
     0
 42
0.000000001
 43
0.00000001
 40
0.0
 40
0.0
 40
0.0
 40
0.0
 40
0.1251162555916173
 40
0.2502457340270645
 40
0.3753506808195982
 40
0.5004179512632817
 40
0.7496709540411182
 40
1.0
 40
1.0
 40
1.0
 40
1.0
 10
152.192106804054
 20
43.15375523050707
 30
0.0
 10
152.3146671918813
 20
43.1131609615645
 30
0.0
 10
152.5598009202643
 20
43.03196813349601
 30
0.0
 10
152.9388780856869
 20
42.83941623846067
 30
0.0
 10
153.3009375571311
 20
42.61379246605526
 30
0.0
 10
153.7322380183696
 20
42.2754620556188
 30
0.0
 10
154.1311181390344
 20
41.83255920461723
 30
0.0
 10
154.3146699026401
 20
41.53110477216985
 30
0.0
 10
154.4066434593036
 20
41.38005290658452
 30
0.0
  0
SPLINE
  5
3A2
330
1F
100
AcDbEntity
  8
0
  6
SLD-Durchgehend
 62
     8
370
     0
100
AcDbSpline
210
0.0
220
0.0
230
1.0
 70
     8
 71
     3
 72
     9
 73
     5
 74
     0
 42
0.000000001
 43
0.00000001
 40
0.0
 40
0.0
 40
0.0
 40
0.0
 40
0.5000821279796863
 40
1.0
 40
1.0
 40
1.0
 40
1.0
 10
150.3219633409682
 20
52.04260507213662
 30
0.0
 10
150.5188685213639
 20
51.97050588709526
 30
0.0
 10
150.9126142070802
 20
51.82633119856432
 30
0.0
 10
151.2525579956339
 20
51.51442499903509
 30
0.0
 10
151.4225019710142
 20
51.3584975154965
 30
0.0
  0
SPLINE
  5
3A3
330
1F
100
AcDbEntity
  8
0
  6
SLD-Durchgehend
 62
     8
370
     0
100
AcDbSpline
210
0.0
220
0.0
230
1.0
 70
     8
 71
     3
 72
    14
 73
    10
 74
     0
 42
0.000000001
 43
0.00000001
 40
0.0
 40
0.0
 40
0.0
 40
0.0
 40
0.125074239179835
 40
0.2500778443912691
 40
0.375106006555332
 40
0.5002159880537128
 40
0.6252932939760307
 40
0.7503644907462728
 40
0.9999999999999999
 40
0.9999999999999999
 40
0.9999999999999999
 40
0.9999999999999999
 10
148.7446466268473
 20
51.05689847633852
 30
0.0
 10
148.7433646096147
 20
51.15670006590102
 30
0.0
 10
148.7408012991513
 20
51.35624688344133
 30
0.0
 10
148.826002947375
 20
51.62037135373239
 30
0.0
 10
148.9789714498769
 20
51.83437977389583
 30
0.0
 10
149.1848478828005
 20
51.99651145824669
 30
0.0
 10
149.433201989901
 20
52.09985769002762
 30
0.0
 10
149.8073363470929
 20
52.15745468016667
 30
0.0
 10
150.1161961053911
 20
52.08852626677411
 30
0.0
 10
150.3219633409682
 20
52.04260507213662
 30
0.0
  0
SPLINE
  5
3A4
330
1F
100
AcDbEntity
  8
0
  6
SLD-Durchgehend
 62
     8
370
     0
100
AcDbSpline
210
0.0
220
0.0
230
1.0
 70
     8
 71
     3
 72
    10
 73
     6
 74
     0
 42
0.000000001
 43
0.00000001
 40
0.0
 40
0.0
 40
0.0
 40
0.0
 40
0.4995373334692736
 40
0.7497000979266085
 40
1.0
 40
1.0
 40
1.0
 40
1.0
 10
148.9841932037416
 20
50.38801519209726
 30
0.0
 10
148.9234226920685
 20
50.49832955120975
 30
0.0
 10
148.8322189811548
 20
50.66388811968546
 30
0.0
 10
148.7645029358641
 20
50.89115859584352
 30
0.0
 10
148.7512666055334
 20
51.0016417579133
 30
0.0
 10
148.7446466268473
 20
51.05689847633852
 30
0.0
  0
LINE
  5
3A5
330
1F
100
AcDbEntity
  8
0
  6
SLD-Durchgehend
 62
     8
370
     0
100
AcDbLine
 10
148.0594079424
 20
50.8467478652
 30
0.0
 11
148.9841932037
 21
50.3880151921
 31
0.0
  0
ARC
  5
3A6
330
1F
100
AcDbEntity
  8
0
  6
SLD-Durchgehend
 62
     8
370
     0
100
AcDbCircle
 10
181.9946407678
 20
53.6579553999
 30
0.0
 40
34.0514744866645
100
AcDbArc
 50
181.8929529969
 51
184.7355911099
  0
LINE
  5
3A7
330
1F
100
AcDbEntity
  8
0
  6
SLD-Durchgehend
 62
     8
370
     0
100
AcDbLine
 10
146.9834135585
 20
52.8183773471
 30
0.0
 11
147.961748639
 21
52.5331585018
 31
0.0
  0
ARC
  5
3A8
330
1F
100
AcDbEntity
  8
0
  6
SLD-Durchgehend
 62
     8
370
     0
100
AcDbCircle
 10
180.0662623084
 20
53.8923789958
 30
0.0
 40
33.10027735457335
100
AcDbArc
 50
181.8593972373
 51
186.0981986022
  0
LINE
  5
3A9
330
1F
100
AcDbEntity
  8
0
  6
SLD-Durchgehend
 62
     8
370
     0
100
AcDbLine
 10
150.0331625599
 20
49.001282498
 30
0.0
 11
147.1532900024
 21
50.3760435544
 31
0.0
  0
LINE
  5
3AA
330
1F
100
AcDbEntity
  8
0
  6
SLD-Durchgehend
 62
     8
370
     0
100
AcDbLine
 10
150.0618134686
 20
49.7756934224
 30
0.0
 11
150.0331625599
 21
49.001282498
 31
0.0
  0
SPLINE
  5
3AB
330
1F
100
AcDbEntity
  8
0
  6
SLD-Durchgehend
 62
     8
370
     0
100
AcDbSpline
210
0.0
220
0.0
230
1.0
 70
     8
 71
     3
 72
    10
 73
     6
 74
     0
 42
0.000000001
 43
0.00000001
 40
0.0
 40
0.0
 40
0.0
 40
0.0
 40
0.2502502689757212
 40
0.5005656238639931
 40
1.0
 40
1.0
 40
1.0
 40
1.0
 10
149.6094675432987
 20
50.58048695176788
 30
0.0
 10
149.6204450462064
 20
50.51034317862602
 30
0.0
 10
149.642402907087
 20
50.37003738911922
 30
0.0
 10
149.7805536894378
 20
50.08262755704349
 30
0.0
 10
149.9493634290058
 20
49.89840828656701
 30
0.0
 10
150.0618134686364
 20
49.77569342237233
 30
0.0
  0
SPLINE
  5
3AC
330
1F
100
AcDbEntity
  8
0
  6
SLD-Durchgehend
 62
     8
370
     0
100
AcDbSpline
210
0.0
220
0.0
230
1.0
 70
     8
 71
     3
 72
    13
 73
     9
 74
     0
 42
0.000000001
 43
0.00000001
 40
0.0
 40
0.0
 40
0.0
 40
0.0
 40
0.2501693034355922
 40
0.3775225692168834
 40
0.5005120770233693
 40
0.6256738527143393
 40
0.7508161634529746
 40
1.0
 40
1.0
 40
1.0
 40
1.0
 10
150.3847115831783
 20
51.0488541380105
 30
0.0
 10
150.2814972194343
 20
51.07413414275977
 30
0.0
 10
150.1257396934486
 20
51.11228339693162
 30
0.0
 10
149.9339904413787
 20
51.10057632786655
 30
0.0
 10
149.8058071734254
 20
51.05795631943791
 30
0.0
 10
149.7089758942052
 20
50.97458288412391
 30
0.0
 10
149.6122090190212
 20
50.8297865874036
 30
0.0
 10
149.6105631655919
 20
50.68011878007579
 30
0.0
 10
149.6094675432987
 20
50.58048695176788
 30
0.0
  0
SPLINE
  5
3AD
330
1F
100
AcDbEntity
  8
0
  6
SLD-Durchgehend
 62
     8
370
     0
100
AcDbSpline
210
0.0
220
0.0
230
1.0
 70
     8
 71
     3
 72
    13
 73
     9
 74
     0
 42
0.000000001
 43
0.00000001
 40
0.0
 40
0.0
 40
0.0
 40
0.0
 40
0.2491947870767645
 40
0.3743678815203366
 40
0.4995738371385046
 40
0.6247045557809026
 40
0.749858764577027
 40
1.0
 40
1.0
 40
1.0
 40
1.0
 10
151.3108065334346
 20
50.01532885513668
 30
0.0
 10
151.2921394044503
 20
50.12769862237514
 30
0.0
 10
151.2640955853403
 20
50.29651287487808
 30
0.0
 10
151.1380305098895
 20
50.52038801816845
 30
0.0
 10
151.021780627505
 20
50.67816922650257
 30
0.0
 10
150.8767726170658
 20
50.811785645474
 30
0.0
 10
150.6639773745647
 20
50.95300600607232
 30
0.0
 10
150.4964029699206
 20
51.01052000936662
 30
0.0
 10
150.3847115831783
 20
51.0488541380105
 30
0.0
  0
SPLINE
  5
3AE
330
1F
100
AcDbEntity
  8
0
  6
SLD-Durchgehend
 62
     8
370
     0
100
AcDbSpline
210
0.0
220
0.0
230
1.0
 70
     8
 71
     3
 72
    11
 73
     7
 74
     0
 42
0.000000001
 43
0.00000001
 40
0.0
 40
0.0
 40
0.0
 40
0.0
 40
0.2506819054077426
 40
0.5006663893264894
 40
0.75045541161258
 40
1.0
 40
1.0
 40
1.0
 40
1.0
 10
150.5968916459022
 20
49.4927519131055
 30
0.0
 10
150.6948119211411
 20
49.48145264056872
 30
0.0
 10
150.8903800478711
 20
49.45888553117243
 30
0.0
 10
151.1303161892613
 20
49.54742572390655
 30
0.0
 10
151.2983749400269
 20
49.73052332497975
 30
0.0
 10
151.306664021523
 20
49.92042466526629
 30
0.0
 10
151.3108065334346
 20
50.01532885513668
 30
0.0
  0
LINE
  5
3AF
330
1F
100
AcDbEntity
  8
0
  6
SLD-Durchgehend
 62
     8
370
     0
100
AcDbLine
 10
150.801012344
 20
48.6602315917
 30
0.0
 11
150.5968916459
 21
49.4927519131
 31
0.0
  0
SPLINE
  5
3B0
330
1F
100
AcDbEntity
  8
0
  6
SLD-Durchgehend
 62
     8
370
     0
100
AcDbSpline
210
0.0
220
0.0
230
1.0
 70
     8
 71
     3
 72
    12
 73
     8
 74
     0
 42
0.000000001
 43
0.00000001
 40
0.0
 40
0.0
 40
0.0
 40
0.0
 40
0.2498693082052738
 40
0.3748037100585387
 40
0.5004538838038111
 40
0.7499181227166223
 40
1.0
 40
1.0
 40
1.0
 40
1.0
 10
152.1555479450523
 20
49.80799780743422
 30
0.0
 10
152.1571165883483
 20
49.60929136488519
 30
0.0
 10
152.1594695517088
 20
49.31123190166083
 30
0.0
 10
152.0179131047412
 20
49.00008996365449
 30
0.0
 10
151.8005117278782
 20
48.75971483237572
 30
0.0
 10
151.4007818911037
 20
48.5926327180287
 30
0.0
 10
151.0011002483793
 20
48.63768006834164
 30
0.0
 10
150.8010123440045
 20
48.6602315917499
 30
0.0
  0
SPLINE
  5
3B1
330
1F
100
AcDbEntity
  8
0
  6
SLD-Durchgehend
 62
     8
370
     0
100
AcDbSpline
210
0.0
220
0.0
230
1.0
 70
     8
 71
     3
 72
    12
 73
     8
 74
     0
 42
0.000000001
 43
0.00000001
 40
0.0
 40
0.0
 40
0.0
 40
0.0
 40
0.2499938156585554
 40
0.499781266887781
 40
0.7496131788297377
 40
0.8747815571684162
 40
1.0
 40
1.0
 40
1.0
 40
1.0
 10
151.4225019710142
 20
51.3584975154965
 30
0.0
 10
151.5262384891461
 20
51.24311057574868
 30
0.0
 10
151.733625893182
 20
51.01243194564916
 30
0.0
 10
151.9615780798939
 20
50.6112425740688
 30
0.0
 10
152.0811050254995
 20
50.2695943130885
 30
0.0
 10
152.135684836393
 20
50.00234913170661
 30
0.0
 10
152.1489260263134
 20
49.87279021723261
 30
0.0
 10
152.1555479450523
 20
49.80799780743422
 30
0.0
  0
LINE
  5
3B2
330
1F
100
AcDbEntity
  8
0
  6
SLD-Durchgehend
 62
     8
370
     0
100
AcDbLine
 10
153.0766748473
 20
62.4695667378
 30
0.0
 11
149.3504361909
 21
61.135102875
 31
0.0
  0
ARC
  5
3B3
330
1F
100
AcDbEntity
  8
0
  6
SLD-Durchgehend
 62
     8
370
     0
100
AcDbCircle
 10
206.9664901108
 20
51.0473738243
 30
0.0
 40
55.08701008482295
100
AcDbArc
 50
166.7508815554
 51
168.033004345
  0
LINE
  5
3B4
330
1F
100
AcDbEntity
  8
0
  6
SLD-Durchgehend
 62
     8
370
     0
100
AcDbLine
 10
148.2583959856
 20
65.155652346
 30
0.0
 11
153.3457428263
 21
63.6725130608
 31
0.0
  0
ARC
  5
3B5
330
1F
100
AcDbEntity
  8
0
  6
SLD-Durchgehend
 62
     8
370
     0
100
AcDbCircle
 10
201.9054750256
 20
52.5245192224
 30
0.0
 40
55.11401467426504
100
AcDbArc
 50
166.7510900006
 51
167.9422420442
  0
LINE
  5
3B6
330
1F
100
AcDbEntity
  8
0
  6
SLD-Durchgehend
 62
     8
370
     0
100
AcDbLine
 10
151.3500591764
 20
63.063207614
 30
0.0
 11
148.0074124754
 21
64.0377058729
 31
0.0
  0
LINE
  5
3B7
330
1F
100
AcDbEntity
  8
0
  6
SLD-Durchgehend
 62
     8
370
     0
100
AcDbLine
 10
147.5631087901
 20
61.7083656908
 30
0.0
 11
151.3500591764
 21
63.063207614
 31
0.0
  0
ARC
  5
3B8
330
1F
100
AcDbEntity
  8
0
  6
SLD-Durchgehend
 62
     8
370
     0
100
AcDbCircle
 10
198.5400857592
 20
53.1536098552
 30
0.0
 40
51.68980584520647
100
AcDbArc
 50
170.4736137996
 51
171.77238535
  0
LINE
  5
3B9
330
1F
100
AcDbEntity
  8
0
  6
SLD-Durchgehend
 62
     8
370
     0
100
AcDbLine
 10
152.4696506164
 20
59.0675896598
 30
0.0
 11
147.3823037756
 21
60.5507289449
 31
0.0
  0
ARC
  5
3BA
330
1F
100
AcDbEntity
  8
0
  6
SLD-Durchgehend
 62
     8
370
     0
100
AcDbCircle
 10
203.59145361
 20
51.6759777118
 30
0.0
 40
51.6534090696047
100
AcDbArc
 50
170.5290040746
 51
171.7727199519
  0
LINE
  5
3BB
330
1F
100
AcDbEntity
  8
0
  6
SLD-Durchgehend
 62
     8
370
     0
100
AcDbLine
 10
149.3504361909
 20
61.135102875
 30
0.0
 11
152.6421308681
 21
60.1754589106
 31
0.0
  0
LINE
  5
3BC
330
1F
100
AcDbEntity
  8
0
  6
SLD-Durchgehend
 62
     8
370
     0
100
AcDbLine
 10
166.4980817163
 20
81.991206194
 30
0.0
 11
166.4748672945
 21
82.1465666414
 31
0.0
  0
LINE
  5
3BD
330
1F
100
AcDbEntity
  8
0
  6
SLD-Durchgehend
 62
     8
370
     0
100
AcDbLine
 10
167.3171463832
 20
83.0725052837
 30
0.0
 11
167.3379081216
 21
82.9144468821
 31
0.0
  0
SPLINE
  5
3BE
330
1F
100
AcDbEntity
  8
0
  6
SLD-Durchgehend
 62
     8
370
     0
100
AcDbSpline
210
0.0
220
0.0
230
1.0
 70
     8
 71
     3
 72
    11
 73
     7
 74
     0
 42
0.000000001
 43
0.00000001
 40
0.0
 40
0.0
 40
0.0
 40
0.0
 40
0.2499175041386375
 40
0.4994503500610333
 40
0.7491691391242924
 40
1.0
 40
1.0
 40
1.0
 40
1.0
 10
147.7672266761733
 20
55.17157432577343
 30
0.0
 10
147.7716055705079
 20
55.09608082449829
 30
0.0
 10
147.7803566194423
 20
54.94521001707262
 30
0.0
 10
147.8848704573179
 20
54.7178787529021
 30
0.0
 10
148.056122517073
 20
54.54091968707515
 30
0.0
 10
148.1859806495595
 20
54.45652292756508
 30
0.0
 10
148.2510539687943
 20
54.4142307956145
 30
0.0
  0
LINE
  5
3BF
330
1F
100
AcDbEntity
  8
0
  6
SLD-Durchgehend
 62
     8
370
     0
100
AcDbLine
 10
148.2510539688
 20
54.4142307956
 30
0.0
 11
149.4802287577
 21
53.9401867387
 31
0.0
  0
SPLINE
  5
3C0
330
1F
100
AcDbEntity
  8
0
  6
SLD-Durchgehend
 62
     8
370
     0
100
AcDbSpline
210
0.0
220
0.0
230
1.0
 70
     8
 71
     3
 72
    13
 73
     9
 74
     0
 42
0.000000001
 43
0.00000001
 40
0.0
 40
0.0
 40
0.0
 40
0.0
 40
0.5006355008699791
 40
0.6257757809723995
 40
0.7507894098485065
 40
0.8132241772160115
 40
0.875695929393808
 40
1.0
 40
1.0
 40
1.0
 40
1.0
 10
149.480228757736
 20
53.94018673868958
 30
0.0
 10
149.8261410911461
 20
53.83672959767781
 30
0.0
 10
150.2585186596795
 20
53.7074120141239
 30
0.0
 10
150.7618455721445
 20
53.69308862690596
 30
0.0
 10
150.9616992156207
 20
53.73004153886563
 30
0.0
 10
151.0961963511213
 20
53.81064278190794
 30
0.0
 10
151.1918036954295
 20
53.94160015767712
 30
0.0
 10
151.2111431179395
 20
54.07501146466648
 30
0.0
 10
151.2240139965434
 20
54.1638000898562
 30
0.0
  0
SPLINE
  5
3C1
330
1F
100
AcDbEntity
  8
0
  6
SLD-Durchgehend
 62
     8
370
     0
100
AcDbSpline
210
0.0
220
0.0
230
1.0
 70
     8
 71
     3
 72
    11
 73
     7
 74
     0
 42
0.000000001
 43
0.00000001
 40
0.0
 40
0.0
 40
0.0
 40
0.0
 40
0.2499400448447094
 40
0.4994145985225142
 40
0.7491443093018015
 40
1.0
 40
1.0
 40
1.0
 40
1.0
 10
151.2240139965434
 20
54.1638000898562
 30
0.0
 10
151.2199328343476
 20
54.23945724773915
 30
0.0
 10
151.2117781107588
 20
54.39063065875833
 30
0.0
 10
151.1103392183373
 20
54.62005263041701
 30
0.0
 10
150.9423379021769
 20
54.79913348214755
 30
0.0
 10
150.8138308443682
 20
54.88442921040696
 30
0.0
 10
150.74943278831
 20
54.92717300349995
 30
0.0
  0
LINE
  5
3C2
330
1F
100
AcDbEntity
  8
0
  6
SLD-Durchgehend
 62
     8
370
     0
100
AcDbLine
 10
150.7494327883
 20
54.9271730035
 30
0.0
 11
149.5281690572
 21
55.4025280473
 31
0.0
  0
SPLINE
  5
3C3
330
1F
100
AcDbEntity
  8
0
  6
SLD-Durchgehend
 62
     8
370
     0
100
AcDbSpline
210
0.0
220
0.0
230
1.0
 70
     8
 71
     3
 72
    13
 73
     9
 74
     0
 42
0.000000001
 43
0.00000001
 40
0.0
 40
0.0
 40
0.0
 40
0.0
 40
0.5006603764118615
 40
0.6257926230163593
 40
0.7507590002412434
 40
0.8132373175471777
 40
0.8757064149490591
 40
1.0
 40
1.0
 40
1.0
 40
1.0
 10
149.5281690572159
 20
55.4025280472941
 30
0.0
 10
149.1816380710103
 20
55.50695497765833
 30
0.0
 10
148.7484970735776
 20
55.63748178933559
 30
0.0
 10
148.2411206021435
 20
55.64596460279409
 30
0.0
 10
148.0376029621629
 20
55.60899078566391
 30
0.0
 10
147.9010195307721
 20
55.52573199838832
 30
0.0
 10
147.800701672222
 20
55.39479947021932
 30
0.0
 10
147.780602800377
 20
55.26077186453178
 30
0.0
 10
147.7672266761733
 20
55.17157432577343
 30
0.0
  0
LINE
  5
3C4
330
1F
100
AcDbEntity
  8
0
  6
SLD-Durchgehend
 62
     8
370
     0
100
AcDbLine
 10
166.6535104103
 20
82.7613816829
 30
0.0
 11
166.6327525383
 21
82.9194106493
 31
0.0
  0
LINE
  5
3C5
330
1F
100
AcDbEntity
  8
0
  6
SLD-Durchgehend
 62
     8
370
     0
100
AcDbLine
 10
154.7622797352
 20
86.3800680605
 30
0.0
 11
154.7830376072
 21
86.2220390941
 31
0.0
  0
LWPOLYLINE
  5
3C6
330
1F
100
AcDbEntity
  8
0
  6
SLD-Durchgehend
 62
     8
370
     0
100
AcDbPolyline
 90
        8
 70
   128
 43
0.0
 10
32.007508661
 20
93.5571160202
 10
32.2179981089
 20
92.3998723649
 10
32.5274747727
 20
91.3721426808
 10
32.9308567412
 20
90.4908022822
 10
33.4215204269
 20
89.7703223624
 10
33.9914095456
 20
89.222533746
 10
34.6311663974
 20
88.8564312928
 10
34.7722351763
 20
88.803659272
  0
LWPOLYLINE
  5
3C7
330
1F
100
AcDbEntity
  8
0
  6
SLD-Durchgehend
 62
     8
370
     0
100
AcDbPolyline
 90
       19
 70
   128
 43
0.0
 10
41.4481508649
 20
111.8484333368
 10
40.7943546465
 20
111.9146739937
 10
40.0279680449
 20
111.8070188018
 10
39.2323290227
 20
111.5102132565
 10
38.4205020004
 20
111.0291292228
 10
37.6058169666
 20
110.3716681597
 10
36.8016512254
 20
109.5486248156
 10
36.0212091869
 20
108.5735126864
 10
35.2773055549
 20
107.4623444088
 10
34.5821552821
 20
106.2333648441
 10
33.9471724921
 20
104.9067535084
 10
33.3827840024
 20
103.5042931827
 10
32.8982568133
 20
102.0490124237
 10
32.5015467962
 20
100.5648076739
 10
32.1991680976
 20
99.0760486522
 10
31.9960858271
 20
97.6071811378
 10
31.8956341594
 20
96.1823235631
 10
31.8994626485
 20
94.8248718817
 10
32.007508661
 20
93.5571160202
  0
LINE
  5
3C8
330
1F
100
AcDbEntity
  8
0
  6
SLD-Durchgehend
 62
     8
370
     0
100
AcDbLine
 10
30.1012487645
 20
96.3736865081
 30
0.0
 11
31.6507765313
 21
95.9219450452
 31
0.0
  0
LINE
  5
3C9
330
1F
100
AcDbEntity
  8
0
  6
SLD-Durchgehend
 62
     8
370
     0
100
AcDbLine
 10
31.5741126576
 20
104.7283865029
 30
0.0
 11
30.1012487645
 21
96.3736865081
 31
0.0
  0
LINE
  5
3CA
330
1F
100
AcDbEntity
  8
0
  6
SLD-Durchgehend
 62
     8
370
     0
100
AcDbLine
 10
33.3743101043
 20
104.2035660733
 30
0.0
 11
31.5741126576
 21
104.7283865029
 31
0.0
  0
LWPOLYLINE
  5
3CB
330
1F
100
AcDbEntity
  8
0
  6
SLD-Durchgehend
 62
     8
370
     0
100
AcDbPolyline
 90
        7
 70
   128
 43
0.0
 10
31.3327749878
 20
104.8605198761
 10
31.3331940693
 20
104.8512972734
 10
31.3478709319
 20
104.829057947
 10
31.380893262
 20
104.8046913783
 10
31.430984414
 20
104.7791353994
 10
31.4962186655
 20
104.7533727677
 10
31.5741126576
 20
104.7283865029
  0
LWPOLYLINE
  5
3CC
330
1F
100
AcDbEntity
  8
0
  6
SLD-Durchgehend
 62
     8
370
     0
100
AcDbPolyline
 90
        7
 70
   128
 43
0.0
 10
29.8599108738
 20
96.5058194592
 10
29.8603301974
 20
96.4965971176
 10
29.8750070328
 20
96.4743579982
 10
29.9080291313
 20
96.4499910878
 10
29.9581205149
 20
96.4244354506
 10
30.0233547664
 20
96.3986728189
 10
30.1012487645
 20
96.3736865081
  0
LINE
  5
3CD
330
1F
100
AcDbEntity
  8
0
  6
SLD-Durchgehend
 62
     8
370
     0
100
AcDbLine
 10
31.7732938336
 20
105.1687839051
 30
0.0
 11
33.5638511107
 21
104.6467739217
 31
0.0
  0
ARC
  5
3CE
330
1F
100
AcDbEntity
  8
0
  6
SLD-Durchgehend
 62
     8
370
     0
100
AcDbCircle
 10
32.467512454
 20
104.5895643494
 30
0.0
 40
0.9041210021700583
100
AcDbArc
 50
140.16015379
 51
171.1676501448
  0
LINE
  5
3CF
330
1F
100
AcDbEntity
  8
0
  6
SLD-Durchgehend
 62
     8
370
     0
100
AcDbLine
 10
36.2758646348
 20
110.0259915056
 30
0.0
 11
31.7732938336
 21
105.1687839051
 31
0.0
  0
LINE
  5
3D0
330
1F
100
AcDbEntity
  8
0
  6
SLD-Durchgehend
 62
     8
370
     0
100
AcDbLine
 10
36.841905579
 20
109.8609708008
 30
0.0
 11
36.2758646348
 21
110.0259915056
 31
0.0
  0
ARC
  5
3D1
330
1F
100
AcDbEntity
  8
0
  6
SLD-Durchgehend
 62
     8
370
     0
100
AcDbCircle
 10
31.6593474644
 20
104.8932133681
 30
0.0
 40
0.298199423076503
100
AcDbArc
 50
67.5352691772
 51
132.341385251
  0
ARC
  5
3D2
330
1F
100
AcDbEntity
  8
0
  6
SLD-Durchgehend
 62
     8
370
     0
100
AcDbCircle
 10
36.1619182655
 20
109.7504209687
 30
0.0
 40
0.2981994230764988
100
AcDbArc
 50
67.5352691772
 51
132.341385251
  0
LINE
  5
3D3
330
1F
100
AcDbEntity
  8
0
  6
SLD-Durchgehend
 62
     8
370
     0
100
AcDbLine
 10
31.6605476772
 20
95.5391524473
 30
0.0
 11
30.1531435351
 21
95.9786134024
 31
0.0
  0
ARC
  5
3D4
330
1F
100
AcDbEntity
  8
0
  6
SLD-Durchgehend
 62
     8
370
     0
100
AcDbCircle
 10
30.5928545173
 20
96.2373164427
 30
0.0
 40
0.5101695903582466
100
AcDbArc
 50
164.4961338328
 51
210.4703386601
  0
LINE
  5
3D5
330
1F
100
AcDbEntity
  8
0
  6
SLD-Durchgehend
 62
     8
370
     0
100
AcDbLine
 10
30.1531435351
 20
95.9786134024
 30
0.0
 11
31.7343377853
 21
94.1532836838
 31
0.0
  0
ARC
  5
3D6
330
1F
100
AcDbEntity
  8
0
  6
SLD-Durchgehend
 62
     8
370
     0
100
AcDbCircle
 10
30.2539225137
 20
96.3358543884
 30
0.0
 40
0.3711839497865461
100
AcDbArc
 50
221.1430978052
 51
254.2460481303
  0
ARC
  5
3D7
330
1F
100
AcDbEntity
  8
0
  6
SLD-Durchgehend
 62
     8
370
     0
100
AcDbCircle
 10
36.4419670787
 20
109.9099598526
 30
0.0
 40
0.2026163033044255
100
AcDbArc
 50
82.7032176215
 51
145.0635920976
  0
ENDSEC
  0
SECTION
  2
OBJECTS
  0
DICTIONARY
  5
C
330
0
100
AcDbDictionary
281
     1
  3
ACAD_GROUP
350
D
  3
ACAD_LAYOUT
350
1A
  3
ACAD_MLINESTYLE
350
17
  3
ACAD_PLOTSETTINGS
350
19
  3
ACAD_PLOTSTYLENAME
350
E
  3
ACAD_SCALELIST
350
47
  0
DICTIONARY
  5
D
102
{ACAD_REACTORS
330
C
102
}
330
C
100
AcDbDictionary
281
     1
  0
DICTIONARY
  5
1A
102
{ACAD_REACTORS
330
C
102
}
330
C
100
AcDbDictionary
281
     1
  3
Layout1
350
1E
  3
Layout2
350
26
  3
Model
350
22
  0
DICTIONARY
  5
17
102
{ACAD_REACTORS
330
C
102
}
330
C
100
AcDbDictionary
281
     1
  3
Standard
350
18
  0
DICTIONARY
  5
19
102
{ACAD_REACTORS
330
C
102
}
330
C
100
AcDbDictionary
281
     1
  0
ACDBDICTIONARYWDFLT
  5
E
102
{ACAD_REACTORS
330
C
102
}
330
C
100
AcDbDictionary
281
     1
  3
Normal
350
F
100
AcDbDictionaryWithDefault
340
F
  0
DICTIONARY
  5
47
102
{ACAD_REACTORS
330
C
102
}
330
C
100
AcDbDictionary
281
     1
  3
A0
350
48
  3
A1
350
49
  3
A2
350
4A
  3
A3
350
4B
  3
A4
350
4C
  3
A5
350
4D
  3
A6
350
4E
  3
A7
350
4F
  3
A8
350
50
  3
A9
350
51
  3
B0
350
52
  3
B1
350
53
  3
B2
350
54
  3
B3
350
55
  3
B4
350
56
  3
B5
350
57
  3
B6
350
58
  3
B7
350
59
  3
B8
350
5A
  3
B9
350
5B
  3
C0
350
5C
  3
C1
350
5D
  3
C2
350
5E
  3
C3
350
5F
  3
C4
350
60
  3
C5
350
61
  3
C6
350
62
  3
C7
350
63
  3
C8
350
64
  3
C9
350
65
  3
D0
350
66
  3
D1
350
67
  3
D2
350
68
  0
LAYOUT
  5
1E
102
{ACAD_REACTORS
330
1A
102
}
330
1A
100
AcDbPlotSettings
  1

  2
none_device
  4

  6

 40
0.0
 41
0.0
 42
0.0
 43
0.0
 44
0.0
 45
0.0
 46
0.0
 47
0.0
 48
0.0
 49
0.0
140
0.0
141
0.0
142
1.0
143
1.0
 70
   688
 72
     1
 73
     0
 74
     5
  7

 75
    16
147
1.0
148
0.0
149
0.0
100
AcDbLayout
  1
Layout1
 70
     1
 71
     1
 10
0.0
 20
0.0
 11
420.0
 21
297.0
 12
0.0
 22
0.0
 32
0.0
 14
1.0000000000E+20
 24
1.0000000000E+20
 34
1.0000000000E+20
 15
-1.0000000000E+20
 25
-1.0000000000E+20
 35
-1.0000000000E+20
146
0.0
 13
0.0
 23
0.0
 33
0.0
 16
1.0
 26
0.0
 36
0.0
 17
0.0
 27
1.0
 37
0.0
 76
     0
330
1B
  0
LAYOUT
  5
26
102
{ACAD_REACTORS
330
1A
102
}
330
1A
100
AcDbPlotSettings
  1

  2
none_device
  4

  6

 40
0.0
 41
0.0
 42
0.0
 43
0.0
 44
0.0
 45
0.0
 46
0.0
 47
0.0
 48
0.0
 49
0.0
140
0.0
141
0.0
142
1.0
143
1.0
 70
   688
 72
     1
 73
     0
 74
     5
  7

 75
    16
147
1.0
148
0.0
149
0.0
100
AcDbLayout
  1
Layout2
 70
     1
 71
     2
 10
0.0
 20
0.0
 11
0.0
 21
0.0
 12
0.0
 22
0.0
 32
0.0
 14
0.0
 24
0.0
 34
0.0
 15
0.0
 25
0.0
 35
0.0
146
0.0
 13
0.0
 23
0.0
 33
0.0
 16
1.0
 26
0.0
 36
0.0
 17
0.0
 27
1.0
 37
0.0
 76
     0
330
23
  0
LAYOUT
  5
22
102
{ACAD_REACTORS
330
1A
102
}
330
1A
100
AcDbPlotSettings
  1

  2
none_device
  4
Letter_(8.50_x_11.00_Inches)
  6

 40
6.35
 41
6.35
 42
6.35000508
 43
6.35000508
 44
215.9
 45
279.4
 46
0.0
 47
0.0
 48
0.0
 49
0.0
140
0.0
141
0.0
142
1.0
143
1.0
 70
  1712
 72
     1
 73
     0
 74
     0
  7

 75
     0
147
1.0
148
0.0
149
0.0
100
AcDbLayout
  1
Model
 70
     1
 71
     0
 10
0.0
 20
0.0
 11
420.0
 21
297.0
 12
0.0
 22
0.0
 32
0.0
 14
0.0
 24
0.0
 34
0.0
 15
420.0
 25
297.0
 35
0.0
146
0.0
 13
0.0
 23
0.0
 33
0.0
 16
1.0
 26
0.0
 36
0.0
 17
0.0
 27
1.0
 37
0.0
 76
     0
330
1F
331
29
  0
MLINESTYLE
  5
18
102
{ACAD_REACTORS
330
17
102
}
330
17
100
AcDbMlineStyle
  2
Standard
 70
     0
  3

 62
   256
 51
90.0
 52
90.0
 71
     2
 49
0.5
 62
   256
  6
BYLAYER
 49
-0.5
 62
   256
  6
BYLAYER
  0
ACDBPLACEHOLDER
  5
F
102
{ACAD_REACTORS
330
E
102
}
330
E
  0
SCALE
  5
48
102
{ACAD_REACTORS
330
47
102
}
330
47
100
AcDbScale
 70
     0
300
1:1
140
1.0
141
1.0
290
     1
  0
SCALE
  5
49
102
{ACAD_REACTORS
330
47
102
}
330
47
100
AcDbScale
 70
     0
300
1:2
140
1.0
141
2.0
290
     0
  0
SCALE
  5
4A
102
{ACAD_REACTORS
330
47
102
}
330
47
100
AcDbScale
 70
     0
300
1:4
140
1.0
141
4.0
290
     0
  0
SCALE
  5
4B
102
{ACAD_REACTORS
330
47
102
}
330
47
100
AcDbScale
 70
     0
300
1:5
140
1.0
141
5.0
290
     0
  0
SCALE
  5
4C
102
{ACAD_REACTORS
330
47
102
}
330
47
100
AcDbScale
 70
     0
300
1:8
140
1.0
141
8.0
290
     0
  0
SCALE
  5
4D
102
{ACAD_REACTORS
330
47
102
}
330
47
100
AcDbScale
 70
     0
300
1:10
140
1.0
141
10.0
290
     0
  0
SCALE
  5
4E
102
{ACAD_REACTORS
330
47
102
}
330
47
100
AcDbScale
 70
     0
300
1:16
140
1.0
141
16.0
290
     0
  0
SCALE
  5
4F
102
{ACAD_REACTORS
330
47
102
}
330
47
100
AcDbScale
 70
     0
300
1:20
140
1.0
141
20.0
290
     0
  0
SCALE
  5
50
102
{ACAD_REACTORS
330
47
102
}
330
47
100
AcDbScale
 70
     0
300
1:30
140
1.0
141
30.0
290
     0
  0
SCALE
  5
51
102
{ACAD_REACTORS
330
47
102
}
330
47
100
AcDbScale
 70
     0
300
1:40
140
1.0
141
40.0
290
     0
  0
SCALE
  5
52
102
{ACAD_REACTORS
330
47
102
}
330
47
100
AcDbScale
 70
     0
300
1:50
140
1.0
141
50.0
290
     0
  0
SCALE
  5
53
102
{ACAD_REACTORS
330
47
102
}
330
47
100
AcDbScale
 70
     0
300
1:100
140
1.0
141
100.0
290
     0
  0
SCALE
  5
54
102
{ACAD_REACTORS
330
47
102
}
330
47
100
AcDbScale
 70
     0
300
2:1
140
2.0
141
1.0
290
     0
  0
SCALE
  5
55
102
{ACAD_REACTORS
330
47
102
}
330
47
100
AcDbScale
 70
     0
300
4:1
140
4.0
141
1.0
290
     0
  0
SCALE
  5
56
102
{ACAD_REACTORS
330
47
102
}
330
47
100
AcDbScale
 70
     0
300
8:1
140
8.0
141
1.0
290
     0
  0
SCALE
  5
57
102
{ACAD_REACTORS
330
47
102
}
330
47
100
AcDbScale
 70
     0
300
10:1
140
10.0
141
1.0
290
     0
  0
SCALE
  5
58
102
{ACAD_REACTORS
330
47
102
}
330
47
100
AcDbScale
 70
     0
300
100:1
140
100.0
141
1.0
290
     0
  0
SCALE
  5
59
102
{ACAD_REACTORS
330
47
102
}
330
47
100
AcDbScale
 70
     0
300
1/128" = 1'-0"
140
0.0078125
141
12.0
290
     0
  0
SCALE
  5
5A
102
{ACAD_REACTORS
330
47
102
}
330
47
100
AcDbScale
 70
     0
300
1/64" = 1'-0"
140
0.015625
141
12.0
290
     0
  0
SCALE
  5
5B
102
{ACAD_REACTORS
330
47
102
}
330
47
100
AcDbScale
 70
     0
300
1/32" = 1'-0"
140
0.03125
141
12.0
290
     0
  0
SCALE
  5
5C
102
{ACAD_REACTORS
330
47
102
}
330
47
100
AcDbScale
 70
     0
300
1/16" = 1'-0"
140
0.0625
141
12.0
290
     0
  0
SCALE
  5
5D
102
{ACAD_REACTORS
330
47
102
}
330
47
100
AcDbScale
 70
     0
300
3/32" = 1'-0"
140
0.09375
141
12.0
290
     0
  0
SCALE
  5
5E
102
{ACAD_REACTORS
330
47
102
}
330
47
100
AcDbScale
 70
     0
300
1/8" = 1'-0"
140
0.125
141
12.0
290
     0
  0
SCALE
  5
5F
102
{ACAD_REACTORS
330
47
102
}
330
47
100
AcDbScale
 70
     0
300
3/16" = 1'-0"
140
0.1875
141
12.0
290
     0
  0
SCALE
  5
60
102
{ACAD_REACTORS
330
47
102
}
330
47
100
AcDbScale
 70
     0
300
1/4" = 1'-0"
140
0.25
141
12.0
290
     0
  0
SCALE
  5
61
102
{ACAD_REACTORS
330
47
102
}
330
47
100
AcDbScale
 70
     0
300
3/8" = 1'-0"
140
0.375
141
12.0
290
     0
  0
SCALE
  5
62
102
{ACAD_REACTORS
330
47
102
}
330
47
100
AcDbScale
 70
     0
300
1/2" = 1'-0"
140
0.5
141
12.0
290
     0
  0
SCALE
  5
63
102
{ACAD_REACTORS
330
47
102
}
330
47
100
AcDbScale
 70
     0
300
3/4" = 1'-0"
140
0.75
141
12.0
290
     0
  0
SCALE
  5
64
102
{ACAD_REACTORS
330
47
102
}
330
47
100
AcDbScale
 70
     0
300
1" = 1'-0"
140
1.0
141
12.0
290
     0
  0
SCALE
  5
65
102
{ACAD_REACTORS
330
47
102
}
330
47
100
AcDbScale
 70
     0
300
1-1/2" = 1'-0"
140
1.5
141
12.0
290
     0
  0
SCALE
  5
66
102
{ACAD_REACTORS
330
47
102
}
330
47
100
AcDbScale
 70
     0
300
3" = 1'-0"
140
3.0
141
12.0
290
     0
  0
SCALE
  5
67
102
{ACAD_REACTORS
330
47
102
}
330
47
100
AcDbScale
 70
     0
300
6" = 1'-0"
140
6.0
141
12.0
290
     0
  0
SCALE
  5
68
102
{ACAD_REACTORS
330
47
102
}
330
47
100
AcDbScale
 70
     0
300
1'-0" = 1'-0"
140
12.0
141
12.0
290
     0
  0
ENDSEC
  0
EOF
