  0
SECTION
  2
HEADER
  9
$ACADVER
  1
AC1015
  9
$ACADMAINTVER
 70
     6
  9
$DWGCODEPAGE
  3
ANSI_1252
  9
$INSBASE
 10
0.0
 20
0.0
 30
0.0
  9
$EXTMIN
 10
0.0
 20
0.0
 30
0.0
  9
$EXTMAX
 10
210.0
 20
297.0
 30
0.0
  9
$LIMMIN
 10
0.0
 20
0.0
  9
$LIMMAX
 10
210.0
 20
297.0
  9
$ORTHOMODE
 70
     0
  9
$REGENMODE
 70
     1
  9
$FILLMODE
 70
     1
  9
$QTEXTMODE
 70
     0
  9
$MIRRTEXT
 70
     1
  9
$LTSCALE
 40
1.0
  9
$ATTMODE
 70
     1
  9
$TEXTSIZE
 40
3.0
  9
$TRACEWID
 40
1.0
  9
$TEXTSTYLE
  7
STANDARD
  9
$CLAYER
  8
0
  9
$CELTYPE
  6
ByLayer
  9
$CECOLOR
 62
   256
  9
$CELTSCALE
 40
1.0
  9
$DISPSILH
 70
     0
  9
$DIMSCALE
 40
1.0
  9
$DIMASZ
 40
3.5
  9
$DIMEXO
 40
1.0
  9
$DIMDLI
 40
3.75
  9
$DIMRND
 40
0.0
  9
$DIMDLE
 40
0.0
  9
$DIMEXE
 40
1.0
  9
$DIMTP
 40
0.0
  9
$DIMTM
 40
0.0
  9
$DIMTXT
 40
3.0
  9
$DIMCEN
 40
2.5
  9
$DIMTSZ
 40
0.0
  9
$DIMTOL
 70
     0
  9
$DIMLIM
 70
     0
  9
$DIMTIH
 70
     1
  9
$DIMTOH
 70
     1
  9
$DIMSE1
 70
     0
  9
$DIMSE2
 70
     0
  9
$DIMTAD
 70
     1
  9
$DIMZIN
 70
     0
  9
$DIMBLK
  1

  9
$DIMASO
 70
     1
  9
$DIMSHO
 70
     1
  9
$DIMPOST
  1

  9
$DIMAPOST
  1

  9
$DIMALT
 70
     0
  9
$DIMALTD
 70
     3
  9
$DIMALTF
 40
0.0393700787
  9
$DIMLFAC
 40
1.0
  9
$DIMTOFL
 70
     1
  9
$DIMTVP
 40
0.0
  9
$DIMTIX
 70
     0
  9
$DIMSOXD
 70
     0
  9
$DIMSAH
 70
     0
  9
$DIMBLK1
  1

  9
$DIMBLK2
  1

  9
$DIMSTYLE
  2
ISO-25
  9
$DIMCLRD
 70
     0
  9
$DIMCLRE
 70
     0
  9
$DIMCLRT
 70
     0
  9
$DIMTFAC
 40
1.0
  9
$DIMGAP
 40
1.524
  9
$DIMJUST
 70
     0
  9
$DIMSD1
 70
     0
  9
$DIMSD2
 70
     0
  9
$DIMTOLJ
 70
     0
  9
$DIMTZIN
 70
     0
  9
$DIMALTZ
 70
     0
  9
$DIMALTTZ
 70
     0
  9
$DIMUPT
 70
     0
  9
$DIMDEC
 70
     3
  9
$DIMTDEC
 70
     3
  9
$DIMALTU
 70
     2
  9
$DIMALTTD
 70
     3
  9
$DIMTXSTY
  7
STANDARD
  9
$DIMAUNIT
 70
     0
  9
$DIMADEC
 70
     3
  9
$DIMALTRND
 40
0.0
  9
$DIMAZIN
 70
     0
  9
$DIMDSEP
 70
    44
  9
$DIMATFIT
 70
     3
  9
$DIMFRAC
 70
     0
  9
$DIMLDRBLK
  1

  9
$DIMLUNIT
 70
     2
  9
$DIMLWD
 70
    -2
  9
$DIMLWE
 70
    -2
  9
$DIMTMOVE
 70
     0
  9
$LUNITS
 70
     2
  9
$LUPREC
 70
     3
  9
$SKETCHINC
 40
1.0
  9
$FILLETRAD
 40
10.0
  9
$AUNITS
 70
     0
  9
$AUPREC
 70
     3
  9
$MENU
  1
.
  9
$ELEVATION
 40
0.0
  9
$PELEVATION
 40
0.0
  9
$THICKNESS
 40
0.0
  9
$LIMCHECK
 70
     0
  9
$CHAMFERA
 40
0.0
  9
$CHAMFERB
 40
0.0
  9
$CHAMFERC
 40
0.0
  9
$CHAMFERD
 40
0.0
  9
$SKPOLY
 70
     0
  9
$TDCREATE
 40
2459597.646069954
  9
$TDUCREATE
 40
2459597.604403287
  9
$TDUPDATE
 40
2459597.646072998
  9
$TDUUPDATE
 40
2459597.604406331
  9
$TDINDWG
 40
0.0000000116
  9
$TDUSRTIMER
 40
0.0000000116
  9
$USRTIMER
 70
     1
  9
$ANGBASE
 50
0.0
  9
$ANGDIR
 70
     0
  9
$PDMODE
 70
     0
  9
$PDSIZE
 40
-1.0
  9
$PLINEWID
 40
0.0
  9
$SPLFRAME
 70
     0
  9
$SPLINETYPE
 70
     6
  9
$SPLINESEGS
 70
     8
  9
$HANDSEED
  5
45F
  9
$SURFTAB1
 70
     6
  9
$SURFTAB2
 70
     6
  9
$SURFTYPE
 70
     6
  9
$SURFU
 70
     6
  9
$SURFV
 70
     6
  9
$UCSBASE
  2

  9
$UCSNAME
  2

  9
$UCSORG
 10
0.0
 20
0.0
 30
0.0
  9
$UCSXDIR
 10
1.0
 20
0.0
 30
0.0
  9
$UCSYDIR
 10
0.0
 20
1.0
 30
0.0
  9
$UCSORTHOREF
  2

  9
$UCSORTHOVIEW
 70
     0
  9
$UCSORGTOP
 10
0.0
 20
0.0
 30
0.0
  9
$UCSORGBOTTOM
 10
0.0
 20
0.0
 30
0.0
  9
$UCSORGLEFT
 10
0.0
 20
0.0
 30
0.0
  9
$UCSORGRIGHT
 10
0.0
 20
0.0
 30
0.0
  9
$UCSORGFRONT
 10
0.0
 20
0.0
 30
0.0
  9
$UCSORGBACK
 10
0.0
 20
0.0
 30
0.0
  9
$PUCSBASE
  2

  9
$PUCSNAME
  2

  9
$PUCSORG
 10
0.0
 20
0.0
 30
0.0
  9
$PUCSXDIR
 10
1.0
 20
0.0
 30
0.0
  9
$PUCSYDIR
 10
0.0
 20
1.0
 30
0.0
  9
$PUCSORTHOREF
  2

  9
$PUCSORTHOVIEW
 70
     0
  9
$PUCSORGTOP
 10
0.0
 20
0.0
 30
0.0
  9
$PUCSORGBOTTOM
 10
0.0
 20
0.0
 30
0.0
  9
$PUCSORGLEFT
 10
0.0
 20
0.0
 30
0.0
  9
$PUCSORGRIGHT
 10
0.0
 20
0.0
 30
0.0
  9
$PUCSORGFRONT
 10
0.0
 20
0.0
 30
0.0
  9
$PUCSORGBACK
 10
0.0
 20
0.0
 30
0.0
  9
$USERI1
 70
     0
  9
$USERI2
 70
     0
  9
$USERI3
 70
     0
  9
$USERI4
 70
     0
  9
$USERI5
 70
     0
  9
$USERR1
 40
0.0
  9
$USERR2
 40
0.0
  9
$USERR3
 40
0.0
  9
$USERR4
 40
0.0
  9
$USERR5
 40
0.0
  9
$WORLDVIEW
 70
     1
  9
$SHADEDGE
 70
     3
  9
$SHADEDIF
 70
    70
  9
$TILEMODE
 70
     1
  9
$MAXACTVP
 70
    64
  9
$PINSBASE
 10
0.0
 20
0.0
 30
0.0
  9
$PLIMCHECK
 70
     0
  9
$PEXTMIN
 10
1.0000000000E+20
 20
1.0000000000E+20
 30
1.0000000000E+20
  9
$PEXTMAX
 10
-1.0000000000E+20
 20
-1.0000000000E+20
 30
-1.0000000000E+20
  9
$PLIMMIN
 10
0.0
 20
0.0
  9
$PLIMMAX
 10
420.0
 20
297.0
  9
$UNITMODE
 70
     0
  9
$VISRETAIN
 70
     1
  9
$PLINEGEN
 70
     0
  9
$PSLTSCALE
 70
     1
  9
$TREEDEPTH
 70
  3020
  9
$CMLSTYLE
  2
Standard
  9
$CMLJUST
 70
     0
  9
$CMLSCALE
 40
20.0
  9
$PROXYGRAPHICS
 70
     1
  9
$MEASUREMENT
 70
     1
  9
$CELWEIGHT
370
    -1
  9
$ENDCAPS
280
     0
  9
$JOINSTYLE
280
     0
  9
$LWDISPLAY
290
     1
  9
$INSUNITS
 70
     4
  9
$HYPERLINKBASE
  1

  9
$STYLESHEET
  1

  9
$XEDIT
290
     1
  9
$CEPSNTYPE
380
     0
  9
$PSTYLEMODE
290
     1
  9
$FINGERPRINTGUID
  2
{A06897EA-73FA-492B-9A8D-18F6561630BF}
  9
$VERSIONGUID
  2
{FAEB1C32-E019-11D5-929B-00C0DF256EC4}
  9
$EXTNAMES
290
     1
  9
$PSVPSCALE
 40
0.0
  9
$OLESTARTUP
290
     0
  0
ENDSEC
  0
SECTION
  2
CLASSES
  0
CLASS
  1
ACDBDICTIONARYWDFLT
  2
AcDbDictionaryWithDefault
  3
ObjectDBX Classes
 90
        0
280
     0
281
     0
  0
CLASS
  1
VISUALSTYLE
  2
AcDbVisualStyle
  3
ObjectDBX Classes
 90
     4095
280
     0
281
     0
  0
CLASS
  1
MATERIAL
  2
AcDbMaterial
  3
ObjectDBX Classes
 90
     1153
280
     0
281
     0
  0
CLASS
  1
SCALE
  2
AcDbScale
  3
ObjectDBX Classes
 90
     1153
280
     0
281
     0
  0
CLASS
  1
TABLESTYLE
  2
AcDbTableStyle
  3
ObjectDBX Classes
 90
     4095
280
     0
281
     0
  0
CLASS
  1
MLEADERSTYLE
  2
AcDbMLeaderStyle
  3
ACDB_MLEADERSTYLE_CLASS
 90
     4095
280
     0
281
     0
  0
CLASS
  1
SUN
  2
AcDbSun
  3
SCENEOE
 90
     1153
280
     0
281
     0
  0
CLASS
  1
ACDBPLACEHOLDER
  2
AcDbPlaceHolder
  3
ObjectDBX Classes
 90
        0
280
     0
281
     0
  0
CLASS
  1
LAYOUT
  2
AcDbLayout
  3
ObjectDBX Classes
 90
        0
280
     0
281
     0
  0
ENDSEC
  0
SECTION
  2
TABLES
  0
TABLE
  2
VPORT
  5
8
330
0
100
AcDbSymbolTable
 70
     1
  0
VPORT
  5
29
330
8
100
AcDbSymbolTableRecord
100
AcDbViewportTableRecord
  2
*Active
 70
     0
 10
0.0
 20
0.0
 11
1.0
 21
1.0
 12
105.0
 22
148.5
 13
0.0
 23
0.0
 14
10.0
 24
10.0
 15
10.0
 25
10.0
 16
0.0
 26
0.0
 36
1.0
 17
0.0
 27
0.0
 37
0.0
 40
297.0
 41
0.7070707071
 42
50.0
 43
0.0
 44
0.0
 50
0.0
 51
0.0
 71
     0
 72
  2000
 73
     1
 74
     3
 75
     0
 76
     0
 77
     0
 78
     0
281
     0
 65
     1
110
0.0
120
0.0
130
0.0
111
1.0
121
0.0
131
0.0
112
0.0
122
1.0
132
0.0
 79
     0
146
0.0
  0
ENDTAB
  0
TABLE
  2
LTYPE
  5
5
330
0
100
AcDbSymbolTable
 70
     8
  0
LTYPE
  5
14
330
5
100
AcDbSymbolTableRecord
100
AcDbLinetypeTableRecord
  2
ByBlock
 70
     0
  3

 72
    65
 73
     0
 40
0.0
  0
LTYPE
  5
15
330
5
100
AcDbSymbolTableRecord
100
AcDbLinetypeTableRecord
  2
ByLayer
 70
     0
  3

 72
    65
 73
     0
 40
0.0
  0
LTYPE
  5
16
330
5
100
AcDbSymbolTableRecord
100
AcDbLinetypeTableRecord
  2
Continuous
 70
     0
  3
Solid line
 72
    65
 73
     0
 40
0.0
  0
LTYPE
  5
6E
330
5
100
AcDbSymbolTableRecord
100
AcDbLinetypeTableRecord
  2
SLD-Durchgehend
 70
     0
  3
SolidWorks Line Style
 72
    65
 73
     0
 40
0.0
  0
LTYPE
  5
6F
330
5
100
AcDbSymbolTableRecord
100
AcDbLinetypeTableRecord
  2
SLD-Gestrichelt
 70
     0
  3
SolidWorks Line Style
 72
    65
 73
     2
 40
1.905
 49
1.27
 74
     0
 49
-0.635
 74
     0
  0
LTYPE
  5
70
330
5
100
AcDbSymbolTableRecord
100
AcDbLinetypeTableRecord
  2
SLD-Phantom
 70
     0
  3
SolidWorks Line Style
 72
    65
 73
     6
 40
12.7
 49
6.35
 74
     0
 49
-1.27
 74
     0
 49
1.27
 74
     0
 49
-1.27
 74
     0
 49
1.27
 74
     0
 49
-1.27
 74
     0
  0
LTYPE
  5
71
330
5
100
AcDbSymbolTableRecord
100
AcDbLinetypeTableRecord
  2
SLD-Kette
 70
     0
  3
SolidWorks Line Style
 72
    65
 73
     4
 40
10.16
 49
6.35
 74
     0
 49
-1.27
 74
     0
 49
1.27
 74
     0
 49
-1.27
 74
     0
  0
LTYPE
  5
72
330
5
100
AcDbSymbolTableRecord
100
AcDbLinetypeTableRecord
  2
SLD-Punktstrich
 70
     0
  3
SolidWorks Line Style
 72
    65
 73
     4
 40
19.05
 49
15.24
 74
     0
 49
-1.27
 74
     0
 49
1.27
 74
     0
 49
-1.27
 74
     0
  0
LTYPE
  5
73
330
5
100
AcDbSymbolTableRecord
100
AcDbLinetypeTableRecord
  2
SLD-Naht
 70
     0
  3
SolidWorks Line Style
 72
    65
 73
     2
 40
0.635
 49
0.0
 74
     0
 49
-0.635
 74
     0
  0
LTYPE
  5
74
330
5
100
AcDbSymbolTableRecord
100
AcDbLinetypeTableRecord
  2
SLD-Dicke-Dünne-Kette
 70
     0
  3
SolidWorks Line Style
 72
    65
 73
     4
 40
10.16
 49
6.35
 74
     0
 49
-1.27
 74
     0
 49
1.27
 74
     0
 49
-1.27
 74
     0
  0
ENDTAB
  0
TABLE
  2
LAYER
  5
2
330
0
100
AcDbSymbolTable
 70
     1
  0
LAYER
  5
10
330
2
100
AcDbSymbolTableRecord
100
AcDbLayerTableRecord
  2
0
 70
     0
 62
     7
  6
Continuous
370
    -3
390
F
  0
ENDTAB
  0
TABLE
  2
STYLE
  5
3
330
0
100
AcDbSymbolTable
 70
     5
  0
STYLE
  5
11
330
3
100
AcDbSymbolTableRecord
100
AcDbTextStyleTableRecord
  2
STANDARD
 70
     0
 40
0.0
 41
1.0
 50
0.0
 71
     0
 42
3.0
  3
ARIAL.TTF
  4

1001
ACAD
1000
ARIAL
1071
       34
  0
STYLE
  5
7C
330
3
100
AcDbSymbolTableRecord
100
AcDbTextStyleTableRecord
  2
SLDTEXTSTYLE0
 70
     0
 40
0.0
 41
0.948
 50
0.0
 71
     0
 42
3.0
  3
ARIAL.TTF
  4

1001
ACAD
1000
Arial
1071
      290
  0
STYLE
  5
D9
330
3
100
AcDbSymbolTableRecord
100
AcDbTextStyleTableRecord
  2
SLDTEXTSTYLE1
 70
     0
 40
0.0
 41
1.0
 50
0.0
 71
     0
 42
3.0
  3
HLHI___.TTF
  4

1001
ACAD
1000
Helvetica 65 Medium
1071
 50331938
  0
STYLE
  5
DB
330
3
100
AcDbSymbolTableRecord
100
AcDbTextStyleTableRecord
  2
SLDTEXTSTYLE2
 70
     0
 40
0.0
 41
1.0
 50
0.0
 71
     0
 42
3.0
  3
HLR____.TTF
  4

1001
ACAD
1000
Helvetica 55 Roman
1071
 16777506
  0
STYLE
  5
E9
330
3
100
AcDbSymbolTableRecord
100
AcDbTextStyleTableRecord
  2
SLDTEXTSTYLE3
 70
     0
 40
0.0
 41
0.948
 50
0.0
 71
     0
 42
3.0
  3
ARIALBD.TTF
  4

1001
ACAD
1000
Arial
1071
 33554722
  0
ENDTAB
  0
TABLE
  2
VIEW
  5
6
330
0
100
AcDbSymbolTable
 70
     0
  0
ENDTAB
  0
TABLE
  2
UCS
  5
7
330
0
100
AcDbSymbolTable
 70
     0
  0
ENDTAB
  0
TABLE
  2
APPID
  5
9
330
0
100
AcDbSymbolTable
 70
     1
  0
APPID
  5
12
330
9
100
AcDbSymbolTableRecord
100
AcDbRegAppTableRecord
  2
ACAD
 70
     0
  0
ENDTAB
  0
TABLE
  2
DIMSTYLE
  5
A
330
0
100
AcDbSymbolTable
 70
     6
100
AcDbDimStyleTable
  0
DIMSTYLE
105
27
330
A
100
AcDbSymbolTableRecord
100
AcDbDimStyleTableRecord
  2
ISO-25
 70
     0
 41
2.5
 42
0.625
 43
3.75
 44
1.25
 73
     0
 74
     0
 77
     1
 78
     8
140
2.5
141
2.5
143
0.0393700787
147
0.625
171
     3
172
     1
178
     0
271
     2
272
     2
274
     3
278
    44
283
     0
284
     8
340
11
  0
DIMSTYLE
105
1D5
102
{ACAD_REACTORS
330
1D4
330
1FF
330
217
330
222
330
25F
330
276
102
}
330
A
100
AcDbSymbolTableRecord
100
AcDbDimStyleTableRecord
  2
SLDDIMSTYLE0
 70
     0
 41
3.5
 44
0.0
 45
0.000000001
 73
     0
 74
     0
 77
     1
 78
    12
 79
     3
140
3.0
147
0.75
173
     1
178
     0
271
     3
272
     3
276
     2
284
    12
340
7C
  0
DIMSTYLE
105
1E0
102
{ACAD_REACTORS
330
1DF
102
}
330
A
100
AcDbSymbolTableRecord
100
AcDbDimStyleTableRecord
  2
SLDDIMSTYLE1
 70
     0
 41
3.5
 44
0.0
 45
0.000000001
 73
     0
 74
     0
 77
     1
 78
    12
 79
     3
140
3.0
147
0.75
173
     1
178
     0
271
     1
272
     3
276
     2
284
    12
340
7C
  0
DIMSTYLE
105
1EB
102
{ACAD_REACTORS
330
1EA
330
1F5
102
}
330
A
100
AcDbSymbolTableRecord
100
AcDbDimStyleTableRecord
  2
SLDDIMSTYLE2
 70
     0
 41
3.5
 44
0.0
 45
0.000000001
 73
     0
 74
     0
 77
     1
 78
    12
 79
     3
140
3.0
147
0.75
173
     1
178
     0
271
     0
272
     3
276
     2
284
    12
340
7C
  0
DIMSTYLE
105
20A
102
{ACAD_REACTORS
330
209
330
269
102
}
330
A
100
AcDbSymbolTableRecord
100
AcDbDimStyleTableRecord
  2
SLDDIMSTYLE3
 70
     0
 41
3.5
 44
0.0
 45
0.000000001
 73
     0
 74
     0
 77
     1
 78
    12
 79
     3
140
3.0
147
0.75
172
     1
173
     1
178
     0
271
     3
272
     3
276
     2
284
    12
289
     0
340
7C
  0
DIMSTYLE
105
234
330
A
100
AcDbSymbolTableRecord
100
AcDbDimStyleTableRecord
  2
SLDDIMSTYLE4
 70
     0
 41
3.5
 44
0.0
 45
0.000000001
146
3.5
147
0.0
173
     1
178
     0
271
     0
272
     0
276
     2
340
11
  0
ENDTAB
  0
TABLE
  2
BLOCK_RECORD
  5
1
330
0
100
AcDbSymbolTable
 70
    23
  0
BLOCK_RECORD
  5
1F
330
1
100
AcDbSymbolTableRecord
100
AcDbBlockTableRecord
  2
*Model_Space
340
22
  0
BLOCK_RECORD
  5
1B
330
1
100
AcDbSymbolTableRecord
100
AcDbBlockTableRecord
  2
*Paper_Space
340
1E
  0
BLOCK_RECORD
  5
23
330
1
100
AcDbSymbolTableRecord
100
AcDbBlockTableRecord
  2
*Paper_Space0
340
26
  0
BLOCK_RECORD
  5
75
330
1
100
AcDbSymbolTableRecord
100
AcDbBlockTableRecord
  2
Änderungsindex a
340
0
  0
BLOCK_RECORD
  5
78
330
1
100
AcDbSymbolTableRecord
100
AcDbBlockTableRecord
  2
SW_NOTE_0
340
0
102
{BLKREFS
331
7E
102
}
  0
BLOCK_RECORD
  5
7F
330
1
100
AcDbSymbolTableRecord
100
AcDbBlockTableRecord
  2
Block1
340
0
102
{BLKREFS
331
1D1
331
1D2
102
}
  0
BLOCK_RECORD
  5
D5
330
1
100
AcDbSymbolTableRecord
100
AcDbBlockTableRecord
  2
SW_NOTE_1
340
0
102
{BLKREFS
331
DE
102
}
  0
BLOCK_RECORD
  5
E0
330
1
100
AcDbSymbolTableRecord
100
AcDbBlockTableRecord
  2
SW_NOTE_2
340
0
102
{BLKREFS
331
E5
102
}
  0
BLOCK_RECORD
  5
1D6
330
1
100
AcDbSymbolTableRecord
100
AcDbBlockTableRecord
  2
_D
340
0
  0
BLOCK_RECORD
  5
1E1
330
1
100
AcDbSymbolTableRecord
100
AcDbBlockTableRecord
  2
_D_1
340
0
  0
BLOCK_RECORD
  5
1EC
330
1
100
AcDbSymbolTableRecord
100
AcDbBlockTableRecord
  2
_D_2
340
0
  0
BLOCK_RECORD
  5
1F6
330
1
100
AcDbSymbolTableRecord
100
AcDbBlockTableRecord
  2
_D_3
340
0
  0
BLOCK_RECORD
  5
200
330
1
100
AcDbSymbolTableRecord
100
AcDbBlockTableRecord
  2
_D_4
340
0
  0
BLOCK_RECORD
  5
20B
330
1
100
AcDbSymbolTableRecord
100
AcDbBlockTableRecord
  2
_D_5
340
0
  0
BLOCK_RECORD
  5
218
330
1
100
AcDbSymbolTableRecord
100
AcDbBlockTableRecord
  2
_D_6
340
0
  0
BLOCK_RECORD
  5
223
330
1
100
AcDbSymbolTableRecord
100
AcDbBlockTableRecord
  2
_D_7
340
0
  0
BLOCK_RECORD
  5
22C
330
1
100
AcDbSymbolTableRecord
100
AcDbBlockTableRecord
  2
SW_NOTE_3
340
0
102
{BLKREFS
331
233
102
}
  0
BLOCK_RECORD
  5
236
330
1
100
AcDbSymbolTableRecord
100
AcDbBlockTableRecord
  2
SW_NOTE_4
340
0
102
{BLKREFS
331
23D
102
}
  0
BLOCK_RECORD
  5
260
330
1
100
AcDbSymbolTableRecord
100
AcDbBlockTableRecord
  2
_D_8
340
0
  0
BLOCK_RECORD
  5
26A
330
1
100
AcDbSymbolTableRecord
100
AcDbBlockTableRecord
  2
_D_9
340
0
  0
BLOCK_RECORD
  5
277
330
1
100
AcDbSymbolTableRecord
100
AcDbBlockTableRecord
  2
_D_10
340
0
  0
BLOCK_RECORD
  5
281
330
1
100
AcDbSymbolTableRecord
100
AcDbBlockTableRecord
  2
SW_CENTERMARKSYMBOL_0
340
0
102
{BLKREFS
331
28C
102
}
  0
BLOCK_RECORD
  5
28D
330
1
100
AcDbSymbolTableRecord
100
AcDbBlockTableRecord
  2
SW_CENTERMARKSYMBOL_1
340
0
102
{BLKREFS
331
298
102
}
  0
BLOCK_RECORD
  5
299
330
1
100
AcDbSymbolTableRecord
100
AcDbBlockTableRecord
  2
SW_CENTERMARKSYMBOL_2
340
0
102
{BLKREFS
331
2A4
102
}
  0
BLOCK_RECORD
  5
2A5
330
1
100
AcDbSymbolTableRecord
100
AcDbBlockTableRecord
  2
SW_CENTERMARKSYMBOL_3
340
0
102
{BLKREFS
331
2B0
102
}
  0
ENDTAB
  0
ENDSEC
  0
SECTION
  2
BLOCKS
  0
BLOCK
  5
20
330
1F
100
AcDbEntity
  8
0
100
AcDbBlockBegin
  2
*Model_Space
 70
     0
 10
0.0
 20
0.0
 30
0.0
  3
*Model_Space
  1

  0
ENDBLK
  5
21
330
1F
100
AcDbEntity
  8
0
100
AcDbBlockEnd
  0
BLOCK
  5
1C
330
1B
100
AcDbEntity
 67
     1
  8
0
100
AcDbBlockBegin
  2
*Paper_Space
 70
     0
 10
0.0
 20
0.0
 30
0.0
  3
*Paper_Space
  1

  0
ENDBLK
  5
1D
330
1B
100
AcDbEntity
 67
     1
  8
0
100
AcDbBlockEnd
  0
BLOCK
  5
24
330
23
100
AcDbEntity
  8
0
100
AcDbBlockBegin
  2
*Paper_Space0
 70
     0
 10
0.0
 20
0.0
 30
0.0
  3
*Paper_Space0
  1

  0
ENDBLK
  5
25
330
23
100
AcDbEntity
  8
0
100
AcDbBlockEnd
  0
BLOCK
  5
76
330
75
100
AcDbEntity
  8
0
100
AcDbBlockBegin
  2
Änderungsindex a
 70
     0
 10
0.0
 20
0.0
 30
0.0
  3
Änderungsindex a
  1

  0
INSERT
  5
7E
330
75
100
AcDbEntity
  8
0
  6
Continuous
 62
     7
370
     0
100
AcDbBlockReference
  2
SW_NOTE_0
 10
-2.6785442717
 20
-4.2179726306
 30
0.0
  0
ENDBLK
  5
77
330
75
100
AcDbEntity
  8
0
100
AcDbBlockEnd
  0
BLOCK
  5
79
330
78
100
AcDbEntity
  8
0
100
AcDbBlockBegin
  2
SW_NOTE_0
 70
     0
 10
0.0
 20
0.0
 30
0.0
  3
SW_NOTE_0
  1

  0
CIRCLE
  5
7B
330
78
100
AcDbEntity
  8
0
  6
SLD-Durchgehend
 62
     0
370
     0
100
AcDbCircle
 10
2.290461386
 20
4.4406505799
 30
0.0
 40
4.607707781128332
  0
MTEXT
  5
7D
330
78
100
AcDbEntity
  8
0
  6
Continuous
 62
     0
370
     0
100
AcDbMText
 10
0.0
 20
7.7344064386
 30
0.0
 40
6.0
 41
0.0
 71
     1
 72
     1
  1
a
  7
SLDTEXTSTYLE0
 73
     1
 44
1.0
  0
ENDBLK
  5
7A
330
78
100
AcDbEntity
  8
0
100
AcDbBlockEnd
  0
BLOCK
  5
80
330
7F
100
AcDbEntity
  8
0
100
AcDbBlockBegin
  2
Block1
 70
     0
 10
0.0
 20
0.0
 30
0.0
  3
Block1
  1

  0
LINE
  5
82
330
7F
100
AcDbEntity
  8
0
  6
SLD-Durchgehend
 62
     7
370
     0
100
AcDbLine
 10
10.77
 20
0.8
 30
0.0
 11
2.77
 21
0.8
 31
0.0
  0
LINE
  5
83
330
7F
100
AcDbEntity
  8
0
  6
SLD-Durchgehend
 62
     7
370
     0
100
AcDbLine
 10
2.77
 20
0.8
 30
0.0
 11
2.77
 21
1.6
 31
0.0
  0
LINE
  5
84
330
7F
100
AcDbEntity
  8
0
  6
SLD-Durchgehend
 62
     7
370
     0
100
AcDbLine
 10
2.77
 20
1.6
 30
0.0
 11
0.0
 21
0.0
 31
0.0
  0
LINE
  5
85
330
7F
100
AcDbEntity
  8
0
  6
SLD-Durchgehend
 62
     7
370
     0
100
AcDbLine
 10
0.0
 20
0.0
 30
0.0
 11
2.77
 21
-1.6
 31
0.0
  0
LINE
  5
86
330
7F
100
AcDbEntity
  8
0
  6
SLD-Durchgehend
 62
     7
370
     0
100
AcDbLine
 10
2.77
 20
-1.6
 30
0.0
 11
2.77
 21
-0.8
 31
0.0
  0
LINE
  5
87
330
7F
100
AcDbEntity
  8
0
  6
SLD-Durchgehend
 62
     7
370
     0
100
AcDbLine
 10
2.77
 20
-0.8
 30
0.0
 11
10.77
 21
-0.8
 31
0.0
  0
LINE
  5
88
330
7F
100
AcDbEntity
  8
0
  6
SLD-Durchgehend
 62
     7
370
     0
100
AcDbLine
 10
10.77
 20
-0.8
 30
0.0
 11
10.77
 21
0.8
 31
0.0
  0
ENDBLK
  5
81
330
7F
100
AcDbEntity
  8
0
100
AcDbBlockEnd
  0
BLOCK
  5
D6
330
D5
100
AcDbEntity
  8
0
100
AcDbBlockBegin
  2
SW_NOTE_1
 70
     0
 10
0.0
 20
0.0
 30
0.0
  3
SW_NOTE_1
  1

  0
MTEXT
  5
D8
330
D5
100
AcDbEntity
  8
0
  6
Continuous
 62
     0
370
     0
100
AcDbMText
 10
0.0
 20
2.3874608764
 30
0.0
 40
1.8520833333
 41
0.0
 71
     1
 72
     1
  1
Tel.: +49 6134 2901-0, www.
  7
SLDTEXTSTYLE0
 73
     1
 44
1.0
  0
MTEXT
  5
DA
330
D5
100
AcDbEntity
  8
0
  6
Continuous
 62
     0
370
     0
100
AcDbMText
 10
31.6226072609
 20
2.2325681125
 30
0.0
 40
1.8520833333
 41
0.0
 71
     1
 72
     1
  1
Netter
  7
SLDTEXTSTYLE1
 73
     1
 44
1.0
  0
MTEXT
  5
DC
330
D5
100
AcDbEntity
  8
0
  6
Continuous
 62
     0
370
     0
100
AcDbMText
 10
39.4425168633
 20
2.3157006648
 30
0.0
 40
1.8520833333
 41
0.0
 71
     1
 72
     1
  1
Vibration
  7
SLDTEXTSTYLE2
 73
     1
 44
1.0
  0
MTEXT
  5
DD
330
D5
100
AcDbEntity
  8
0
  6
Continuous
 62
     0
370
     0
100
AcDbMText
 10
49.1865314543
 20
2.3874608764
 30
0.0
 40
1.8520833333
 41
0.0
 71
     1
 72
     1
  1
.com
  7
SLDTEXTSTYLE0
 73
     1
 44
1.0
  0
ENDBLK
  5
D7
330
D5
100
AcDbEntity
  8
0
100
AcDbBlockEnd
  0
BLOCK
  5
E1
330
E0
100
AcDbEntity
  8
0
100
AcDbBlockBegin
  2
SW_NOTE_2
 70
     0
 10
0.0
 20
0.0
 30
0.0
  3
SW_NOTE_2
  1

  0
MTEXT
  5
E3
330
E0
100
AcDbEntity
  8
0
  6
Continuous
 62
     0
370
     0
100
AcDbMText
 10
0.0
 20
4.8649193548
 30
0.0
 40
3.96875
 41
0.0
 71
     1
 72
     1
  1
Netter
  7
SLDTEXTSTYLE1
 73
     1
 44
1.0
  0
MTEXT
  5
E4
330
E0
100
AcDbEntity
  8
0
  6
Continuous
 62
     0
370
     0
100
AcDbMText
 10
16.7569443583
 20
5.0430605384
 30
0.0
 40
3.96875
 41
0.0
 71
     1
 72
     1
  1
Vibration
  7
SLDTEXTSTYLE2
 73
     1
 44
1.0
  0
ENDBLK
  5
E2
330
E0
100
AcDbEntity
  8
0
100
AcDbBlockEnd
  0
BLOCK
  5
1D7
330
1D6
100
AcDbEntity
  8
0
100
AcDbBlockBegin
  2
_D
 70
     0
 10
0.0
 20
0.0
 30
0.0
  3
_D
  1

  0
SOLID
  5
1D9
330
1D6
100
AcDbEntity
  8
0
  6
SLD-Durchgehend
 62
     7
370
     0
100
AcDbTrace
 10
118.1394866713
 20
113.1735984644
 30
0.0
 11
117.6794866713
 21
109.6735984644
 31
0.0
 12
118.5994866713
 22
109.6735984644
 32
0.0
 13
118.5994866713
 23
109.6735984644
 33
0.0
  0
SOLID
  5
1DA
330
1D6
100
AcDbEntity
  8
0
  6
SLD-Durchgehend
 62
     7
370
     0
100
AcDbTrace
 10
118.1394866713
 20
103.1735984644
 30
0.0
 11
118.5994866713
 21
106.6735984644
 31
0.0
 12
117.6794866713
 22
106.6735984644
 32
0.0
 13
117.6794866713
 23
106.6735984644
 33
0.0
  0
LINE
  5
1DB
330
1D6
100
AcDbEntity
  8
0
  6
SLD-Durchgehend
 62
     7
370
     0
100
AcDbLine
 10
104.7087027848
 20
113.1735984644
 30
0.0
 11
119.1394866713
 21
113.1735984644
 31
0.0
  0
LINE
  5
1DC
330
1D6
100
AcDbEntity
  8
0
  6
SLD-Durchgehend
 62
     7
370
     0
100
AcDbLine
 10
104.7087027848
 20
103.1735984644
 30
0.0
 11
119.1394866713
 21
103.1735984644
 31
0.0
  0
LINE
  5
1DD
330
1D6
100
AcDbEntity
  8
0
  6
SLD-Durchgehend
 62
     7
370
     0
100
AcDbLine
 10
118.1394866713
 20
113.1735984644
 30
0.0
 11
118.1394866713
 21
103.1735984644
 31
0.0
  0
MTEXT
  5
1DE
330
1D6
100
AcDbEntity
  8
0
  6
SLD-Durchgehend
 62
     7
370
     0
100
AcDbMText
 10
114.2722832191
 20
105.108945182
 30
0.0
 40
3.0
 41
0.0
 71
     1
 72
     1
  1
10
  7
SLDTEXTSTYLE0
 11
-3.491481338843133E-15
 21
1.0
 31
0.0
 73
     1
 44
1.0
  0
ENDBLK
  5
1D8
330
1D6
100
AcDbEntity
  8
0
100
AcDbBlockEnd
  0
BLOCK
  5
1E2
330
1E1
100
AcDbEntity
  8
0
100
AcDbBlockBegin
  2
_D_1
 70
     0
 10
0.0
 20
0.0
 30
0.0
  3
_D_1
  1

  0
SOLID
  5
1E4
330
1E1
100
AcDbEntity
  8
0
  6
SLD-Durchgehend
 62
     7
370
     0
100
AcDbTrace
 10
62.7229362963
 20
200.6735984644
 30
0.0
 11
62.2629362963
 21
197.1735984644
 31
0.0
 12
63.1829362963
 22
197.1735984644
 32
0.0
 13
63.1829362963
 23
197.1735984644
 33
0.0
  0
SOLID
  5
1E5
330
1E1
100
AcDbEntity
  8
0
  6
SLD-Durchgehend
 62
     7
370
     0
100
AcDbTrace
 10
62.7229362963
 20
103.1735984644
 30
0.0
 11
63.1829362963
 21
106.6735984644
 31
0.0
 12
62.2629362963
 22
106.6735984644
 32
0.0
 13
62.2629362963
 23
106.6735984644
 33
0.0
  0
LINE
  5
1E6
330
1E1
100
AcDbEntity
  8
0
  6
SLD-Durchgehend
 62
     7
370
     0
100
AcDbLine
 10
81.0810623325
 20
200.6735984644
 30
0.0
 11
61.7229362963
 21
200.6735984644
 31
0.0
  0
LINE
  5
1E7
330
1E1
100
AcDbEntity
  8
0
  6
SLD-Durchgehend
 62
     7
370
     0
100
AcDbLine
 10
84.9534218802
 20
103.1735984644
 30
0.0
 11
61.7229362963
 21
103.1735984644
 31
0.0
  0
LINE
  5
1E8
330
1E1
100
AcDbEntity
  8
0
  6
SLD-Durchgehend
 62
     7
370
     0
100
AcDbLine
 10
62.7229362963
 20
200.6735984644
 30
0.0
 11
62.7229362963
 21
103.1735984644
 31
0.0
  0
MTEXT
  5
1E9
330
1E1
100
AcDbEntity
  8
0
  6
SLD-Durchgehend
 62
     7
370
     0
100
AcDbMText
 10
58.8557328442
 20
145.7819497079
 30
0.0
 40
3.0
 41
0.0
 71
     1
 72
     1
  1
97,5
  7
SLDTEXTSTYLE0
 11
-3.491481338843133E-15
 21
1.0
 31
0.0
 73
     1
 44
1.0
  0
ENDBLK
  5
1E3
330
1E1
100
AcDbEntity
  8
0
100
AcDbBlockEnd
  0
BLOCK
  5
1ED
330
1EC
100
AcDbEntity
  8
0
100
AcDbBlockBegin
  2
_D_2
 70
     0
 10
0.0
 20
0.0
 30
0.0
  3
_D_2
  1

  0
SOLID
  5
1EF
330
1EC
100
AcDbEntity
  8
0
  6
SLD-Durchgehend
 62
     7
370
     0
100
AcDbTrace
 10
72.5169851353
 20
103.1735984644
 30
0.0
 11
72.9769851353
 21
106.6735984644
 31
0.0
 12
72.0569851353
 22
106.6735984644
 32
0.0
 13
72.0569851353
 23
106.6735984644
 33
0.0
  0
SOLID
  5
1F0
330
1EC
100
AcDbEntity
  8
0
  6
SLD-Durchgehend
 62
     7
370
     0
100
AcDbTrace
 10
72.5169851353
 20
114.4235984644
 30
0.0
 11
72.0569851353
 21
110.9235984644
 31
0.0
 12
72.9769851353
 22
110.9235984644
 32
0.0
 13
72.9769851353
 23
110.9235984644
 33
0.0
  0
LINE
  5
1F1
330
1EC
100
AcDbEntity
  8
0
  6
SLD-Durchgehend
 62
     7
370
     0
100
AcDbLine
 10
82.0010623325
 20
103.1735984644
 30
0.0
 11
71.5169851353
 21
103.1735984644
 31
0.0
  0
LINE
  5
1F2
330
1EC
100
AcDbEntity
  8
0
  6
SLD-Durchgehend
 62
     7
370
     0
100
AcDbLine
 10
87.0810623325
 20
114.4235984644
 30
0.0
 11
71.5169851353
 21
114.4235984644
 31
0.0
  0
LINE
  5
1F3
330
1EC
100
AcDbEntity
  8
0
  6
SLD-Durchgehend
 62
     7
370
     0
100
AcDbLine
 10
72.5169851353
 20
103.1735984644
 30
0.0
 11
72.5169851353
 21
114.4235984644
 31
0.0
  0
MTEXT
  5
1F4
330
1EC
100
AcDbEntity
  8
0
  6
SLD-Durchgehend
 62
     7
370
     0
100
AcDbMText
 10
68.6497816831
 20
106.5920043952
 30
0.0
 40
3.0
 41
0.0
 71
     1
 72
     1
  1
11
  7
SLDTEXTSTYLE0
 11
3.391901413832837E-15
 21
1.0
 31
0.0
 73
     1
 44
1.0
  0
ENDBLK
  5
1EE
330
1EC
100
AcDbEntity
  8
0
100
AcDbBlockEnd
  0
BLOCK
  5
1F7
330
1F6
100
AcDbEntity
  8
0
100
AcDbBlockBegin
  2
_D_3
 70
     0
 10
0.0
 20
0.0
 30
0.0
  3
_D_3
  1

  0
SOLID
  5
1F9
330
1F6
100
AcDbEntity
  8
0
  6
SLD-Durchgehend
 62
     7
370
     0
100
AcDbTrace
 10
50.0810623325
 20
228.1735984644
 30
0.0
 11
49.6210623325
 21
224.6735984644
 31
0.0
 12
50.5410623325
 22
224.6735984644
 32
0.0
 13
50.5410623325
 23
224.6735984644
 33
0.0
  0
SOLID
  5
1FA
330
1F6
100
AcDbEntity
  8
0
  6
SLD-Durchgehend
 62
     7
370
     0
100
AcDbTrace
 10
50.0810623325
 20
103.1735984644
 30
0.0
 11
50.5410623325
 21
106.6735984644
 31
0.0
 12
49.6210623325
 22
106.6735984644
 32
0.0
 13
49.6210623325
 23
106.6735984644
 33
0.0
  0
LINE
  5
1FB
330
1F6
100
AcDbEntity
  8
0
  6
SLD-Durchgehend
 62
     7
370
     0
100
AcDbLine
 10
89.3310623325
 20
228.1735984644
 30
0.0
 11
49.0810623325
 21
228.1735984644
 31
0.0
  0
LINE
  5
1FC
330
1F6
100
AcDbEntity
  8
0
  6
SLD-Durchgehend
 62
     7
370
     0
100
AcDbLine
 10
80.0810623325
 20
103.1735984644
 30
0.0
 11
49.0810623325
 21
103.1735984644
 31
0.0
  0
LINE
  5
1FD
330
1F6
100
AcDbEntity
  8
0
  6
SLD-Durchgehend
 62
     7
370
     0
100
AcDbLine
 10
50.0810623325
 20
228.1735984644
 30
0.0
 11
50.0810623325
 21
103.1735984644
 31
0.0
  0
MTEXT
  5
1FE
330
1F6
100
AcDbEntity
  8
0
  6
SLD-Durchgehend
 62
     7
370
     0
100
AcDbMText
 10
46.2138588804
 20
149.4566968096
 30
0.0
 40
3.0
 41
0.0
 71
     1
 72
     1
  1
125
  7
SLDTEXTSTYLE0
 11
-3.491481338843133E-15
 21
1.0
 31
0.0
 73
     1
 44
1.0
  0
ENDBLK
  5
1F8
330
1F6
100
AcDbEntity
  8
0
100
AcDbBlockEnd
  0
BLOCK
  5
201
330
200
100
AcDbEntity
  8
0
100
AcDbBlockBegin
  2
_D_4
 70
     0
 10
0.0
 20
0.0
 30
0.0
  3
_D_4
  1

  0
SOLID
  5
203
330
200
100
AcDbEntity
  8
0
  6
SLD-Durchgehend
 62
     7
370
     0
100
AcDbTrace
 10
108.5810623325
 20
86.1735984644
 30
0.0
 11
105.0810623325
 21
86.6335984644
 31
0.0
 12
105.0810623325
 22
85.7135984644
 32
0.0
 13
105.0810623325
 23
85.7135984644
 33
0.0
  0
SOLID
  5
204
330
200
100
AcDbEntity
  8
0
  6
SLD-Durchgehend
 62
     7
370
     0
100
AcDbTrace
 10
92.0810623325
 20
86.1735984644
 30
0.0
 11
95.5810623325
 21
85.7135984644
 31
0.0
 12
95.5810623325
 22
86.6335984644
 32
0.0
 13
95.5810623325
 23
86.6335984644
 33
0.0
  0
LINE
  5
205
330
200
100
AcDbEntity
  8
0
  6
SLD-Durchgehend
 62
     7
370
     0
100
AcDbLine
 10
108.5810623325
 20
102.1735984644
 30
0.0
 11
108.5810623325
 21
85.1735984644
 31
0.0
  0
LINE
  5
206
330
200
100
AcDbEntity
  8
0
  6
SLD-Durchgehend
 62
     7
370
     0
100
AcDbLine
 10
92.0810623325
 20
92.8165264167
 30
0.0
 11
92.0810623325
 21
85.1735984644
 31
0.0
  0
LINE
  5
207
330
200
100
AcDbEntity
  8
0
  6
SLD-Durchgehend
 62
     7
370
     0
100
AcDbLine
 10
108.5810623325
 20
86.1735984644
 30
0.0
 11
92.0810623325
 21
86.1735984644
 31
0.0
  0
MTEXT
  5
208
330
200
100
AcDbEntity
  8
0
  6
SLD-Durchgehend
 62
     7
370
     0
100
AcDbMText
 10
95.552163064
 20
90.0408019165
 30
0.0
 40
3.0
 41
0.0
 71
     1
 72
     1
  1
16,5
  7
SLDTEXTSTYLE0
 73
     1
 44
1.0
  0
ENDBLK
  5
202
330
200
100
AcDbEntity
  8
0
100
AcDbBlockEnd
  0
BLOCK
  5
20C
330
20B
100
AcDbEntity
  8
0
100
AcDbBlockBegin
  2
_D_5
 70
     0
 10
0.0
 20
0.0
 30
0.0
  3
_D_5
  1

  0
SOLID
  5
20E
330
20B
100
AcDbEntity
  8
0
  6
SLD-Durchgehend
 62
     7
370
     0
100
AcDbTrace
 10
96.0810623325
 20
95.3860458763
 30
0.0
 11
99.5810623325
 21
94.9260458763
 31
0.0
 12
99.5810623325
 22
95.8460458763
 32
0.0
 13
99.5810623325
 23
95.8460458763
 33
0.0
  0
SOLID
  5
20F
330
20B
100
AcDbEntity
  8
0
  6
SLD-Durchgehend
 62
     7
370
     0
100
AcDbTrace
 10
88.0810623325
 20
95.3860458763
 30
0.0
 11
84.5810623325
 21
95.8460458763
 31
0.0
 12
84.5810623325
 22
94.9260458763
 32
0.0
 13
84.5810623325
 23
94.9260458763
 33
0.0
  0
LINE
  5
210
330
20B
100
AcDbEntity
  8
0
  6
SLD-Durchgehend
 62
     7
370
     0
100
AcDbLine
 10
96.0810623325
 20
102.4235984644
 30
0.0
 11
96.0810623325
 21
94.3860458763
 31
0.0
  0
LINE
  5
211
330
20B
100
AcDbEntity
  8
0
  6
SLD-Durchgehend
 62
     7
370
     0
100
AcDbLine
 10
88.0810623325
 20
102.4235984644
 30
0.0
 11
88.0810623325
 21
94.3860458763
 31
0.0
  0
LINE
  5
212
330
20B
100
AcDbEntity
  8
0
  6
SLD-Durchgehend
 62
     7
370
     0
100
AcDbLine
 10
96.0810623325
 20
95.3860458763
 30
0.0
 11
101.0810623325
 21
95.3860458763
 31
0.0
  0
LINE
  5
213
330
20B
100
AcDbEntity
  8
0
  6
SLD-Durchgehend
 62
     7
370
     0
100
AcDbLine
 10
96.0810623325
 20
95.3860458763
 30
0.0
 11
88.0810623325
 21
95.3860458763
 31
0.0
  0
LINE
  5
214
330
20B
100
AcDbEntity
  8
0
  6
SLD-Durchgehend
 62
     7
370
     0
100
AcDbLine
 10
88.0810623325
 20
95.3860458763
 30
0.0
 11
83.0810623325
 21
95.3860458763
 31
0.0
  0
MTEXT
  5
215
330
20B
100
AcDbEntity
  8
0
  6
SLD-Durchgehend
 62
     7
370
     0
100
AcDbMText
 10
88.7978038644
 20
99.2532493284
 30
0.0
 40
3.0
 41
0.0
 71
     1
 72
     1
  1
M
  7
SLDTEXTSTYLE0
 73
     1
 44
1.0
  0
MTEXT
  5
216
330
20B
100
AcDbEntity
  8
0
  6
SLD-Durchgehend
 62
     7
370
     0
100
AcDbMText
 10
92.2298456365
 20
99.2532493284
 30
0.0
 40
3.0
 41
0.0
 71
     1
 72
     1
  1
8
  7
SLDTEXTSTYLE0
 73
     1
 44
1.0
  0
ENDBLK
  5
20D
330
20B
100
AcDbEntity
  8
0
100
AcDbBlockEnd
  0
BLOCK
  5
219
330
218
100
AcDbEntity
  8
0
100
AcDbBlockBegin
  2
_D_6
 70
     0
 10
0.0
 20
0.0
 30
0.0
  3
_D_6
  1

  0
SOLID
  5
21B
330
218
100
AcDbEntity
  8
0
  6
SLD-Durchgehend
 62
     7
370
     0
100
AcDbTrace
 10
108.5810623325
 20
75.799346366
 30
0.0
 11
105.0810623325
 21
76.259346366
 31
0.0
 12
105.0810623325
 22
75.339346366
 32
0.0
 13
105.0810623325
 23
75.339346366
 33
0.0
  0
SOLID
  5
21C
330
218
100
AcDbEntity
  8
0
  6
SLD-Durchgehend
 62
     7
370
     0
100
AcDbTrace
 10
81.0810623325
 20
75.799346366
 30
0.0
 11
84.5810623325
 21
75.339346366
 31
0.0
 12
84.5810623325
 22
76.259346366
 32
0.0
 13
84.5810623325
 23
76.259346366
 33
0.0
  0
LINE
  5
21D
330
218
100
AcDbEntity
  8
0
  6
SLD-Durchgehend
 62
     7
370
     0
100
AcDbLine
 10
108.5810623325
 20
102.1735984644
 30
0.0
 11
108.5810623325
 21
74.799346366
 31
0.0
  0
LINE
  5
21E
330
218
100
AcDbEntity
  8
0
  6
SLD-Durchgehend
 62
     7
370
     0
100
AcDbLine
 10
81.0810623325
 20
102.1735984644
 30
0.0
 11
81.0810623325
 21
74.799346366
 31
0.0
  0
LINE
  5
21F
330
218
100
AcDbEntity
  8
0
  6
SLD-Durchgehend
 62
     7
370
     0
100
AcDbLine
 10
108.5810623325
 20
75.799346366
 30
0.0
 11
81.0810623325
 21
75.799346366
 31
0.0
  0
MTEXT
  5
220
330
218
100
AcDbEntity
  8
0
  6
SLD-Durchgehend
 62
     7
370
     0
100
AcDbMText
 10
85.4648247505
 20
79.6665497018
 30
0.0
 40
3.0
 41
0.0
 71
     1
 72
     1
  1
%%c
  7
SLDTEXTSTYLE0
 73
     1
 44
1.0
  0
MTEXT
  5
221
330
218
100
AcDbEntity
  8
0
  6
SLD-Durchgehend
 62
     7
370
     0
100
AcDbMText
 10
89.836363991
 20
79.6665498182
 30
0.0
 40
3.0
 41
0.0
 71
     1
 72
     1
  1
27,5
  7
SLDTEXTSTYLE0
 73
     1
 44
1.0
  0
ENDBLK
  5
21A
330
218
100
AcDbEntity
  8
0
100
AcDbBlockEnd
  0
BLOCK
  5
224
330
223
100
AcDbEntity
  8
0
100
AcDbBlockBegin
  2
_D_7
 70
     0
 10
0.0
 20
0.0
 30
0.0
  3
_D_7
  1

  0
SOLID
  5
226
330
223
100
AcDbEntity
  8
0
  6
SLD-Durchgehend
 62
     7
370
     0
100
AcDbTrace
 10
128.3587721079
 20
151.1735984644
 30
0.0
 11
127.8987721079
 21
147.6735984644
 31
0.0
 12
128.8187721079
 22
147.6735984644
 32
0.0
 13
128.8187721079
 23
147.6735984644
 33
0.0
  0
SOLID
  5
227
330
223
100
AcDbEntity
  8
0
  6
SLD-Durchgehend
 62
     7
370
     0
100
AcDbTrace
 10
128.3587721079
 20
103.1735984644
 30
0.0
 11
128.8187721079
 21
106.6735984644
 31
0.0
 12
127.8987721079
 22
106.6735984644
 32
0.0
 13
127.8987721079
 23
106.6735984644
 33
0.0
  0
LINE
  5
228
330
223
100
AcDbEntity
  8
0
  6
SLD-Durchgehend
 62
     7
370
     0
100
AcDbLine
 10
108.3976714285
 20
151.1735984644
 30
0.0
 11
129.3587721079
 21
151.1735984644
 31
0.0
  0
LINE
  5
229
330
223
100
AcDbEntity
  8
0
  6
SLD-Durchgehend
 62
     7
370
     0
100
AcDbLine
 10
109.5810623325
 20
103.1735984644
 30
0.0
 11
129.3587721079
 21
103.1735984644
 31
0.0
  0
LINE
  5
22A
330
223
100
AcDbEntity
  8
0
  6
SLD-Durchgehend
 62
     7
370
     0
100
AcDbLine
 10
128.3587721079
 20
151.1735984644
 30
0.0
 11
128.3587721079
 21
103.1735984644
 31
0.0
  0
MTEXT
  5
22B
330
223
100
AcDbEntity
  8
0
  6
SLD-Durchgehend
 62
     7
370
     0
100
AcDbMText
 10
124.4915686557
 20
126.0943787522
 30
0.0
 40
3.0
 41
0.0
 71
     1
 72
     1
  1
48
  7
SLDTEXTSTYLE0
 11
-3.491481338843133E-15
 21
1.0
 31
0.0
 73
     1
 44
1.0
  0
ENDBLK
  5
225
330
223
100
AcDbEntity
  8
0
100
AcDbBlockEnd
  0
BLOCK
  5
22D
330
22C
100
AcDbEntity
  8
0
100
AcDbBlockBegin
  2
SW_NOTE_3
 70
     0
 10
0.0
 20
0.0
 30
0.0
  3
SW_NOTE_3
  1

  0
MTEXT
  5
22F
330
22C
100
AcDbEntity
  8
0
  6
Continuous
 62
     0
370
     0
100
AcDbMText
 10
0.5957744768
 20
16.8423834127
 30
0.0
 40
3.175
 41
0.0
 71
     1
 72
     1
  1
G1/8 
  7
SLDTEXTSTYLE0
 73
     1
 44
1.0
  0
MTEXT
  5
230
330
22C
100
AcDbEntity
  8
0
  6
Continuous
 62
     0
370
     0
100
AcDbMText
 10
0.5957744768
 20
12.6090501305
 30
0.0
 40
3.175
 41
0.0
 71
     1
 72
     1
  1
Zuluft
  7
SLDTEXTSTYLE0
 73
     1
 44
1.0
  0
MTEXT
  5
231
330
22C
100
AcDbEntity
  8
0
  6
Continuous
 62
     0
370
     0
100
AcDbMText
 10
0.5957744768
 20
8.3757168483
 30
0.0
 40
3.175
 41
0.0
 71
     1
 72
     1
  1
Air supply
  7
SLDTEXTSTYLE0
 73
     1
 44
1.0
  0
MTEXT
  5
232
330
22C
100
AcDbEntity
  8
0
  6
Continuous
 62
     0
370
     0
100
AcDbMText
 10
0.5957744768
 20
4.1423835661
 30
0.0
 40
3.175
 41
0.0
 71
     1
 72
     1
  1
Arrivée d´air
  7
SLDTEXTSTYLE0
 73
     1
 44
1.0
  0
ENDBLK
  5
22E
330
22C
100
AcDbEntity
  8
0
100
AcDbBlockEnd
  0
BLOCK
  5
237
330
236
100
AcDbEntity
  8
0
100
AcDbBlockBegin
  2
SW_NOTE_4
 70
     0
 10
0.0
 20
0.0
 30
0.0
  3
SW_NOTE_4
  1

  0
MTEXT
  5
239
330
236
100
AcDbEntity
  8
0
  6
Continuous
 62
     0
370
     0
100
AcDbMText
 10
0.5474809414
 20
16.8501374171
 30
0.0
 40
3.175
 41
0.0
 71
     1
 72
     1
  1
G1/8
  7
SLDTEXTSTYLE0
 73
     1
 44
1.0
  0
MTEXT
  5
23A
330
236
100
AcDbEntity
  8
0
  6
Continuous
 62
     0
370
     0
100
AcDbMText
 10
0.5474809414
 20
12.6168041349
 30
0.0
 40
3.175
 41
0.0
 71
     1
 72
     1
  1
Abluft
  7
SLDTEXTSTYLE0
 73
     1
 44
1.0
  0
MTEXT
  5
23B
330
236
100
AcDbEntity
  8
0
  6
Continuous
 62
     0
370
     0
100
AcDbMText
 10
0.5474809414
 20
8.3834708528
 30
0.0
 40
3.175
 41
0.0
 71
     1
 72
     1
  1
Exhaust
  7
SLDTEXTSTYLE0
 73
     1
 44
1.0
  0
MTEXT
  5
23C
330
236
100
AcDbEntity
  8
0
  6
Continuous
 62
     0
370
     0
100
AcDbMText
 10
0.5474809414
 20
4.1501375706
 30
0.0
 40
3.175
 41
0.0
 71
     1
 72
     1
  1
Echappment
  7
SLDTEXTSTYLE0
 73
     1
 44
1.0
  0
ENDBLK
  5
238
330
236
100
AcDbEntity
  8
0
100
AcDbBlockEnd
  0
BLOCK
  5
261
330
260
100
AcDbEntity
  8
0
100
AcDbBlockBegin
  2
_D_8
 70
     0
 10
0.0
 20
0.0
 30
0.0
  3
_D_8
  1

  0
SOLID
  5
263
330
260
100
AcDbEntity
  8
0
  6
SLD-Durchgehend
 62
     7
370
     0
100
AcDbTrace
 10
85.5810623325
 20
284.0322956453
 30
0.0
 11
89.0810623325
 21
283.5722956453
 31
0.0
 12
89.0810623325
 22
284.4922956453
 32
0.0
 13
89.0810623325
 23
284.4922956453
 33
0.0
  0
SOLID
  5
264
330
260
100
AcDbEntity
  8
0
  6
SLD-Durchgehend
 62
     7
370
     0
100
AcDbTrace
 10
98.5810623325
 20
284.0322956453
 30
0.0
 11
95.0810623325
 21
284.4922956453
 31
0.0
 12
95.0810623325
 22
283.5722956453
 32
0.0
 13
95.0810623325
 23
283.5722956453
 33
0.0
  0
LINE
  5
265
330
260
100
AcDbEntity
  8
0
  6
SLD-Durchgehend
 62
     7
370
     0
100
AcDbLine
 10
85.5810623325
 20
269.0113627864
 30
0.0
 11
85.5810623325
 21
285.0322956453
 31
0.0
  0
LINE
  5
266
330
260
100
AcDbEntity
  8
0
  6
SLD-Durchgehend
 62
     7
370
     0
100
AcDbLine
 10
98.5810623325
 20
269.0113627864
 30
0.0
 11
98.5810623325
 21
285.0322956453
 31
0.0
  0
LINE
  5
267
330
260
100
AcDbEntity
  8
0
  6
SLD-Durchgehend
 62
     7
370
     0
100
AcDbLine
 10
85.5810623325
 20
284.0322956453
 30
0.0
 11
98.5810623325
 21
284.0322956453
 31
0.0
  0
MTEXT
  5
268
330
260
100
AcDbEntity
  8
0
  6
SLD-Durchgehend
 62
     7
370
     0
100
AcDbMText
 10
88.5042773793
 20
287.8994990975
 30
0.0
 40
3.0
 41
0.0
 71
     1
 72
     1
  1
13
  7
SLDTEXTSTYLE0
 73
     1
 44
1.0
  0
ENDBLK
  5
262
330
260
100
AcDbEntity
  8
0
100
AcDbBlockEnd
  0
BLOCK
  5
26B
330
26A
100
AcDbEntity
  8
0
100
AcDbBlockBegin
  2
_D_9
 70
     0
 10
0.0
 20
0.0
 30
0.0
  3
_D_9
  1

  0
SOLID
  5
26D
330
26A
100
AcDbEntity
  8
0
  6
SLD-Durchgehend
 62
     7
370
     0
100
AcDbTrace
 10
74.9935179687
 20
267.0113627864
 30
0.0
 11
75.4535179687
 21
270.5113627864
 31
0.0
 12
74.5335179687
 22
270.5113627864
 32
0.0
 13
74.5335179687
 23
270.5113627864
 33
0.0
  0
SOLID
  5
26E
330
26A
100
AcDbEntity
  8
0
  6
SLD-Durchgehend
 62
     7
370
     0
100
AcDbTrace
 10
74.9935179687
 20
264.0113627864
 30
0.0
 11
74.5335179687
 21
260.5113627864
 31
0.0
 12
75.4535179687
 22
260.5113627864
 32
0.0
 13
75.4535179687
 23
260.5113627864
 33
0.0
  0
LINE
  5
26F
330
26A
100
AcDbEntity
  8
0
  6
SLD-Durchgehend
 62
     7
370
     0
100
AcDbLine
 10
84.5810623325
 20
267.0113627864
 30
0.0
 11
73.9935179687
 21
267.0113627864
 31
0.0
  0
LINE
  5
270
330
26A
100
AcDbEntity
  8
0
  6
SLD-Durchgehend
 62
     7
370
     0
100
AcDbLine
 10
84.5810623325
 20
264.0113627864
 30
0.0
 11
73.9935179687
 21
264.0113627864
 31
0.0
  0
LINE
  5
271
330
26A
100
AcDbEntity
  8
0
  6
SLD-Durchgehend
 62
     7
370
     0
100
AcDbLine
 10
74.9935179687
 20
267.0113627864
 30
0.0
 11
74.9935179687
 21
272.0113627864
 31
0.0
  0
LINE
  5
272
330
26A
100
AcDbEntity
  8
0
  6
SLD-Durchgehend
 62
     7
370
     0
100
AcDbLine
 10
74.9935179687
 20
267.0113627864
 30
0.0
 11
74.9935179687
 21
264.0113627864
 31
0.0
  0
LINE
  5
273
330
26A
100
AcDbEntity
  8
0
  6
SLD-Durchgehend
 62
     7
370
     0
100
AcDbLine
 10
74.9935179687
 20
264.0113627864
 30
0.0
 11
74.9935179687
 21
259.0113627864
 31
0.0
  0
MTEXT
  5
274
330
26A
100
AcDbEntity
  8
0
  6
SLD-Durchgehend
 62
     7
370
     0
100
AcDbMText
 10
71.126314633
 20
261.9880399143
 30
0.0
 40
3.0
 41
0.0
 71
     1
 72
     1
  1
%%c
  7
SLDTEXTSTYLE0
 11
-7.044195017643634E-15
 21
1.0
 31
0.0
 73
     1
 44
1.0
  0
MTEXT
  5
275
330
26A
100
AcDbEntity
  8
0
  6
SLD-Durchgehend
 62
     7
370
     0
100
AcDbMText
 10
71.1263145166
 20
266.3595791548
 30
0.0
 40
3.0
 41
0.0
 71
     1
 72
     1
  1
3
  7
SLDTEXTSTYLE0
 11
-7.044195017643634E-15
 21
1.0
 31
0.0
 73
     1
 44
1.0
  0
ENDBLK
  5
26C
330
26A
100
AcDbEntity
  8
0
100
AcDbBlockEnd
  0
BLOCK
  5
278
330
277
100
AcDbEntity
  8
0
100
AcDbBlockBegin
  2
_D_10
 70
     0
 10
0.0
 20
0.0
 30
0.0
  3
_D_10
  1

  0
SOLID
  5
27A
330
277
100
AcDbEntity
  8
0
  6
SLD-Durchgehend
 62
     7
370
     0
100
AcDbTrace
 10
65.6370807678
 20
276.0113627864
 30
0.0
 11
65.1770807678
 21
272.5113627864
 31
0.0
 12
66.0970807678
 22
272.5113627864
 32
0.0
 13
66.0970807678
 23
272.5113627864
 33
0.0
  0
SOLID
  5
27B
330
277
100
AcDbEntity
  8
0
  6
SLD-Durchgehend
 62
     7
370
     0
100
AcDbTrace
 10
65.6370807678
 20
255.0113627864
 30
0.0
 11
66.0970807678
 21
258.5113627864
 31
0.0
 12
65.1770807678
 22
258.5113627864
 32
0.0
 13
65.1770807678
 23
258.5113627864
 33
0.0
  0
LINE
  5
27C
330
277
100
AcDbEntity
  8
0
  6
SLD-Durchgehend
 62
     7
370
     0
100
AcDbLine
 10
84.9534218802
 20
276.0113627864
 30
0.0
 11
64.6370807678
 21
276.0113627864
 31
0.0
  0
LINE
  5
27D
330
277
100
AcDbEntity
  8
0
  6
SLD-Durchgehend
 62
     7
370
     0
100
AcDbLine
 10
84.9534218802
 20
255.0113627864
 30
0.0
 11
64.6370807678
 21
255.0113627864
 31
0.0
  0
LINE
  5
27E
330
277
100
AcDbEntity
  8
0
  6
SLD-Durchgehend
 62
     7
370
     0
100
AcDbLine
 10
65.6370807678
 20
276.0113627864
 30
0.0
 11
65.6370807678
 21
255.0113627864
 31
0.0
  0
MTEXT
  5
27F
330
277
100
AcDbEntity
  8
0
  6
SLD-Durchgehend
 62
     7
370
     0
100
AcDbMText
 10
61.7698773156
 20
258.8086085261
 30
0.0
 40
3.0
 41
0.0
 71
     1
 72
     1
  1
SW
  7
SLDTEXTSTYLE0
 11
-3.491481338843133E-15
 21
1.0
 31
0.0
 73
     1
 44
1.0
  0
MTEXT
  5
280
330
277
100
AcDbEntity
  8
0
  6
SLD-Durchgehend
 62
     7
370
     0
100
AcDbMText
 10
61.7698773156
 20
265.4458066273
 30
0.0
 40
3.0
 41
0.0
 71
     1
 72
     1
  1
21
  7
SLDTEXTSTYLE0
 11
-3.491481338843133E-15
 21
1.0
 31
0.0
 73
     1
 44
1.0
  0
ENDBLK
  5
279
330
277
100
AcDbEntity
  8
0
100
AcDbBlockEnd
  0
BLOCK
  5
282
330
281
100
AcDbEntity
  8
0
100
AcDbBlockBegin
  2
SW_CENTERMARKSYMBOL_0
 70
     0
 10
0.0
 20
0.0
 30
0.0
  3
SW_CENTERMARKSYMBOL_0
  1

  0
LINE
  5
284
330
281
100
AcDbEntity
  8
0
  6
SLD-Durchgehend
 62
     0
370
     0
100
AcDbLine
 10
0.0
 20
0.0
 30
0.0
 11
0.0
 21
1.0
 31
0.0
  0
LINE
  5
285
330
281
100
AcDbEntity
  8
0
  6
SLD-Durchgehend
 62
     0
370
     0
100
AcDbLine
 10
0.0
 20
0.0
 30
0.0
 11
-1.0
 21
0.0
 31
0.0
  0
LINE
  5
286
330
281
100
AcDbEntity
  8
0
  6
SLD-Durchgehend
 62
     0
370
     0
100
AcDbLine
 10
0.0
 20
0.0
 30
0.0
 11
0.0
 21
-1.0
 31
0.0
  0
LINE
  5
287
330
281
100
AcDbEntity
  8
0
  6
SLD-Durchgehend
 62
     0
370
     0
100
AcDbLine
 10
0.0
 20
0.0
 30
0.0
 11
1.0
 21
0.0
 31
0.0
  0
LINE
  5
288
330
281
100
AcDbEntity
  8
0
  6
SLD-Durchgehend
 62
     0
370
     0
100
AcDbLine
 10
0.0
 20
2.0
 30
0.0
 11
0.0
 21
2.5
 31
0.0
  0
LINE
  5
289
330
281
100
AcDbEntity
  8
0
  6
SLD-Durchgehend
 62
     0
370
     0
100
AcDbLine
 10
-2.0
 20
0.0
 30
0.0
 11
-2.5
 21
0.0
 31
0.0
  0
LINE
  5
28A
330
281
100
AcDbEntity
  8
0
  6
SLD-Durchgehend
 62
     0
370
     0
100
AcDbLine
 10
0.0
 20
-2.0
 30
0.0
 11
0.0
 21
-2.5
 31
0.0
  0
LINE
  5
28B
330
281
100
AcDbEntity
  8
0
  6
SLD-Durchgehend
 62
     0
370
     0
100
AcDbLine
 10
2.0
 20
0.0
 30
0.0
 11
2.5
 21
0.0
 31
0.0
  0
ENDBLK
  5
283
330
281
100
AcDbEntity
  8
0
100
AcDbBlockEnd
  0
BLOCK
  5
28E
330
28D
100
AcDbEntity
  8
0
100
AcDbBlockBegin
  2
SW_CENTERMARKSYMBOL_1
 70
     0
 10
0.0
 20
0.0
 30
0.0
  3
SW_CENTERMARKSYMBOL_1
  1

  0
LINE
  5
290
330
28D
100
AcDbEntity
  8
0
  6
SLD-Durchgehend
 62
     0
370
     0
100
AcDbLine
 10
0.0
 20
0.0
 30
0.0
 11
0.0
 21
1.0
 31
0.0
  0
LINE
  5
291
330
28D
100
AcDbEntity
  8
0
  6
SLD-Durchgehend
 62
     0
370
     0
100
AcDbLine
 10
0.0
 20
0.0
 30
0.0
 11
-1.0
 21
0.0
 31
0.0
  0
LINE
  5
292
330
28D
100
AcDbEntity
  8
0
  6
SLD-Durchgehend
 62
     0
370
     0
100
AcDbLine
 10
0.0
 20
0.0
 30
0.0
 11
0.0
 21
-1.0
 31
0.0
  0
LINE
  5
293
330
28D
100
AcDbEntity
  8
0
  6
SLD-Durchgehend
 62
     0
370
     0
100
AcDbLine
 10
0.0
 20
0.0
 30
0.0
 11
1.0
 21
0.0
 31
0.0
  0
LINE
  5
294
330
28D
100
AcDbEntity
  8
0
  6
SLD-Durchgehend
 62
     0
370
     0
100
AcDbLine
 10
0.0
 20
2.0
 30
0.0
 11
0.0
 21
2.5
 31
0.0
  0
LINE
  5
295
330
28D
100
AcDbEntity
  8
0
  6
SLD-Durchgehend
 62
     0
370
     0
100
AcDbLine
 10
-2.0
 20
0.0
 30
0.0
 11
-2.5
 21
0.0
 31
0.0
  0
LINE
  5
296
330
28D
100
AcDbEntity
  8
0
  6
SLD-Durchgehend
 62
     0
370
     0
100
AcDbLine
 10
0.0
 20
-2.0
 30
0.0
 11
0.0
 21
-2.5
 31
0.0
  0
LINE
  5
297
330
28D
100
AcDbEntity
  8
0
  6
SLD-Durchgehend
 62
     0
370
     0
100
AcDbLine
 10
2.0
 20
0.0
 30
0.0
 11
2.5
 21
0.0
 31
0.0
  0
ENDBLK
  5
28F
330
28D
100
AcDbEntity
  8
0
100
AcDbBlockEnd
  0
BLOCK
  5
29A
330
299
100
AcDbEntity
  8
0
100
AcDbBlockBegin
  2
SW_CENTERMARKSYMBOL_2
 70
     0
 10
0.0
 20
0.0
 30
0.0
  3
SW_CENTERMARKSYMBOL_2
  1

  0
LINE
  5
29C
330
299
100
AcDbEntity
  8
0
  6
SLD-Durchgehend
 62
     0
370
     0
100
AcDbLine
 10
0.0
 20
0.0
 30
0.0
 11
0.0
 21
1.0
 31
0.0
  0
LINE
  5
29D
330
299
100
AcDbEntity
  8
0
  6
SLD-Durchgehend
 62
     0
370
     0
100
AcDbLine
 10
0.0
 20
0.0
 30
0.0
 11
-1.0
 21
0.0
 31
0.0
  0
LINE
  5
29E
330
299
100
AcDbEntity
  8
0
  6
SLD-Durchgehend
 62
     0
370
     0
100
AcDbLine
 10
0.0
 20
0.0
 30
0.0
 11
0.0
 21
-1.0
 31
0.0
  0
LINE
  5
29F
330
299
100
AcDbEntity
  8
0
  6
SLD-Durchgehend
 62
     0
370
     0
100
AcDbLine
 10
0.0
 20
0.0
 30
0.0
 11
1.0
 21
0.0
 31
0.0
  0
LINE
  5
2A0
330
299
100
AcDbEntity
  8
0
  6
SLD-Durchgehend
 62
     0
370
     0
100
AcDbLine
 10
0.0
 20
2.0
 30
0.0
 11
0.0
 21
10.08
 31
0.0
  0
LINE
  5
2A1
330
299
100
AcDbEntity
  8
0
  6
SLD-Durchgehend
 62
     0
370
     0
100
AcDbLine
 10
-2.0
 20
0.0
 30
0.0
 11
-10.08
 21
0.0
 31
0.0
  0
LINE
  5
2A2
330
299
100
AcDbEntity
  8
0
  6
SLD-Durchgehend
 62
     0
370
     0
100
AcDbLine
 10
0.0
 20
-2.0
 30
0.0
 11
0.0
 21
-10.08
 31
0.0
  0
LINE
  5
2A3
330
299
100
AcDbEntity
  8
0
  6
SLD-Durchgehend
 62
     0
370
     0
100
AcDbLine
 10
2.0
 20
0.0
 30
0.0
 11
10.08
 21
0.0
 31
0.0
  0
ENDBLK
  5
29B
330
299
100
AcDbEntity
  8
0
100
AcDbBlockEnd
  0
BLOCK
  5
2A6
330
2A5
100
AcDbEntity
  8
0
100
AcDbBlockBegin
  2
SW_CENTERMARKSYMBOL_3
 70
     0
 10
0.0
 20
0.0
 30
0.0
  3
SW_CENTERMARKSYMBOL_3
  1

  0
LINE
  5
2A8
330
2A5
100
AcDbEntity
  8
0
  6
SLD-Durchgehend
 62
     0
370
     0
100
AcDbLine
 10
0.0
 20
0.0
 30
0.0
 11
0.0
 21
1.0
 31
0.0
  0
LINE
  5
2A9
330
2A5
100
AcDbEntity
  8
0
  6
SLD-Durchgehend
 62
     0
370
     0
100
AcDbLine
 10
0.0
 20
0.0
 30
0.0
 11
-1.0
 21
0.0
 31
0.0
  0
LINE
  5
2AA
330
2A5
100
AcDbEntity
  8
0
  6
SLD-Durchgehend
 62
     0
370
     0
100
AcDbLine
 10
0.0
 20
0.0
 30
0.0
 11
0.0
 21
-1.0
 31
0.0
  0
LINE
  5
2AB
330
2A5
100
AcDbEntity
  8
0
  6
SLD-Durchgehend
 62
     0
370
     0
100
AcDbLine
 10
0.0
 20
0.0
 30
0.0
 11
1.0
 21
0.0
 31
0.0
  0
LINE
  5
2AC
330
2A5
100
AcDbEntity
  8
0
  6
SLD-Durchgehend
 62
     0
370
     0
100
AcDbLine
 10
0.0
 20
2.0
 30
0.0
 11
0.0
 21
14.75
 31
0.0
  0
LINE
  5
2AD
330
2A5
100
AcDbEntity
  8
0
  6
SLD-Durchgehend
 62
     0
370
     0
100
AcDbLine
 10
-2.0
 20
0.0
 30
0.0
 11
-14.75
 21
0.0
 31
0.0
  0
LINE
  5
2AE
330
2A5
100
AcDbEntity
  8
0
  6
SLD-Durchgehend
 62
     0
370
     0
100
AcDbLine
 10
0.0
 20
-2.0
 30
0.0
 11
0.0
 21
-14.75
 31
0.0
  0
LINE
  5
2AF
330
2A5
100
AcDbEntity
  8
0
  6
SLD-Durchgehend
 62
     0
370
     0
100
AcDbLine
 10
2.0
 20
0.0
 30
0.0
 11
14.75
 21
0.0
 31
0.0
  0
ENDBLK
  5
2A7
330
2A5
100
AcDbEntity
  8
0
100
AcDbBlockEnd
  0
ENDSEC
  0
SECTION
  2
ENTITIES
  0
HATCH
  5
89
330
1F
100
AcDbEntity
  8
0
  6
Continuous
 62
    52
100
AcDbHatch
 10
0.0
 20
0.0
 30
0.0
210
0.0
220
0.0
230
1.0
  2
SOLID
 70
     1
 71
     0
 91
        1
 92
        0
 93
        6
 72
     2
 10
192.2166905884209
 20
22.19368183392314
 40
9.336383935046273
 50
28.83743273930616
 51
198.8193368338524
 73
     1
 72
     1
 10
183.3794255903912
 20
19.18190290159951
 11
183.7816097341537
 21
19.18190290159951
 72
     1
 10
183.7816097341537
 20
19.18190290159951
 11
185.8103449730125
 21
26.54854125382066
 72
     1
 10
185.8103449730125
 20
26.54854125382066
 11
187.6133250240623
 21
26.54854125382066
 72
     2
 10
193.3341692458887
 20
24.54038196427235
 40
6.063065424568993
 50
199.342348098532
 51
339.1651749394908
 73
     0
 72
     1
 10
199.0007687940603
 20
26.69686333522488
 11
200.3952859047893
 21
26.69686333522488
 97
        0
 75
     0
 76
     1
 98
        1
 10
0.0
 20
0.0
  0
HATCH
  5
8A
330
1F
100
AcDbEntity
  8
0
  6
Continuous
 62
     7
100
AcDbHatch
 10
0.0
 20
0.0
 30
0.0
210
0.0
220
0.0
230
1.0
  2
SOLID
 70
     1
 71
     0
 91
        2
 92
        0
 93
        6
 72
     1
 10
185.9093832949075
 20
26.41854125382066
 11
187.7062226385283
 21
26.41854125382066
 72
     2
 10
193.3341692458887
 20
24.54038196427235
 40
5.933065424568984
 50
198.4548941224165
 51
340.0282228512785
 73
     0
 72
     1
 10
198.9104259280544
 20
26.56686333522488
 11
200.6123864120185
 21
26.56686333522488
 72
     2
 10
192.2166905884209
 20
22.19368183392314
 40
9.466383935046263
 50
27.51427472226149
 51
199.3834076115144
 73
     1
 72
     1
 10
183.2868725641771
 20
19.05190290159951
 11
183.8806480560487
 21
19.05190290159951
 72
     1
 10
183.8806480560487
 20
19.05190290159951
 11
185.9093832949075
 21
26.41854125382066
 97
        0
 92
        0
 93
        6
 72
     1
 10
183.7816097341537
 20
19.18190290159951
 11
183.3794255903912
 21
19.18190290159951
 72
     2
 10
192.2166905884209
 20
22.19368183392314
 40
9.336383935046273
 50
161.1806631661484
 51
331.1625672606947
 73
     0
 72
     1
 10
200.3952859047893
 20
26.69686333522488
 11
199.0007687940603
 21
26.69686333522488
 72
     2
 10
193.3341692458887
 20
24.54038196427235
 40
6.063065424568993
 50
20.83482506051003
 51
160.6576519014688
 73
     1
 72
     1
 10
187.6133250240623
 20
26.54854125382066
 11
185.8103449730125
 21
26.54854125382066
 72
     1
 10
185.8103449730125
 20
26.54854125382066
 11
183.7816097341537
 21
19.18190290159951
 97
        0
 75
     0
 76
     1
 98
        1
 10
0.0
 20
0.0
  0
HATCH
  5
8B
330
1F
100
AcDbEntity
  8
0
  6
Continuous
 62
     7
100
AcDbHatch
 10
0.0
 20
0.0
 30
0.0
210
0.0
220
0.0
230
1.0
  2
SOLID
 70
     1
 71
     0
 91
        2
 92
        0
 93
        3
 72
     1
 10
188.1360432780339
 20
21.32616695171929
 11
187.5549013500252
 21
19.05190290159951
 72
     1
 10
187.5549013500252
 20
19.05190290159951
 11
189.0761880166766
 21
19.05190290159951
 72
     1
 10
189.0761880166766
 20
19.05190290159951
 11
188.1360432780339
 21
21.32616695171929
 97
        0
 92
        0
 93
        3
 72
     1
 10
188.8817783160102
 20
19.18190290159951
 11
187.7222972997866
 21
19.18190290159951
 72
     1
 10
187.7222972997866
 20
19.18190290159951
 11
188.1652269908361
 21
20.91528165906799
 72
     1
 10
188.1652269908361
 20
20.91528165906799
 11
188.8817783160102
 21
19.18190290159951
 97
        0
 75
     0
 76
     1
 98
        1
 10
0.0
 20
0.0
  0
HATCH
  5
8C
330
1F
100
AcDbEntity
  8
0
  6
Continuous
 62
    52
100
AcDbHatch
 10
0.0
 20
0.0
 30
0.0
210
0.0
220
0.0
230
1.0
  2
SOLID
 70
     1
 71
     0
 91
        1
 92
        0
 93
        3
 72
     1
 10
188.1652269908361
 20
20.91528165906799
 11
187.7222972997866
 21
19.18190290159951
 72
     1
 10
187.7222972997866
 20
19.18190290159951
 11
188.8817783160102
 21
19.18190290159951
 72
     1
 10
188.8817783160102
 20
19.18190290159951
 11
188.1652269908361
 21
20.91528165906799
 97
        0
 75
     0
 76
     1
 98
        1
 10
0.0
 20
0.0
  0
HATCH
  5
8D
330
1F
100
AcDbEntity
  8
0
  6
Continuous
 62
     7
100
AcDbHatch
 10
0.0
 20
0.0
 30
0.0
210
0.0
220
0.0
230
1.0
  2
SOLID
 70
     1
 71
     0
 91
        1
 92
        0
 93
       10
 72
     1
 10
186.2557525416791
 20
26.17133921476775
 11
184.4249433061573
 21
19.10134359540109
 72
     1
 10
184.4249433061573
 20
19.10134359540109
 11
186.9979725360538
 21
19.10134359540109
 72
     1
 10
186.9979725360538
 20
19.10134359540109
 11
187.9875987755306
 21
22.90826414852663
 72
     1
 10
187.9875987755306
 20
22.90826414852663
 11
189.5215202651155
 21
19.1013435954011
 72
     1
 10
189.5215202651155
 20
19.1013435954011
 11
192.1935124966802
 21
19.1013435954011
 72
     1
 10
192.1935124966802
 20
19.1013435954011
 11
193.8758772296986
 21
26.07245782716463
 72
     1
 10
193.8758772296986
 20
26.07245782716463
 11
191.4512925023056
 21
26.07245782716463
 72
     1
 10
191.4512925023056
 20
26.07245782716463
 11
190.5606280054267
 21
22.16665660141341
 72
     1
 10
190.5606280054267
 20
22.16665660141341
 11
188.8782632724091
 21
26.17133921476775
 72
     1
 10
188.8782632724091
 20
26.17133921476775
 11
186.2557525416791
 21
26.17133921476775
 97
        0
 75
     0
 76
     1
 98
        1
 10
0.0
 20
0.0
  0
HATCH
  5
8E
330
1F
100
AcDbEntity
  8
0
  6
Continuous
 62
     7
100
AcDbHatch
 10
0.0
 20
0.0
 30
0.0
210
0.0
220
0.0
230
1.0
  2
SOLID
 70
     1
 71
     0
 91
        1
 92
        0
 93
        8
 72
     1
 10
194.469653980641
 20
26.1218985209666
 11
193.7274339862659
 21
23.25434757518244
 72
     1
 10
193.7274339862659
 20
23.25434757518244
 11
194.1727662347047
 21
19.00246292277559
 72
     1
 10
194.1727662347047
 20
19.00246292277559
 11
197.3395709564733
 21
19.00246292277558
 72
     1
 10
197.3395709564733
 20
19.00246292277558
 11
201.5454846776287
 21
26.07245782718087
 72
     1
 10
201.5454846776287
 20
26.07245782718087
 11
198.7745294443889
 21
26.07245782718087
 72
     1
 10
198.7745294443889
 20
26.07245782718087
 11
196.5478694612618
 21
22.06777521384519
 72
     1
 10
196.5478694612618
 20
22.06777521384519
 11
196.0530569710605
 21
26.1218985209666
 72
     1
 10
196.0530569710605
 20
26.1218985209666
 11
194.469653980641
 21
26.1218985209666
 97
        0
 75
     0
 76
     1
 98
        1
 10
0.0
 20
0.0
  0
HATCH
  5
8F
330
1F
100
AcDbEntity
  8
0
  6
Continuous
 62
     7
100
AcDbHatch
 10
0.0
 20
0.0
 30
0.0
210
0.0
220
0.0
230
1.0
  2
SOLID
 70
     1
 71
     0
 91
        2
 92
        0
 93
        3
 72
     2
 10
193.6015949770801
 20
21.88049322517952
 40
8.003675602344133
 50
339.3038849228831
 51
377.0191257258724
 73
     1
 72
     1
 10
201.2547664701381
 20
24.22309631691353
 11
198.0323094500141
 21
19.05190290159951
 72
     1
 10
198.0323094500141
 20
19.05190290159951
 11
201.088777352908
 21
19.05190290159951
 97
        0
 92
        0
 93
        3
 72
     1
 10
198.2664948845861
 20
19.18190290159951
 11
201.2102984795193
 21
23.90593107979706
 72
     2
 10
193.6015949770801
 20
21.88049322517952
 40
7.873675602344147
 50
345.0935417050616
 51
380.0436402959712
 73
     0
 72
     1
 10
200.9983765580401
 20
19.18190290159951
 11
198.2664948845861
 21
19.18190290159951
 97
        0
 75
     0
 76
     1
 98
        1
 10
0.0
 20
0.0
  0
HATCH
  5
90
330
1F
100
AcDbEntity
  8
0
  6
Continuous
 62
    52
100
AcDbHatch
 10
0.0
 20
0.0
 30
0.0
210
0.0
220
0.0
230
1.0
  2
SOLID
 70
     1
 71
     0
 91
        1
 92
        0
 93
        3
 72
     2
 10
193.6015949770801
 20
21.88049322517952
 40
7.873675602344147
 50
339.9563597040304
 51
374.90645829494
 73
     1
 72
     1
 10
201.2102984795193
 20
23.90593107979706
 11
198.2664948845861
 21
19.18190290159951
 72
     1
 10
198.2664948845861
 20
19.18190290159951
 11
200.9983765580401
 21
19.18190290159951
 97
        0
 75
     0
 76
     1
 98
        1
 10
0.0
 20
0.0
  0
LINE
  5
91
330
1F
100
AcDbEntity
  8
0
  6
SLD-Durchgehend
 62
     7
370
     0
100
AcDbLine
 10
17.0
 20
148.5
 30
0.0
 11
0.0
 21
148.5
 31
0.0
  0
LINE
  5
92
330
1F
100
AcDbEntity
  8
0
  6
SLD-Durchgehend
 62
     7
370
     0
100
AcDbLine
 10
17.0
 20
292.0
 30
0.0
 11
205.0
 21
292.0
 31
0.0
  0
LINE
  5
93
330
1F
100
AcDbEntity
  8
0
  6
SLD-Durchgehend
 62
     7
370
     0
100
AcDbLine
 10
17.0
 20
292.0
 30
0.0
 11
17.0
 21
5.0
 31
0.0
  0
LINE
  5
94
330
1F
100
AcDbEntity
  8
0
  6
SLD-Durchgehend
 62
     7
370
     0
100
AcDbLine
 10
17.0
 20
5.0
 30
0.0
 11
205.0
 21
5.0
 31
0.0
  0
LINE
  5
95
330
1F
100
AcDbEntity
  8
0
  6
SLD-Durchgehend
 62
     7
370
     0
100
AcDbLine
 10
205.0
 20
292.0
 30
0.0
 11
205.0
 21
5.0
 31
0.0
  0
LINE
  5
96
330
1F
100
AcDbEntity
  8
0
  6
SLD-Durchgehend
 62
     7
370
     0
100
AcDbLine
 10
17.0
 20
40.0
 30
0.0
 11
17.0
 21
5.0
 31
0.0
  0
LINE
  5
97
330
1F
100
AcDbEntity
  8
0
  6
SLD-Durchgehend
 62
     7
370
     0
100
AcDbLine
 10
17.0
 20
5.0
 30
0.0
 11
205.0
 21
5.0
 31
0.0
  0
LINE
  5
98
330
1F
100
AcDbEntity
  8
0
  6
SLD-Durchgehend
 62
     7
370
     0
100
AcDbLine
 10
205.0
 20
40.0
 30
0.0
 11
205.0
 21
5.0
 31
0.0
  0
LINE
  5
99
330
1F
100
AcDbEntity
  8
0
  6
SLD-Durchgehend
 62
     7
370
     0
100
AcDbLine
 10
17.0
 20
40.0
 30
0.0
 11
205.0
 21
40.0
 31
0.0
  0
LINE
  5
9A
330
1F
100
AcDbEntity
  8
0
  6
SLD-Durchgehend
 62
     7
370
     0
100
AcDbLine
 10
140.0
 20
40.0
 30
0.0
 11
140.0
 21
5.0
 31
0.0
  0
LINE
  5
9B
330
1F
100
AcDbEntity
  8
0
  6
SLD-Durchgehend
 62
     7
370
     0
100
AcDbLine
 10
69.0
 20
40.0
 30
0.0
 11
69.0
 21
5.0
 31
0.0
  0
LINE
  5
9C
330
1F
100
AcDbEntity
  8
0
  6
SLD-Durchgehend
 62
     7
370
     0
100
AcDbLine
 10
17.0
 20
45.5
 30
0.0
 11
17.0
 21
37.5
 31
0.0
  0
LINE
  5
9D
330
1F
100
AcDbEntity
  8
0
  6
SLD-Durchgehend
 62
     7
370
     0
100
AcDbLine
 10
17.0
 20
19.5
 30
0.0
 11
69.0
 21
19.5
 31
0.0
  0
LINE
  5
9E
330
1F
100
AcDbEntity
  8
0
  6
SLD-Durchgehend
 62
     7
370
     0
100
AcDbLine
 10
205.0
 20
45.5
 30
0.0
 11
205.0
 21
37.5
 31
0.0
  0
LINE
  5
9F
330
1F
100
AcDbEntity
  8
0
  6
SLD-Durchgehend
 62
     7
370
     0
100
AcDbLine
 10
17.0
 20
12.25
 30
0.0
 11
69.0
 21
12.25
 31
0.0
  0
LINE
  5
A0
330
1F
100
AcDbEntity
  8
0
  6
SLD-Durchgehend
 62
     7
370
     0
100
AcDbLine
 10
0.0
 20
0.0
 30
0.0
 11
210.0
 21
0.0
 31
0.0
  0
LINE
  5
A1
330
1F
100
AcDbEntity
  8
0
  6
SLD-Durchgehend
 62
     7
370
     0
100
AcDbLine
 10
0.0
 20
0.0
 30
0.0
 11
0.0
 21
297.0
 31
0.0
  0
LINE
  5
A2
330
1F
100
AcDbEntity
  8
0
  6
SLD-Durchgehend
 62
     7
370
     0
100
AcDbLine
 10
0.0
 20
297.0
 30
0.0
 11
210.0
 21
297.0
 31
0.0
  0
LINE
  5
A3
330
1F
100
AcDbEntity
  8
0
  6
SLD-Durchgehend
 62
     7
370
     0
100
AcDbLine
 10
210.0
 20
0.0
 30
0.0
 11
210.0
 21
297.0
 31
0.0
  0
LINE
  5
A4
330
1F
100
AcDbEntity
  8
0
  6
SLD-Durchgehend
 62
     7
370
     0
100
AcDbLine
 10
183.2868725642
 20
19.0519029016
 30
0.0
 11
183.880648056
 21
19.0519029016
 31
0.0
  0
LINE
  5
A5
330
1F
100
AcDbEntity
  8
0
  6
SLD-Durchgehend
 62
     7
370
     0
100
AcDbLine
 10
183.880648056
 20
19.0519029016
 30
0.0
 11
185.9093832949
 21
26.4185412538
 31
0.0
  0
LINE
  5
A6
330
1F
100
AcDbEntity
  8
0
  6
SLD-Durchgehend
 62
     7
370
     0
100
AcDbLine
 10
185.9093832949
 20
26.4185412538
 30
0.0
 11
187.7062226385
 21
26.4185412538
 31
0.0
  0
LINE
  5
A7
330
1F
100
AcDbEntity
  8
0
  6
SLD-Durchgehend
 62
     7
370
     0
100
AcDbLine
 10
198.9104259281
 20
26.5668633352
 30
0.0
 11
200.612386412
 21
26.5668633352
 31
0.0
  0
LINE
  5
A8
330
1F
100
AcDbEntity
  8
0
  6
SLD-Durchgehend
 62
     7
370
     0
100
AcDbLine
 10
186.2557525417
 20
26.1713392148
 30
0.0
 11
188.8782632724
 21
26.1713392148
 31
0.0
  0
LINE
  5
A9
330
1F
100
AcDbEntity
  8
0
  6
SLD-Durchgehend
 62
     7
370
     0
100
AcDbLine
 10
188.8782632724
 20
26.1713392148
 30
0.0
 11
190.5606280054
 21
22.1666566014
 31
0.0
  0
LINE
  5
AA
330
1F
100
AcDbEntity
  8
0
  6
SLD-Durchgehend
 62
     7
370
     0
100
AcDbLine
 10
190.5606280054
 20
22.1666566014
 30
0.0
 11
191.4512925023
 21
26.0724578272
 31
0.0
  0
LINE
  5
AB
330
1F
100
AcDbEntity
  8
0
  6
SLD-Durchgehend
 62
     7
370
     0
100
AcDbLine
 10
191.4512925023
 20
26.0724578272
 30
0.0
 11
193.8758772297
 21
26.0724578272
 31
0.0
  0
LINE
  5
AC
330
1F
100
AcDbEntity
  8
0
  6
SLD-Durchgehend
 62
     7
370
     0
100
AcDbLine
 10
193.8758772297
 20
26.0724578272
 30
0.0
 11
192.1935124967
 21
19.1013435954
 31
0.0
  0
LINE
  5
AD
330
1F
100
AcDbEntity
  8
0
  6
SLD-Durchgehend
 62
     7
370
     0
100
AcDbLine
 10
192.1935124967
 20
19.1013435954
 30
0.0
 11
189.5215202651
 21
19.1013435954
 31
0.0
  0
LINE
  5
AE
330
1F
100
AcDbEntity
  8
0
  6
SLD-Durchgehend
 62
     7
370
     0
100
AcDbLine
 10
189.5215202651
 20
19.1013435954
 30
0.0
 11
187.9875987755
 21
22.9082641485
 31
0.0
  0
LINE
  5
AF
330
1F
100
AcDbEntity
  8
0
  6
SLD-Durchgehend
 62
     7
370
     0
100
AcDbLine
 10
187.9875987755
 20
22.9082641485
 30
0.0
 11
186.9979725361
 21
19.1013435954
 31
0.0
  0
LINE
  5
B0
330
1F
100
AcDbEntity
  8
0
  6
SLD-Durchgehend
 62
     7
370
     0
100
AcDbLine
 10
186.9979725361
 20
19.1013435954
 30
0.0
 11
184.4249433062
 21
19.1013435954
 31
0.0
  0
LINE
  5
B1
330
1F
100
AcDbEntity
  8
0
  6
SLD-Durchgehend
 62
     7
370
     0
100
AcDbLine
 10
184.4249433062
 20
19.1013435954
 30
0.0
 11
186.2557525417
 21
26.1713392148
 31
0.0
  0
LINE
  5
B2
330
1F
100
AcDbEntity
  8
0
  6
SLD-Durchgehend
 62
     7
370
     0
100
AcDbLine
 10
188.136043278
 20
21.3261669517
 30
0.0
 11
189.0761880167
 21
19.0519029016
 31
0.0
  0
LINE
  5
B3
330
1F
100
AcDbEntity
  8
0
  6
SLD-Durchgehend
 62
     7
370
     0
100
AcDbLine
 10
189.0761880167
 20
19.0519029016
 30
0.0
 11
187.55490135
 21
19.0519029016
 31
0.0
  0
LINE
  5
B4
330
1F
100
AcDbEntity
  8
0
  6
SLD-Durchgehend
 62
     7
370
     0
100
AcDbLine
 10
187.55490135
 20
19.0519029016
 30
0.0
 11
188.136043278
 21
21.3261669517
 31
0.0
  0
LINE
  5
B5
330
1F
100
AcDbEntity
  8
0
  6
SLD-Durchgehend
 62
     7
370
     0
100
AcDbLine
 10
194.4696539806
 20
26.121898521
 30
0.0
 11
196.0530569711
 21
26.121898521
 31
0.0
  0
LINE
  5
B6
330
1F
100
AcDbEntity
  8
0
  6
SLD-Durchgehend
 62
     7
370
     0
100
AcDbLine
 10
196.0530569711
 20
26.121898521
 30
0.0
 11
196.5478694613
 21
22.0677752138
 31
0.0
  0
LINE
  5
B7
330
1F
100
AcDbEntity
  8
0
  6
SLD-Durchgehend
 62
     7
370
     0
100
AcDbLine
 10
196.5478694613
 20
22.0677752138
 30
0.0
 11
198.7745294444
 21
26.0724578272
 31
0.0
  0
LINE
  5
B8
330
1F
100
AcDbEntity
  8
0
  6
SLD-Durchgehend
 62
     7
370
     0
100
AcDbLine
 10
198.7745294444
 20
26.0724578272
 30
0.0
 11
201.5454846776
 21
26.0724578272
 31
0.0
  0
LINE
  5
B9
330
1F
100
AcDbEntity
  8
0
  6
SLD-Durchgehend
 62
     7
370
     0
100
AcDbLine
 10
201.5454846776
 20
26.0724578272
 30
0.0
 11
197.3395709565
 21
19.0024629228
 31
0.0
  0
LINE
  5
BA
330
1F
100
AcDbEntity
  8
0
  6
SLD-Durchgehend
 62
     7
370
     0
100
AcDbLine
 10
197.3395709565
 20
19.0024629228
 30
0.0
 11
194.1727662347
 21
19.0024629228
 31
0.0
  0
LINE
  5
BB
330
1F
100
AcDbEntity
  8
0
  6
SLD-Durchgehend
 62
     7
370
     0
100
AcDbLine
 10
194.1727662347
 20
19.0024629228
 30
0.0
 11
193.7274339863
 21
23.2543475752
 31
0.0
  0
LINE
  5
BC
330
1F
100
AcDbEntity
  8
0
  6
SLD-Durchgehend
 62
     7
370
     0
100
AcDbLine
 10
193.7274339863
 20
23.2543475752
 30
0.0
 11
194.4696539806
 21
26.121898521
 31
0.0
  0
LINE
  5
BD
330
1F
100
AcDbEntity
  8
0
  6
SLD-Durchgehend
 62
     7
370
     0
100
AcDbLine
 10
198.03230945
 20
19.0519029016
 30
0.0
 11
201.2547664701
 21
24.2230963169
 31
0.0
  0
LINE
  5
BE
330
1F
100
AcDbEntity
  8
0
  6
SLD-Durchgehend
 62
     7
370
     0
100
AcDbLine
 10
198.03230945
 20
19.0519029016
 30
0.0
 11
201.0887773529
 21
19.0519029016
 31
0.0
  0
LINE
  5
BF
330
1F
100
AcDbEntity
  8
0
  6
SLD-Durchgehend
 62
     7
370
     0
100
AcDbLine
 10
198.2664948846
 20
19.1819029016
 30
0.0
 11
200.998376558
 21
19.1819029016
 31
0.0
  0
LINE
  5
C0
330
1F
100
AcDbEntity
  8
0
  6
SLD-Durchgehend
 62
     7
370
     0
100
AcDbLine
 10
198.2664948846
 20
19.1819029016
 30
0.0
 11
201.2102984795
 21
23.9059310798
 31
0.0
  0
LINE
  5
C1
330
1F
100
AcDbEntity
  8
0
  6
SLD-Durchgehend
 62
     7
370
     0
100
AcDbLine
 10
199.0007687941
 20
26.6968633352
 30
0.0
 11
200.3952859048
 21
26.6968633352
 31
0.0
  0
LINE
  5
C2
330
1F
100
AcDbEntity
  8
0
  6
SLD-Durchgehend
 62
     7
370
     0
100
AcDbLine
 10
183.3794255904
 20
19.1819029016
 30
0.0
 11
183.7816097342
 21
19.1819029016
 31
0.0
  0
LINE
  5
C3
330
1F
100
AcDbEntity
  8
0
  6
SLD-Durchgehend
 62
     7
370
     0
100
AcDbLine
 10
183.7816097342
 20
19.1819029016
 30
0.0
 11
185.810344973
 21
26.5485412538
 31
0.0
  0
LINE
  5
C4
330
1F
100
AcDbEntity
  8
0
  6
SLD-Durchgehend
 62
     7
370
     0
100
AcDbLine
 10
185.810344973
 20
26.5485412538
 30
0.0
 11
187.6133250241
 21
26.5485412538
 31
0.0
  0
LINE
  5
C5
330
1F
100
AcDbEntity
  8
0
  6
SLD-Durchgehend
 62
     7
370
     0
100
AcDbLine
 10
188.1652269908
 20
20.9152816591
 30
0.0
 11
188.881778316
 21
19.1819029016
 31
0.0
  0
LINE
  5
C6
330
1F
100
AcDbEntity
  8
0
  6
SLD-Durchgehend
 62
     7
370
     0
100
AcDbLine
 10
188.881778316
 20
19.1819029016
 30
0.0
 11
187.7222972998
 21
19.1819029016
 31
0.0
  0
LINE
  5
C7
330
1F
100
AcDbEntity
  8
0
  6
SLD-Durchgehend
 62
     7
370
     0
100
AcDbLine
 10
187.7222972998
 20
19.1819029016
 30
0.0
 11
188.1652269908
 21
20.9152816591
 31
0.0
  0
LINE
  5
C8
330
1F
100
AcDbEntity
  8
0
  6
SLD-Durchgehend
 62
     7
370
     0
100
AcDbLine
 10
17.0
 20
26.75
 30
0.0
 11
69.0
 21
26.75
 31
0.0
  0
CIRCLE
  5
C9
330
1F
100
AcDbEntity
  8
0
  6
SLD-Durchgehend
 62
     7
370
     0
100
AcDbCircle
 10
10.0
 20
188.5
 30
0.0
 40
3.000000000000003
  0
CIRCLE
  5
CA
330
1F
100
AcDbEntity
  8
0
  6
SLD-Durchgehend
 62
     7
370
     0
100
AcDbCircle
 10
10.0
 20
108.5
 30
0.0
 40
3.000000000000003
  0
ARC
  5
CB
330
1F
100
AcDbEntity
  8
0
  6
SLD-Durchgehend
 62
     7
370
     0
100
AcDbCircle
 10
192.2166905884
 20
22.1936818339
 30
0.0
 40
9.466383935046267
100
AcDbArc
 50
27.5142747223
 51
199.3834076115
  0
ARC
  5
CC
330
1F
100
AcDbEntity
  8
0
  6
SLD-Durchgehend
 62
     7
370
     0
100
AcDbCircle
 10
193.3341692459
 20
24.5403819643
 30
0.0
 40
5.933065424569019
100
AcDbArc
 50
19.9717771487
 51
161.5451058776
  0
ARC
  5
CD
330
1F
100
AcDbEntity
  8
0
  6
SLD-Durchgehend
 62
     7
370
     0
100
AcDbCircle
 10
193.6015949771
 20
21.8804932252
 30
0.0
 40
8.003675602344138
100
AcDbArc
 50
339.3038849229
 51
17.0191257259
  0
CIRCLE
  5
CE
330
1F
100
AcDbEntity
  8
0
  6
SLD-Durchgehend
 62
     7
370
     0
100
AcDbCircle
 10
202.3866676737
 20
25.5286123403
 30
0.0
 40
0.6921638106894162
  0
ARC
  5
CF
330
1F
100
AcDbEntity
  8
0
  6
SLD-Durchgehend
 62
     7
370
     0
100
AcDbCircle
 10
193.6015949771
 20
21.8804932252
 30
0.0
 40
7.873675602344139
100
AcDbArc
 50
339.956359704
 51
14.9064582949
  0
ARC
  5
D0
330
1F
100
AcDbEntity
  8
0
  6
SLD-Durchgehend
 62
     7
370
     0
100
AcDbCircle
 10
193.3341692459
 20
24.5403819643
 30
0.0
 40
6.063065424569016
100
AcDbArc
 50
20.8348250605
 51
160.6576519015
  0
ARC
  5
D1
330
1F
100
AcDbEntity
  8
0
  6
SLD-Durchgehend
 62
     7
370
     0
100
AcDbCircle
 10
192.2166905884
 20
22.1936818339
 30
0.0
 40
9.336383935046278
100
AcDbArc
 50
28.8374327393
 51
198.8193368339
  0
MTEXT
  5
D2
330
1F
100
AcDbEntity
  8
0
  6
Continuous
 62
     7
370
     0
100
AcDbMText
 10
30.333368457
 20
8.977587849
 30
0.0
 40
3.0
 41
0.0
 71
     1
 72
     1
  1
01912500
  7
SLDTEXTSTYLE0
 73
     1
 44
1.0
  0
MTEXT
  5
D3
330
1F
100
AcDbEntity
  8
0
  6
Continuous
 62
     7
370
     0
100
AcDbMText
 10
72.5042038186
 20
12.4849420031
 30
0.0
 40
4.0
 41
0.0
 71
     1
 72
     1
  1
Vibrateur à piston
  7
SLDTEXTSTYLE0
 73
     1
 44
1.0
  0
MTEXT
  5
D4
330
1F
100
AcDbEntity
  8
0
  6
Continuous
 62
     7
370
     0
100
AcDbMText
 10
18.5009192524
 20
11.6424354296
 30
0.0
 40
2.0
 41
0.0
 71
     1
 72
     1
  1
Bestell Nr.: / Part no.: / No d`article:
  7
SLDTEXTSTYLE0
 73
     1
 44
1.0
  0
INSERT
  5
DE
330
1F
100
AcDbEntity
  8
0
  6
Continuous
 62
     7
370
     0
100
AcDbBlockReference
  2
SW_NOTE_1
 10
142.2177413053
 20
12.0976931256
 30
0.0
  0
MTEXT
  5
DF
330
1F
100
AcDbEntity
  8
0
  6
Continuous
 62
     7
370
     0
100
AcDbMText
 10
142.2177413053
 20
17.8281708005
 30
0.0
 40
1.8520833333
 41
0.0
 71
     1
 72
     1
  1
Fritz-Lenges-Straße 3,  55252 Mainz-Kastel
  7
SLDTEXTSTYLE0
 73
     1
 44
1.0
  0
INSERT
  5
E5
330
1F
100
AcDbEntity
  8
0
  6
Continuous
 62
     7
370
     0
100
AcDbBlockReference
  2
SW_NOTE_2
 10
142.2177413053
 20
18.0066254519
 30
0.0
  0
MTEXT
  5
E6
330
1F
100
AcDbEntity
  8
0
  6
Continuous
 62
     7
370
     0
100
AcDbMText
 10
202.0748866834
 20
25.8708309295
 30
0.0
 40
0.65
 41
0.0
 71
     1
 72
     1
  1
R
  7
SLDTEXTSTYLE0
 73
     1
 44
1.0
  0
MTEXT
  5
E7
330
1F
100
AcDbEntity
  8
0
  6
Continuous
 62
     7
370
     0
100
AcDbMText
 10
72.5042038186
 20
19.4879186679
 30
0.0
 40
4.0
 41
0.0
 71
     1
 72
     1
  1
Piston vibrator
  7
SLDTEXTSTYLE0
 73
     1
 44
1.0
  0
MTEXT
  5
E8
330
1F
100
AcDbEntity
  8
0
  6
Continuous
 62
     7
370
     0
100
AcDbMText
 10
72.5042038186
 20
26.495794101
 30
0.0
 40
4.0
 41
0.0
 71
     1
 72
     1
  1
Kolbenvibrator
  7
SLDTEXTSTYLE0
 73
     1
 44
1.0
  0
MTEXT
  5
EA
330
1F
100
AcDbEntity
  8
0
  6
Continuous
 62
     7
370
     0
100
AcDbMText
 10
72.5042038186
 20
35.9994003142
 30
0.0
 40
4.0
 41
0.0
 71
     1
 72
     1
  1
NTS 120 NF
  7
SLDTEXTSTYLE3
 73
     1
 44
1.0
  0
MTEXT
  5
EB
330
1F
100
AcDbEntity
  8
0
  6
Continuous
 62
     7
370
     0
100
AcDbMText
 10
18.5009192524
 20
18.9862304695
 30
0.0
 40
2.0
 41
0.0
 71
     1
 72
     1
  1
Angebot Nr.: / Quotation no.: / Offre no.:
  7
SLDTEXTSTYLE0
 73
     1
 44
1.0
  0
MTEXT
  5
EC
330
1F
100
AcDbEntity
  8
0
  6
Continuous
 62
     7
370
     0
100
AcDbMText
 10
20.29574253
 20
30.6803055821
 30
0.0
 40
2.5
 41
0.0
 71
     1
 72
     1
  1
tous droits réservés
  7
SLDTEXTSTYLE0
 73
     1
 44
1.0
  0
MTEXT
  5
ED
330
1F
100
AcDbEntity
  8
0
  6
Continuous
 62
     7
370
     0
100
AcDbMText
 10
20.29574253
 20
34.503298427
 30
0.0
 40
2.5
 41
0.0
 71
     1
 72
     1
  1
all rights reserved
  7
SLDTEXTSTYLE0
 73
     1
 44
1.0
  0
MTEXT
  5
EE
330
1F
100
AcDbEntity
  8
0
  6
Continuous
 62
     7
370
     0
100
AcDbMText
 10
20.29574253
 20
38.5651106905
 30
0.0
 40
2.5
 41
0.0
 71
     1
 72
     1
  1
alle Schutzrechte vorbehalten
  7
SLDTEXTSTYLE0
 73
     1
 44
1.0
  0
MTEXT
  5
EF
330
1F
100
AcDbEntity
  8
0
  6
Continuous
 62
     7
370
     0
100
AcDbMText
 10
18.5009192524
 20
26.1817224987
 30
0.0
 40
2.0
 41
0.0
 71
     1
 72
     1
  1
Datum: / Date: / Date:
  7
SLDTEXTSTYLE0
 73
     1
 44
1.0
  0
MTEXT
  5
F0
330
1F
100
AcDbEntity
  8
0
  6
Continuous
 62
     7
370
     0
100
AcDbMText
 10
30.333368457
 20
23.5036712568
 30
0.0
 40
3.0
 41
0.0
 71
     1
 72
     1
  1
17.01.22
  7
SLDTEXTSTYLE0
 73
     1
 44
1.0
  0
LINE
  5
F1
330
1F
100
AcDbEntity
  8
0
  6
SLD-Durchgehend
 62
     7
370
    15
100
AcDbLine
 10
108.581062258
 20
109.6734132653
 30
0.0
 11
108.581062258
 21
120.9735980293
 31
0.0
  0
LINE
  5
F2
330
1F
100
AcDbEntity
  8
0
  6
SLD-Durchgehend
 62
     7
370
    15
100
AcDbLine
 10
108.581062258
 20
103.1735984644
 30
0.0
 11
108.581062258
 21
108.6746354623
 31
0.0
  0
LINE
  5
F3
330
1F
100
AcDbEntity
  8
0
  6
SLD-Durchgehend
 62
     7
370
    15
100
AcDbLine
 10
81.081062407
 20
120.9735980293
 30
0.0
 11
81.081062407
 21
103.1735984644
 31
0.0
  0
LINE
  5
F4
330
1F
100
AcDbEntity
  8
0
  6
SLD-Durchgehend
 62
     7
370
    15
100
AcDbLine
 10
108.581062258
 20
159.6702409943
 30
0.0
 11
108.581062258
 21
179.3735994061
 31
0.0
  0
LINE
  5
F5
330
1F
100
AcDbEntity
  8
0
  6
SLD-Durchgehend
 62
     7
370
    15
100
AcDbLine
 10
108.581062258
 20
136.4735996386
 30
0.0
 11
108.581062258
 21
142.6769567689
 31
0.0
  0
LINE
  5
F6
330
1F
100
AcDbEntity
  8
0
  6
SLD-Durchgehend
 62
     7
370
    15
100
AcDbLine
 10
81.081062407
 20
179.3735994061
 30
0.0
 11
81.081062407
 21
136.4735996386
 31
0.0
  0
LINE
  5
F7
330
1F
100
AcDbEntity
  8
0
  6
SLD-Durchgehend
 62
     7
370
    15
100
AcDbLine
 10
108.2810627676
 20
120.9735980293
 30
0.0
 11
108.2810627676
 21
121.2235985359
 31
0.0
  0
LINE
  5
F8
330
1F
100
AcDbEntity
  8
0
  6
SLD-Durchgehend
 62
     7
370
    15
100
AcDbLine
 10
108.2810627676
 20
136.2235991319
 30
0.0
 11
108.2810627676
 21
136.4735996386
 31
0.0
  0
LINE
  5
F9
330
1F
100
AcDbEntity
  8
0
  6
SLD-Durchgehend
 62
     7
370
    15
100
AcDbLine
 10
81.3810618974
 20
136.4735996386
 30
0.0
 11
81.3810618974
 21
136.2235991319
 31
0.0
  0
LINE
  5
FA
330
1F
100
AcDbEntity
  8
0
  6
SLD-Durchgehend
 62
     7
370
    15
100
AcDbLine
 10
81.3810618974
 20
121.2235985359
 30
0.0
 11
81.3810618974
 21
120.9735980293
 31
0.0
  0
LINE
  5
FB
330
1F
100
AcDbEntity
  8
0
  6
SLD-Durchgehend
 62
     7
370
    15
100
AcDbLine
 10
106.5310620151
 20
179.3735994061
 30
0.0
 11
106.5310620151
 21
179.6735970339
 31
0.0
  0
LINE
  5
FC
330
1F
100
AcDbEntity
  8
0
  6
SLD-Durchgehend
 62
     7
370
    15
100
AcDbLine
 10
83.1310626499
 20
179.6735970339
 30
0.0
 11
83.1310626499
 21
179.3735994061
 31
0.0
  0
ARC
  5
FD
330
1F
100
AcDbEntity
  8
0
  6
SLD-Durchgehend
 62
     7
370
    15
100
AcDbCircle
 10
107.7810623325
 20
156.3735984644
 30
0.0
 40
0.2000000000000028
100
AcDbArc
 50
90.0
 51
180.0
  0
ARC
  5
FE
330
1F
100
AcDbEntity
  8
0
  6
SLD-Durchgehend
 62
     7
370
    15
100
AcDbCircle
 10
107.7810623325
 20
145.9735984644
 30
0.0
 40
0.2000000000000028
100
AcDbArc
 50
180.0
 51
270.0
  0
LINE
  5
FF
330
1F
100
AcDbEntity
  8
0
  6
SLD-Durchgehend
 62
     7
370
    15
100
AcDbLine
 10
107.7810626857
 20
145.7735968789
 30
0.0
 11
107.8810625158
 21
145.7735968789
 31
0.0
  0
LINE
  5
100
330
1F
100
AcDbEntity
  8
0
  6
SLD-Durchgehend
 62
     7
370
    15
100
AcDbLine
 10
107.8810625158
 20
156.573597159
 30
0.0
 11
107.7810626857
 21
156.573597159
 31
0.0
  0
ARC
  5
101
330
1F
100
AcDbEntity
  8
0
  6
SLD-Durchgehend
 62
     7
370
    15
100
AcDbCircle
 10
107.8810623325
 20
145.9735984644
 30
0.0
 40
0.2000000000000028
100
AcDbArc
 50
270.0
 51
0.0
  0
ARC
  5
102
330
1F
100
AcDbEntity
  8
0
  6
SLD-Durchgehend
 62
     7
370
    15
100
AcDbCircle
 10
107.8810623325
 20
156.3735984644
 30
0.0
 40
0.2000000000000028
100
AcDbArc
 50
0.0
 51
90.0
  0
ARC
  5
103
330
1F
100
AcDbEntity
  8
0
  6
SLD-Durchgehend
 62
     7
370
    15
100
AcDbCircle
 10
107.3810623325
 20
156.0576250407
 30
0.0
 40
0.1999999999999987
100
AcDbArc
 50
274.7636416907
 51
0.0
  0
ARC
  5
104
330
1F
100
AcDbEntity
  8
0
  6
SLD-Durchgehend
 62
     7
370
    15
100
AcDbCircle
 10
107.3810623325
 20
146.2895718881
 30
0.0
 40
0.1999999999999987
100
AcDbArc
 50
0.0
 51
85.2363583093
  0
LINE
  5
105
330
1F
100
AcDbEntity
  8
0
  6
SLD-Durchgehend
 62
     7
370
    15
100
AcDbLine
 10
107.3976716406
 20
155.8583153447
 30
0.0
 11
107.0810620121
 21
155.8319328388
 31
0.0
  0
LINE
  5
106
330
1F
100
AcDbEntity
  8
0
  6
SLD-Durchgehend
 62
     7
370
    15
100
AcDbLine
 10
107.0810620121
 20
146.5152649244
 30
0.0
 11
107.3976716406
 21
146.4888824185
 31
0.0
  0
LINE
  5
107
330
1F
100
AcDbEntity
  8
0
  6
SLD-Durchgehend
 62
     7
370
    15
100
AcDbLine
 10
81.1810622371
 20
130.7235991617
 30
0.0
 11
81.1810622371
 21
121.2235985359
 31
0.0
  0
LINE
  5
108
330
1F
100
AcDbEntity
  8
0
  6
SLD-Durchgehend
 62
     7
370
    15
100
AcDbLine
 10
81.1810622371
 20
136.2235991319
 30
0.0
 11
81.1810622371
 21
131.7235993257
 31
0.0
  0
LINE
  5
109
330
1F
100
AcDbEntity
  8
0
  6
SLD-Durchgehend
 62
     7
370
    15
100
AcDbLine
 10
81.1810622371
 20
131.7235993257
 30
0.0
 11
81.1810622371
 21
130.7235991617
 31
0.0
  0
LINE
  5
10A
330
1F
100
AcDbEntity
  8
0
  6
SLD-Durchgehend
 62
     7
370
    15
100
AcDbLine
 10
102.5810622058
 20
220.6735981663
 30
0.0
 11
102.5810622058
 21
224.673598822
 31
0.0
  0
LINE
  5
10B
330
1F
100
AcDbEntity
  8
0
  6
SLD-Durchgehend
 62
     7
370
    15
100
AcDbLine
 10
102.5810622058
 20
214.6736009082
 30
0.0
 11
102.5810622058
 21
218.6736015638
 31
0.0
  0
LINE
  5
10C
330
1F
100
AcDbEntity
  8
0
  6
SLD-Durchgehend
 62
     7
370
    15
100
AcDbLine
 10
102.5810622058
 20
208.6735961994
 30
0.0
 11
102.5810622058
 21
212.673596855
 31
0.0
  0
LINE
  5
10D
330
1F
100
AcDbEntity
  8
0
  6
SLD-Durchgehend
 62
     7
370
    15
100
AcDbLine
 10
102.5810622058
 20
201.1735959014
 30
0.0
 11
102.5810622058
 21
206.6735995969
 31
0.0
  0
LINE
  5
10E
330
1F
100
AcDbEntity
  8
0
  6
SLD-Durchgehend
 62
     7
370
    15
100
AcDbLine
 10
87.0810624592
 20
224.673598822
 30
0.0
 11
87.0810624592
 21
201.1735959014
 31
0.0
  0
ARC
  5
10F
330
1F
100
AcDbEntity
  8
0
  6
SLD-Durchgehend
 62
     7
370
    15
100
AcDbCircle
 10
87.5810623325
 20
224.6735984644
 30
0.0
 40
0.5000000000000142
100
AcDbArc
 50
90.0
 51
180.0
  0
ARC
  5
110
330
1F
100
AcDbEntity
  8
0
  6
SLD-Durchgehend
 62
     7
370
    15
100
AcDbCircle
 10
102.0810623325
 20
224.6735984644
 30
0.0
 40
0.5
100
AcDbArc
 50
0.0
 51
90.0
  0
ARC
  5
111
330
1F
100
AcDbEntity
  8
0
  6
SLD-Durchgehend
 62
     7
370
    15
100
AcDbCircle
 10
87.5810623325
 20
201.1735984644
 30
0.0
 40
0.5
100
AcDbArc
 50
180.0
 51
270.0
  0
ARC
  5
112
330
1F
100
AcDbEntity
  8
0
  6
SLD-Durchgehend
 62
     7
370
    15
100
AcDbCircle
 10
102.0810623325
 20
201.1735984644
 30
0.0
 40
0.5
100
AcDbArc
 50
270.0
 51
0.0
  0
LINE
  5
113
330
1F
100
AcDbEntity
  8
0
  6
SLD-Durchgehend
 62
     7
370
    15
100
AcDbLine
 10
101.8310625486
 20
212.673596855
 30
0.0
 11
101.8310625486
 21
214.6736009082
 31
0.0
  0
LINE
  5
114
330
1F
100
AcDbEntity
  8
0
  6
SLD-Durchgehend
 62
     7
370
    15
100
AcDbLine
 10
101.8310625486
 20
206.6735995969
 30
0.0
 11
101.8310625486
 21
208.6735961994
 31
0.0
  0
LINE
  5
115
330
1F
100
AcDbEntity
  8
0
  6
SLD-Durchgehend
 62
     7
370
    15
100
AcDbLine
 10
101.8310625486
 20
218.6736015638
 30
0.0
 11
101.8310625486
 21
220.6735981663
 31
0.0
  0
LINE
  5
116
330
1F
100
AcDbEntity
  8
0
  6
SLD-Durchgehend
 62
     7
370
    15
100
AcDbLine
 10
108.581062258
 20
179.6735970339
 30
0.0
 11
108.581062258
 21
199.6736003121
 31
0.0
  0
LINE
  5
117
330
1F
100
AcDbEntity
  8
0
  6
SLD-Durchgehend
 62
     7
370
    15
100
AcDbLine
 10
81.081062407
 20
199.6736003121
 30
0.0
 11
81.081062407
 21
179.6735970339
 31
0.0
  0
LINE
  5
118
330
1F
100
AcDbEntity
  8
0
  6
SLD-Durchgehend
 62
     7
370
    15
100
AcDbLine
 10
108.581062258
 20
199.6736003121
 30
0.0
 11
107.5810620941
 21
200.6735948881
 31
0.0
  0
LINE
  5
119
330
1F
100
AcDbEntity
  8
0
  6
SLD-Durchgehend
 62
     7
370
    15
100
AcDbLine
 10
82.0810625709
 20
200.6735948881
 30
0.0
 11
81.081062407
 21
199.6736003121
 31
0.0
  0
LINE
  5
11A
330
1F
100
AcDbEntity
  8
0
  6
SLD-Durchgehend
 62
     7
370
    15
100
AcDbLine
 10
97.0810622357
 20
107.9235983116
 30
0.0
 11
100.0810622617
 21
107.9235983116
 31
0.0
  0
LINE
  5
11B
330
1F
100
AcDbEntity
  8
0
  6
SLD-Durchgehend
 62
     7
370
    15
100
AcDbLine
 10
100.0810622617
 20
107.9235983116
 30
0.0
 11
100.0810622617
 21
106.096463328
 31
0.0
  0
LINE
  5
11C
330
1F
100
AcDbEntity
  8
0
  6
SLD-Durchgehend
 62
     7
370
    15
100
AcDbLine
 10
97.0810622357
 20
103.4235984762
 30
0.0
 11
97.0810622357
 21
107.9235983116
 31
0.0
  0
LINE
  5
11D
330
1F
100
AcDbEntity
  8
0
  6
SLD-Durchgehend
 62
     7
370
    15
100
AcDbLine
 10
97.0810622357
 20
103.4235984762
 30
0.0
 11
98.6138531852
 21
103.4235984762
 31
0.0
  0
LINE
  5
11E
330
1F
100
AcDbEntity
  8
0
  6
SLD-Durchgehend
 62
     7
370
    15
100
AcDbLine
 10
98.5810622487
 20
108.6230597494
 30
0.0
 11
100.0810622617
 21
107.9235983116
 31
0.0
  0
LINE
  5
11F
330
1F
100
AcDbEntity
  8
0
  6
SLD-Durchgehend
 62
     7
370
    15
100
AcDbLine
 10
97.0810622357
 20
107.9235983116
 30
0.0
 11
98.5810622487
 21
108.6230597494
 31
0.0
  0
LINE
  5
120
330
1F
100
AcDbEntity
  8
0
  6
SLD-Durchgehend
 62
     7
370
    15
100
AcDbLine
 10
95.4810623343
 20
115.923598226
 30
0.0
 11
95.4810623343
 21
103.4235984762
 31
0.0
  0
LINE
  5
121
330
1F
100
AcDbEntity
  8
0
  6
SLD-Durchgehend
 62
     7
370
    15
100
AcDbLine
 10
92.0810623474
 20
117.9665241426
 30
0.0
 11
95.4810623343
 21
115.923598226
 31
0.0
  0
LINE
  5
122
330
1F
100
AcDbEntity
  8
0
  6
SLD-Durchgehend
 62
     7
370
    15
100
AcDbLine
 10
88.6810625352
 20
115.923598226
 30
0.0
 11
92.0810623474
 21
117.9665241426
 31
0.0
  0
LINE
  5
123
330
1F
100
AcDbEntity
  8
0
  6
SLD-Durchgehend
 62
     7
370
    15
100
AcDbLine
 10
88.6810625352
 20
103.4235984762
 30
0.0
 11
88.6810625352
 21
115.923598226
 31
0.0
  0
LINE
  5
124
330
1F
100
AcDbEntity
  8
0
  6
SLD-Durchgehend
 62
     7
370
    15
100
AcDbLine
 10
88.6810625352
 20
103.4235984762
 30
0.0
 11
87.6818940423
 21
103.4235984762
 31
0.0
  0
LINE
  5
125
330
1F
100
AcDbEntity
  8
0
  6
SLD-Durchgehend
 62
     7
370
    15
100
AcDbLine
 10
97.0810622357
 20
103.4235984762
 30
0.0
 11
95.4810623343
 21
103.4235984762
 31
0.0
  0
LINE
  5
126
330
1F
100
AcDbEntity
  8
0
  6
SLD-Durchgehend
 62
     7
370
    15
100
AcDbLine
 10
88.6810625352
 20
115.923598226
 30
0.0
 11
95.4810623343
 21
115.923598226
 31
0.0
  0
LINE
  5
127
330
1F
100
AcDbEntity
  8
0
  6
SLD-Durchgehend
 62
     7
370
    15
100
AcDbLine
 10
88.6810625352
 20
103.4235984762
 30
0.0
 11
95.4810623343
 21
103.4235984762
 31
0.0
  0
LINE
  5
128
330
1F
100
AcDbEntity
  8
0
  6
SLD-Durchgehend
 62
     7
370
    15
100
AcDbLine
 10
108.581062258
 20
120.9735980293
 30
0.0
 11
81.081062407
 21
120.9735980293
 31
0.0
  0
SPLINE
  5
129
330
1F
100
AcDbEntity
  8
0
  6
SLD-Durchgehend
 62
     7
370
    15
100
AcDbSpline
210
0.0
220
0.0
230
1.0
 70
     8
 71
     3
 72
    25
 73
    21
 74
     0
 42
0.000000001
 43
0.00000001
 40
0.0
 40
0.0
 40
0.0
 40
0.0
 40
0.0437397427778292
 40
0.0877838307649715
 40
0.1327855324806951
 40
0.1781189896688831
 40
0.2218587025341341
 40
0.3108234311757323
 40
0.3561546068192125
 40
0.3999124876465617
 40
0.4889142688360038
 40
0.5342647080663006
 40
0.5780337711023561
 40
0.6670599392283183
 40
0.7124239939311903
 40
0.7561732631666077
 40
0.8451594547329577
 40
0.8905030357458658
 40
0.9342325088682275
 40
1.0
 40
1.0
 40
1.0
 40
1.0
 10
108.5719688243849
 20
109.1735985165229
 30
0.0
 10
108.5719804818809
 20
109.1597960682453
 30
0.0
 10
108.5720038779868
 20
109.1320951329678
 30
0.0
 10
108.5722006939373
 20
109.0904817708815
 30
0.0
 10
108.5725122163589
 20
109.0489617660302
 30
0.0
 10
108.5729420233034
 20
109.0084332727535
 30
0.0
 10
108.573646072748
 20
108.9562045982235
 30
0.0
 10
108.5745237616315
 20
108.9067601683946
 30
0.0
 10
108.5755019549184
 20
108.8613880349392
 30
0.0
 10
108.5765166592582
 20
108.8189613188034
 30
0.0
 10
108.5775498089652
 20
108.7813199911698
 30
0.0
 10
108.5785058930666
 20
108.7494773979796
 30
0.0
 10
108.5793885029466
 20
108.7216430075368
 30
0.0
 10
108.580120952599
 20
108.7000620451257
 30
0.0
 10
108.5806394598647
 20
108.6853569879599
 30
0.0
 10
108.5809993258919
 20
108.6752842474058
 30
0.0
 10
108.581114379055
 20
108.6721452660978
 30
0.0
 10
108.5809614946239
 20
108.6763934954172
 30
0.0
 10
108.5807016110895
 20
108.6835143131628
 30
0.0
 10
108.5803282063103
 20
108.6943051822913
 30
0.0
 10
108.5801039270742
 20
108.7007865344873
 30
0.0
  0
SPLINE
  5
12A
330
1F
100
AcDbEntity
  8
0
  6
SLD-Durchgehend
 62
     7
370
    15
100
AcDbSpline
210
0.0
220
0.0
230
1.0
 70
     8
 71
     3
 72
     9
 73
     5
 74
     0
 42
0.000000001
 43
0.00000001
 40
0.0
 40
0.0
 40
0.0
 40
0.0
 40
0.0787402033138064
 40
1.0
 40
1.0
 40
1.0
 40
1.0
 10
108.579546064852
 20
109.6299815026811
 30
0.0
 10
108.5795623063887
 20
109.6304752783611
 30
0.0
 10
108.5797685737846
 20
109.6367462258475
 30
0.0
 10
108.5799271258165
 20
109.6413553989902
 30
0.0
 10
108.5800731934292
 20
109.6456016449025
 30
0.0
  0
SPLINE
  5
12B
330
1F
100
AcDbEntity
  8
0
  6
SLD-Durchgehend
 62
     7
370
    15
100
AcDbSpline
210
0.0
220
0.0
230
1.0
 70
     8
 71
     3
 72
    25
 73
    21
 74
     0
 42
0.000000001
 43
0.00000001
 40
0.0
 40
0.0
 40
0.0
 40
0.0
 40
0.0045144547636637
 40
0.0969429216531201
 40
0.1440407800586997
 40
0.1894567843152415
 40
0.2818319810360227
 40
0.3289015707786394
 40
0.3743183211608389
 40
0.4666935362402491
 40
0.513761975961885
 40
0.5592048237798166
 40
0.6516330377236308
 40
0.6987291886415357
 40
0.7441827983350415
 40
0.8366343589557109
 40
0.883744143385087
 40
0.9126090709816956
 40
0.9707255347102166
 40
0.9999999999999999
 40
0.9999999999999999
 40
0.9999999999999999
 40
0.9999999999999999
 10
108.5804876319749
 20
109.6575295587769
 30
0.0
 10
108.580501402378
 20
109.657920085599
 30
0.0
 10
108.5807971065491
 20
109.6663062170601
 30
0.0
 10
108.5810083043188
 20
109.6720824898389
 30
0.0
 10
108.5810841495583
 20
109.6742118857119
 30
0.0
 10
108.5809786651315
 20
109.6712791052498
 30
0.0
 10
108.5806200518081
 20
109.6613737754621
 30
0.0
 10
108.5800340690806
 20
109.644537242988
 30
0.0
 10
108.5793160986479
 20
109.6232629820883
 30
0.0
 10
108.5784267310669
 20
109.5955007896992
 30
0.0
 10
108.577444160437
 20
109.5618742916694
 30
0.0
 10
108.5764266334167
 20
109.5245738463581
 30
0.0
 10
108.575396187997
 20
109.4820845095548
 30
0.0
 10
108.5744474528262
 20
109.4354213882575
 30
0.0
 10
108.573575081128
 20
109.3862810232998
 30
0.0
 10
108.5728560059097
 20
109.3338436422642
 30
0.0
 10
108.5724001943931
 20
109.2842820442857
 30
0.0
 10
108.5721306596433
 20
109.2442346872648
 30
0.0
 10
108.5719884942936
 20
109.2090400521682
 30
0.0
 10
108.5719737600907
 20
109.1824917449838
 30
0.0
 10
108.5719688243849
 20
109.1735985165229
 30
0.0
  0
SPLINE
  5
12C
330
1F
100
AcDbEntity
  8
0
  6
SLD-Durchgehend
 62
     7
370
    15
100
AcDbSpline
210
0.0
220
0.0
230
1.0
 70
     8
 71
     3
 72
    30
 73
    26
 74
     0
 42
0.000000001
 43
0.00000001
 40
0.0
 40
0.0
 40
0.0
 40
0.0
 40
0.1249999999999999
 40
0.1249999999999999
 40
0.1874999999999999
 40
0.1874999999999999
 40
0.2499999999999998
 40
0.2499999999999998
 40
0.3124999999999998
 40
0.3124999999999998
 40
0.3749999999999998
 40
0.3749999999999998
 40
0.4999999999999998
 40
0.4999999999999998
 40
0.5624999999999998
 40
0.5624999999999998
 40
0.6249999999999998
 40
0.6249999999999998
 40
0.6874999999999997
 40
0.6874999999999997
 40
0.7499999999999997
 40
0.7499999999999997
 40
0.8749999999999998
 40
0.8749999999999998
 40
1.0
 40
1.0
 40
1.0
 40
1.0
 10
94.83106234157805
 20
117.974333460253
 30
0.0
 10
94.38804000348446
 20
118.1278765940899
 30
0.0
 10
93.93433500079239
 20
118.2449123357347
 30
0.0
 10
93.23861381646805
 20
118.3680967224382
 30
0.0
 10
93.00501447614343
 20
118.4000349349092
 30
0.0
 10
92.5422773035108
 20
118.4446602870152
 30
0.0
 10
92.31202318133838
 20
118.4575627317604
 30
0.0
 10
91.8537332831357
 20
118.4638413372829
 30
0.0
 10
91.62569761264456
 20
118.4572323728706
 30
0.0
 10
91.17184081906579
 20
118.4223831867273
 30
0.0
 10
90.94482246603842
 20
118.3939434636873
 30
0.0
 10
90.27584014387487
 20
118.2714997042362
 30
0.0
 10
89.85065451137005
 20
118.1440216910899
 30
0.0
 10
89.25156834925923
 20
117.8470360406089
 30
0.0
 10
89.06344336829638
 20
117.7322772054829
 30
0.0
 10
88.71439494584271
 20
117.4633103145019
 30
0.0
 10
88.55203001692297
 20
117.3062493685318
 30
0.0
 10
88.26539591622982
 20
116.9601819528197
 30
0.0
 10
88.14094803176559
 20
116.7722647085901
 30
0.0
 10
87.92366065162308
 20
116.3704838653517
 30
0.0
 10
87.83089822497017
 20
116.1558842538614
 30
0.0
 10
87.59854478414316
 20
115.5020000213693
 30
0.0
 10
87.49906936125824
 20
115.0445634480847
 30
0.0
 10
87.3593061858182
 20
114.1107545195206
 30
0.0
 10
87.32039645394386
 20
113.642488604929
 30
0.0
 10
87.2954166619579
 20
113.1735984643689
 30
0.0
  0
LINE
  5
12D
330
1F
100
AcDbEntity
  8
0
  6
SLD-Durchgehend
 62
     7
370
    15
100
AcDbLine
 10
85.9534217424
 20
113.1735982409
 30
0.0
 11
87.2954165943
 21
113.1735982409
 31
0.0
  0
LINE
  5
12E
330
1F
100
AcDbEntity
  8
0
  6
SLD-Durchgehend
 62
     7
370
    15
100
AcDbLine
 10
85.9534217424
 20
103.1735984644
 30
0.0
 11
85.9534217424
 21
113.1735982409
 31
0.0
  0
LINE
  5
12F
330
1F
100
AcDbEntity
  8
0
  6
SLD-Durchgehend
 62
     7
370
    15
100
AcDbLine
 10
85.9534217424
 20
103.1735984644
 30
0.0
 11
81.081062407
 21
103.1735984644
 31
0.0
  0
LINE
  5
130
330
1F
100
AcDbEntity
  8
0
  6
SLD-Durchgehend
 62
     7
370
    15
100
AcDbLine
 10
108.581062258
 20
103.1735984644
 30
0.0
 11
103.7087029226
 21
103.1735984644
 31
0.0
  0
LINE
  5
131
330
1F
100
AcDbEntity
  8
0
  6
SLD-Durchgehend
 62
     7
370
    15
100
AcDbLine
 10
103.7087029226
 20
113.1735982409
 30
0.0
 11
103.7087029226
 21
103.1735984644
 31
0.0
  0
LINE
  5
132
330
1F
100
AcDbEntity
  8
0
  6
SLD-Durchgehend
 62
     7
370
    15
100
AcDbLine
 10
99.7061527714
 20
113.1735982409
 30
0.0
 11
103.7087029226
 21
113.1735982409
 31
0.0
  0
SPLINE
  5
133
330
1F
100
AcDbEntity
  8
0
  6
SLD-Durchgehend
 62
     7
370
    15
100
AcDbSpline
210
0.0
220
0.0
230
1.0
 70
     8
 71
     3
 72
    18
 73
    14
 74
     0
 42
0.000000001
 43
0.00000001
 40
0.0
 40
0.0
 40
0.0
 40
0.0
 40
0.25
 40
0.25
 40
0.5
 40
0.5
 40
0.625
 40
0.625
 40
0.75
 40
0.75
 40
0.875
 40
0.875
 40
1.0
 40
1.0
 40
1.0
 40
1.0
 10
99.70615254311251
 20
113.1735984643695
 30
0.0
 10
99.48553503632243
 20
113.716331810426
 30
0.0
 10
99.21428966543475
 20
114.245495670752
 30
0.0
 10
98.58341649168301
 20
115.2265126839924
 30
0.0
 10
98.2224838056997
 20
115.6835839737458
 30
0.0
 10
97.60038208793654
 20
116.3129998472719
 30
0.0
 10
97.38065480348695
 20
116.5118392378538
 30
0.0
 10
96.92324484758035
 20
116.8803396821647
 30
0.0
 10
96.68452255042764
 20
117.0510820679406
 30
0.0
 10
96.18628251812078
 20
117.3650262865949
 30
0.0
 10
95.92648872697939
 20
117.5083606935975
 30
0.0
 10
95.38599617488168
 20
117.7658260122635
 30
0.0
 10
95.1106789152634
 20
117.8774236629251
 30
0.0
 10
94.83106234157805
 20
117.974333460253
 30
0.0
  0
LINE
  5
134
330
1F
100
AcDbEntity
  8
0
  6
SLD-Durchgehend
 62
     7
370
    15
100
AcDbLine
 10
108.581062258
 20
179.3735994061
 30
0.0
 11
81.081062407
 21
179.3735994061
 31
0.0
  0
SPLINE
  5
135
330
1F
100
AcDbEntity
  8
0
  6
SLD-Durchgehend
 62
     7
370
    15
100
AcDbSpline
210
0.0
220
0.0
230
1.0
 70
     8
 71
     3
 72
    14
 73
    10
 74
     0
 42
0.000000001
 43
0.00000001
 40
0.0
 40
0.0
 40
0.0
 40
0.0
 40
0.0063035458308357
 40
0.1936017273659252
 40
0.3613735861593776
 40
0.5334614086820276
 40
0.7127883932267107
 40
0.896122752045039
 40
0.9999999999999999
 40
0.9999999999999999
 40
0.9999999999999999
 40
0.9999999999999999
 10
108.5789937905652
 20
159.6702409943333
 30
0.0
 10
108.5796800308829
 20
159.671355023763
 30
0.0
 10
108.6007566303811
 20
159.7055703729832
 30
0.0
 10
108.5260733639304
 20
159.5848909447118
 30
0.0
 10
108.3573976453809
 20
159.3083387110438
 30
0.0
 10
108.0873698958569
 20
158.853688056571
 30
0.0
 10
107.7377484127782
 20
158.2353974164748
 30
0.0
 10
107.3874476427922
 20
157.5770621739352
 30
0.0
 10
107.1624412070178
 20
157.1091213561466
 30
0.0
 10
107.0810620121343
 20
156.9398788770428
 30
0.0
  0
LINE
  5
136
330
1F
100
AcDbEntity
  8
0
  6
SLD-Durchgehend
 62
     7
370
    15
100
AcDbLine
 10
107.0810620121
 20
145.4073188862
 30
0.0
 11
107.0810620121
 21
156.939878877
 31
0.0
  0
SPLINE
  5
137
330
1F
100
AcDbEntity
  8
0
  6
SLD-Durchgehend
 62
     7
370
    15
100
AcDbSpline
210
0.0
220
0.0
230
1.0
 70
     8
 71
     3
 72
    12
 73
     8
 74
     0
 42
0.000000001
 43
0.00000001
 40
0.0
 40
0.0
 40
0.0
 40
0.0
 40
0.2030195560179349
 40
0.41137232138978
 40
0.6145812069681895
 40
0.8251358141571161
 40
1.0
 40
1.0
 40
1.0
 40
1.0
 10
107.0810620121343
 20
145.4073188861599
 30
0.0
 10
107.2398687570154
 20
145.08324059591
 30
0.0
 10
107.5616540104926
 20
144.4265706613132
 30
0.0
 10
107.992217878732
 20
143.6583583470453
 30
0.0
 10
108.3334077657981
 20
143.0769583497152
 30
0.0
 10
108.5453705692503
 20
142.7312508411712
 30
0.0
 10
108.5684999911062
 20
142.6939019360566
 30
0.0
 10
108.5789937905652
 20
142.6769567688694
 30
0.0
  0
LINE
  5
138
330
1F
100
AcDbEntity
  8
0
  6
SLD-Durchgehend
 62
     7
370
    15
100
AcDbLine
 10
108.581062258
 20
136.4735996386
 30
0.0
 11
81.081062407
 21
136.4735996386
 31
0.0
  0
LINE
  5
139
330
1F
100
AcDbEntity
  8
0
  6
SLD-Durchgehend
 62
     7
370
    15
100
AcDbLine
 10
87.7748679749
 20
103.1735984838
 30
0.0
 11
85.9534217424
 21
103.1735984644
 31
0.0
  0
SPLINE
  5
13A
330
1F
100
AcDbEntity
  8
0
  6
SLD-Durchgehend
 62
     7
370
    15
100
AcDbSpline
210
0.0
220
0.0
230
1.0
 70
     8
 71
     3
 72
     9
 73
     5
 74
     0
 42
0.000000001
 43
0.00000001
 40
0.7690098972175522
 40
0.7690098972175522
 40
0.7690098972175522
 40
0.7690098972175522
 40
0.8206847719883363
 40
0.953314363029585
 40
0.953314363029585
 40
0.953314363029585
 40
0.953314363029585
 10
87.2954166619579
 20
113.1735984643689
 30
0.0
 10
87.24511658235032
 20
112.2294268151157
 30
0.0
 10
87.26773812976238
 20
108.6337151581847
 30
0.0
 10
87.04870930058634
 20
104.9846275657916
 30
0.0
 10
87.77486815781643
 20
103.173598483835
 30
0.0
  0
LINE
  5
13B
330
1F
100
AcDbEntity
  8
0
  6
SLD-Durchgehend
 62
     7
370
    15
100
AcDbLine
 10
103.7087029226
 20
103.1735984644
 30
0.0
 11
98.418467297
 21
103.1735984839
 31
0.0
  0
SPLINE
  5
13C
330
1F
100
AcDbEntity
  8
0
  6
SLD-Durchgehend
 62
     7
370
    15
100
AcDbSpline
210
0.0
220
0.0
230
1.0
 70
     8
 71
     3
 72
     9
 73
     5
 74
     0
 42
0.000000001
 43
0.00000001
 40
0.1997860067333339
 40
0.1997860067333339
 40
0.1997860067333339
 40
0.1997860067333339
 40
0.3267319159987685
 40
0.4074041570192841
 40
0.4074041570192841
 40
0.4074041570192841
 40
0.4074041570192841
 10
98.41846723048899
 20
103.1735984838676
 30
0.0
 10
99.89097430298614
 20
104.7305132682157
 30
0.0
 10
100.9061897806234
 20
108.2708567794851
 30
0.0
 10
100.227738028837
 20
111.8904644101384
 30
0.0
 10
99.70615254311308
 20
113.1735984643681
 30
0.0
  0
LINE
  5
13D
330
1F
100
AcDbEntity
  8
0
  6
SLD-Durchgehend
 62
     7
370
    15
100
AcDbLine
 10
87.7748679749
 20
103.1735984644
 30
0.0
 11
98.418467297
 21
103.1735984644
 31
0.0
  0
LINE
  5
13E
330
1F
100
AcDbEntity
  8
0
  6
SLD-Durchgehend
 62
     7
370
    15
100
AcDbLine
 10
107.5810620941
 20
151.1735988816
 30
0.0
 11
107.5810620941
 21
156.3735974988
 31
0.0
  0
LINE
  5
13F
330
1F
100
AcDbEntity
  8
0
  6
SLD-Durchgehend
 62
     7
370
    15
100
AcDbLine
 10
107.5810620941
 20
145.9736002644
 30
0.0
 11
107.5810620941
 21
151.1735988816
 31
0.0
  0
LINE
  5
140
330
1F
100
AcDbEntity
  8
0
  6
SLD-Durchgehend
 62
     7
370
    15
100
AcDbLine
 10
108.081062176
 20
156.3735974988
 30
0.0
 11
108.081062176
 21
145.9736002644
 31
0.0
  0
SPLINE
  5
141
330
1F
100
AcDbEntity
  8
0
  6
SLD-Durchgehend
 62
     7
370
    15
100
AcDbSpline
210
0.0
220
0.0
230
1.0
 70
     8
 71
     3
 72
    12
 73
     8
 74
     0
 42
0.000000001
 43
0.00000001
 40
0.0
 40
0.0
 40
0.0
 40
0.0
 40
0.214654000769105
 40
0.4293110834688894
 40
0.6438917508614312
 40
0.8585089538163342
 40
1.0
 40
1.0
 40
1.0
 40
1.0
 10
108.4719019390328
 20
136.2235991319409
 30
0.0
 10
108.4737529811215
 20
136.2180786535331
 30
0.0
 10
108.4774550918755
 20
136.2070376174565
 30
0.0
 10
108.4800428222781
 20
136.120896876151
 30
0.0
 10
108.4809963154079
 20
135.9940881240163
 30
0.0
 10
108.4810638692911
 20
135.8534893492913
 30
0.0
 10
108.4810628377391
 20
135.7605323472362
 30
0.0
 10
108.4810624278767
 20
135.7235981186619
 30
0.0
  0
LINE
  5
142
330
1F
100
AcDbEntity
  8
0
  6
SLD-Durchgehend
 62
     7
370
    15
100
AcDbLine
 10
81.1810622371
 20
136.2235991319
 30
0.0
 11
108.4432293109
 21
136.2235991319
 31
0.0
  0
SPLINE
  5
143
330
1F
100
AcDbEntity
  8
0
  6
SLD-Durchgehend
 62
     7
370
    15
100
AcDbSpline
210
0.0
220
0.0
230
1.0
 70
     8
 71
     3
 72
    12
 73
     8
 74
     0
 42
0.000000001
 43
0.00000001
 40
0.0
 40
0.0
 40
0.0
 40
0.0
 40
0.2146610799084719
 40
0.4293254092142098
 40
0.6439763465372285
 40
0.8585749108046078
 40
1.0
 40
1.0
 40
1.0
 40
1.0
 10
108.4712947167141
 20
135.7235981186619
 30
0.0
 10
108.4710914577955
 20
135.7798090218477
 30
0.0
 10
108.4706849368813
 20
135.8922316791027
 30
0.0
 10
108.4671680121525
 20
136.0420648660091
 30
0.0
 10
108.4609142865648
 20
136.1551294315825
 30
0.0
 10
108.4525765110447
 20
136.2150533956431
 30
0.0
 10
108.4458867276564
 20
136.2211695720395
 30
0.0
 10
108.4432293109281
 20
136.2235991319409
 30
0.0
  0
LINE
  5
144
330
1F
100
AcDbEntity
  8
0
  6
SLD-Durchgehend
 62
     7
370
    15
100
AcDbLine
 10
108.4712947167
 20
135.7235981187
 30
0.0
 11
108.4712947167
 21
121.7235976865
 31
0.0
  0
SPLINE
  5
145
330
1F
100
AcDbEntity
  8
0
  6
SLD-Durchgehend
 62
     7
370
    15
100
AcDbSpline
210
0.0
220
0.0
230
1.0
 70
     8
 71
     3
 72
    12
 73
     8
 74
     0
 42
0.000000001
 43
0.00000001
 40
0.0
 40
0.0
 40
0.0
 40
0.0
 40
0.2146538863893733
 40
0.4293111202760196
 40
0.6438937993953412
 40
0.8585111917970533
 40
1.0
 40
1.0
 40
1.0
 40
1.0
 10
108.4432293109281
 20
121.2235985358944
 30
0.0
 10
108.4472042012958
 20
121.2291182580338
 30
0.0
 10
108.455154044019
 20
121.2401577883919
 30
0.0
 10
108.4634064420417
 20
121.3262990608522
 30
0.0
 10
108.4686360508799
 20
121.453109383161
 30
0.0
 10
108.4709727491285
 20
121.5937076915311
 30
0.0
 10
108.4712031667404
 20
121.6866640753297
 30
0.0
 10
108.4712947167141
 20
121.7235976865283
 30
0.0
  0
LINE
  5
146
330
1F
100
AcDbEntity
  8
0
  6
SLD-Durchgehend
 62
     7
370
    15
100
AcDbLine
 10
81.1810622371
 20
121.2235985359
 30
0.0
 11
108.4432293109
 21
121.2235985359
 31
0.0
  0
SPLINE
  5
147
330
1F
100
AcDbEntity
  8
0
  6
SLD-Durchgehend
 62
     7
370
    15
100
AcDbSpline
210
0.0
220
0.0
230
1.0
 70
     8
 71
     3
 72
    12
 73
     8
 74
     0
 42
0.000000001
 43
0.00000001
 40
0.0
 40
0.0
 40
0.0
 40
0.0
 40
0.2146614029213809
 40
0.4293239552764339
 40
0.6439752333314464
 40
0.8585750097640231
 40
1.0
 40
1.0
 40
1.0
 40
1.0
 10
108.4810624278767
 20
121.7235976865283
 30
0.0
 10
108.4810679528558
 20
121.6673867475452
 30
0.0
 10
108.4810790028435
 20
121.5549645685899
 30
0.0
 10
108.4808229049979
 20
121.4051323111622
 30
0.0
 10
108.4793666598447
 20
121.2920689284763
 30
0.0
 10
108.4763427441512
 20
121.232141348788
 30
0.0
 10
108.4731644601453
 20
121.2260272580182
 30
0.0
 10
108.4719019390328
 20
121.2235985358944
 30
0.0
  0
LINE
  5
148
330
1F
100
AcDbEntity
  8
0
  6
SLD-Durchgehend
 62
     7
370
    15
100
AcDbLine
 10
108.4810624279
 20
135.7235981187
 30
0.0
 11
108.4810624279
 21
121.7235976865
 31
0.0
  0
LINE
  5
149
330
1F
100
AcDbEntity
  8
0
  6
SLD-Durchgehend
 62
     7
370
    15
100
AcDbLine
 10
108.471901939
 20
121.2235985359
 30
0.0
 11
108.4432293109
 21
121.2235985359
 31
0.0
  0
LINE
  5
14A
330
1F
100
AcDbEntity
  8
0
  6
SLD-Durchgehend
 62
     7
370
    15
100
AcDbLine
 10
108.4432293109
 20
136.2235991319
 30
0.0
 11
108.471901939
 21
136.2235991319
 31
0.0
  0
LINE
  5
14B
330
1F
100
AcDbEntity
  8
0
  6
SLD-Durchgehend
 62
     7
370
    15
100
AcDbLine
 10
94.8310623325
 20
208.6735961994
 30
0.0
 11
102.5810622058
 21
208.6735961994
 31
0.0
  0
LINE
  5
14C
330
1F
100
AcDbEntity
  8
0
  6
SLD-Durchgehend
 62
     7
370
    15
100
AcDbLine
 10
94.8310623325
 20
206.6735995969
 30
0.0
 11
94.8310623325
 21
208.6735961994
 31
0.0
  0
LINE
  5
14D
330
1F
100
AcDbEntity
  8
0
  6
SLD-Durchgehend
 62
     7
370
    15
100
AcDbLine
 10
94.8310623325
 20
206.6735995969
 30
0.0
 11
102.5810622058
 21
206.6735995969
 31
0.0
  0
LINE
  5
14E
330
1F
100
AcDbEntity
  8
0
  6
SLD-Durchgehend
 62
     7
370
    15
100
AcDbLine
 10
94.8310623325
 20
212.673596855
 30
0.0
 11
102.5810622058
 21
212.673596855
 31
0.0
  0
LINE
  5
14F
330
1F
100
AcDbEntity
  8
0
  6
SLD-Durchgehend
 62
     7
370
    15
100
AcDbLine
 10
94.8310623325
 20
214.6736009082
 30
0.0
 11
102.5810622058
 21
214.6736009082
 31
0.0
  0
LINE
  5
150
330
1F
100
AcDbEntity
  8
0
  6
SLD-Durchgehend
 62
     7
370
    15
100
AcDbLine
 10
94.8310623325
 20
214.6736009082
 30
0.0
 11
94.8310623325
 21
212.673596855
 31
0.0
  0
LINE
  5
151
330
1F
100
AcDbEntity
  8
0
  6
SLD-Durchgehend
 62
     7
370
    15
100
AcDbLine
 10
94.8310623325
 20
218.6736015638
 30
0.0
 11
102.5810622058
 21
218.6736015638
 31
0.0
  0
LINE
  5
152
330
1F
100
AcDbEntity
  8
0
  6
SLD-Durchgehend
 62
     7
370
    15
100
AcDbLine
 10
94.8310623325
 20
220.6735981663
 30
0.0
 11
102.5810622058
 21
220.6735981663
 31
0.0
  0
LINE
  5
153
330
1F
100
AcDbEntity
  8
0
  6
SLD-Durchgehend
 62
     7
370
    15
100
AcDbLine
 10
94.8310623325
 20
220.6735981663
 30
0.0
 11
94.8310623325
 21
218.6736015638
 31
0.0
  0
LINE
  5
154
330
1F
100
AcDbEntity
  8
0
  6
SLD-Durchgehend
 62
     7
370
    15
100
AcDbLine
 10
94.8310623325
 20
225.1735998353
 30
0.0
 11
102.0810621239
 21
225.1735998353
 31
0.0
  0
LINE
  5
155
330
1F
100
AcDbEntity
  8
0
  6
SLD-Durchgehend
 62
     7
370
    15
100
AcDbLine
 10
87.5810625411
 20
225.1735998353
 30
0.0
 11
94.8310623325
 21
225.1735998353
 31
0.0
  0
LINE
  5
156
330
1F
100
AcDbEntity
  8
0
  6
SLD-Durchgehend
 62
     7
370
    15
100
AcDbLine
 10
90.3310625262
 20
228.1735984644
 30
0.0
 11
94.8310623325
 21
228.1735984644
 31
0.0
  0
LINE
  5
157
330
1F
100
AcDbEntity
  8
0
  6
SLD-Durchgehend
 62
     7
370
    15
100
AcDbLine
 10
94.8310623325
 20
228.1735984644
 30
0.0
 11
99.3310621388
 21
228.1735984644
 31
0.0
  0
ARC
  5
158
330
1F
100
AcDbEntity
  8
0
  6
SLD-Durchgehend
 62
     7
370
    15
100
AcDbCircle
 10
89.3310623325
 20
225.6735984644
 30
0.0
 40
0.5
100
AcDbArc
 50
270.0
 51
0.0
  0
ARC
  5
159
330
1F
100
AcDbEntity
  8
0
  6
SLD-Durchgehend
 62
     7
370
    15
100
AcDbCircle
 10
100.3310623325
 20
225.6735984644
 30
0.0
 40
0.5
100
AcDbArc
 50
180.0
 51
270.0
  0
ARC
  5
15A
330
1F
100
AcDbEntity
  8
0
  6
SLD-Durchgehend
 62
     7
370
    15
100
AcDbCircle
 10
90.3310623325
 20
227.6735984644
 30
0.0
 40
0.5
100
AcDbArc
 50
90.0
 51
180.0
  0
LINE
  5
15B
330
1F
100
AcDbEntity
  8
0
  6
SLD-Durchgehend
 62
     7
370
    15
100
AcDbLine
 10
89.8310624443
 20
225.6736008486
 30
0.0
 11
89.8310624443
 21
227.6735974511
 31
0.0
  0
LINE
  5
15C
330
1F
100
AcDbEntity
  8
0
  6
SLD-Durchgehend
 62
     7
370
    15
100
AcDbLine
 10
99.8310622208
 20
227.6735974511
 30
0.0
 11
99.8310622208
 21
225.6736008486
 31
0.0
  0
ARC
  5
15D
330
1F
100
AcDbEntity
  8
0
  6
SLD-Durchgehend
 62
     7
370
    15
100
AcDbCircle
 10
99.3310623325
 20
227.6735984644
 30
0.0
 40
0.5
100
AcDbArc
 50
0.0
 51
90.0
  0
LINE
  5
15E
330
1F
100
AcDbEntity
  8
0
  6
SLD-Durchgehend
 62
     7
370
    15
100
AcDbLine
 10
94.8310623325
 20
199.6736003121
 30
0.0
 11
81.081062407
 21
199.6736003121
 31
0.0
  0
LINE
  5
15F
330
1F
100
AcDbEntity
  8
0
  6
SLD-Durchgehend
 62
     7
370
    15
100
AcDbLine
 10
108.581062258
 20
199.6736003121
 30
0.0
 11
94.8310623325
 21
199.6736003121
 31
0.0
  0
LINE
  5
160
330
1F
100
AcDbEntity
  8
0
  6
SLD-Durchgehend
 62
     7
370
    15
100
AcDbLine
 10
108.581062258
 20
179.6735970339
 30
0.0
 11
81.081062407
 21
179.6735970339
 31
0.0
  0
LINE
  5
161
330
1F
100
AcDbEntity
  8
0
  6
SLD-Durchgehend
 62
     7
370
    15
100
AcDbLine
 10
94.8310623325
 20
200.6735948881
 30
0.0
 11
107.5810620941
 21
200.6735948881
 31
0.0
  0
LINE
  5
162
330
1F
100
AcDbEntity
  8
0
  6
SLD-Durchgehend
 62
     7
370
    15
100
AcDbLine
 10
82.0810625709
 20
200.6735948881
 30
0.0
 11
94.8310623325
 21
200.6735948881
 31
0.0
  0
LINE
  5
163
330
1F
100
AcDbEntity
  8
0
  6
SLD-Durchgehend
 62
     8
370
     0
100
AcDbLine
 10
107.7810626857
 20
151.1735988816
 30
0.0
 11
107.7810626857
 21
145.7735968789
 31
0.0
  0
LINE
  5
164
330
1F
100
AcDbEntity
  8
0
  6
SLD-Durchgehend
 62
     8
370
     0
100
AcDbLine
 10
107.7810626857
 20
156.573597159
 30
0.0
 11
107.7810626857
 21
151.1735988816
 31
0.0
  0
LINE
  5
165
330
1F
100
AcDbEntity
  8
0
  6
SLD-Durchgehend
 62
     8
370
     0
100
AcDbLine
 10
107.8810625158
 20
145.7735968789
 30
0.0
 11
107.8810625158
 21
156.573597159
 31
0.0
  0
LINE
  5
166
330
1F
100
AcDbEntity
  8
0
  6
SLD-Durchgehend
 62
     8
370
     0
100
AcDbLine
 10
107.3976716406
 20
151.1735988816
 30
0.0
 11
107.3976716406
 21
155.8583153447
 31
0.0
  0
LINE
  5
167
330
1F
100
AcDbEntity
  8
0
  6
SLD-Durchgehend
 62
     8
370
     0
100
AcDbLine
 10
107.3976716406
 20
146.4888824185
 30
0.0
 11
107.3976716406
 21
151.1735988816
 31
0.0
  0
LINE
  5
168
330
1F
100
AcDbEntity
  8
0
  6
SLD-Durchgehend
 62
     8
370
     0
100
AcDbLine
 10
108.063753546
 20
128.2620595803
 30
0.0
 11
107.2162984319
 21
128.2620595803
 31
0.0
  0
LINE
  5
169
330
1F
100
AcDbEntity
  8
0
  6
SLD-Durchgehend
 62
     8
370
     0
100
AcDbLine
 10
108.063753546
 20
129.2620597442
 30
0.0
 11
108.063753546
 21
128.2620595803
 31
0.0
  0
LINE
  5
16A
330
1F
100
AcDbEntity
  8
0
  6
SLD-Durchgehend
 62
     8
370
     0
100
AcDbLine
 10
108.063753546
 20
129.2620597442
 30
0.0
 11
107.2162984319
 21
129.2620597442
 31
0.0
  0
LINE
  5
16B
330
1F
100
AcDbEntity
  8
0
  6
SLD-Durchgehend
 62
     8
370
     0
100
AcDbLine
 10
107.2162984319
 20
130.7235991617
 30
0.0
 11
107.2162984319
 21
129.2620597442
 31
0.0
  0
LINE
  5
16C
330
1F
100
AcDbEntity
  8
0
  6
SLD-Durchgehend
 62
     8
370
     0
100
AcDbLine
 10
108.1528643526
 20
130.7235991617
 30
0.0
 11
107.2162984319
 21
130.7235991617
 31
0.0
  0
LINE
  5
16D
330
1F
100
AcDbEntity
  8
0
  6
SLD-Durchgehend
 62
     8
370
     0
100
AcDbLine
 10
108.1528643526
 20
131.7235993257
 30
0.0
 11
108.1528643526
 21
130.7235991617
 31
0.0
  0
LINE
  5
16E
330
1F
100
AcDbEntity
  8
0
  6
SLD-Durchgehend
 62
     8
370
     0
100
AcDbLine
 10
108.1528643526
 20
131.7235993257
 30
0.0
 11
106.6875866063
 21
131.7235993257
 31
0.0
  0
LINE
  5
16F
330
1F
100
AcDbEntity
  8
0
  6
SLD-Durchgehend
 62
     8
370
     0
100
AcDbLine
 10
106.6875866063
 20
125.7235983422
 30
0.0
 11
106.6875866063
 21
131.7235993257
 31
0.0
  0
LINE
  5
170
330
1F
100
AcDbEntity
  8
0
  6
SLD-Durchgehend
 62
     8
370
     0
100
AcDbLine
 10
107.2162984319
 20
125.7235983422
 30
0.0
 11
106.6875866063
 21
125.7235983422
 31
0.0
  0
LINE
  5
171
330
1F
100
AcDbEntity
  8
0
  6
SLD-Durchgehend
 62
     8
370
     0
100
AcDbLine
 10
107.2162984319
 20
128.2620595803
 30
0.0
 11
107.2162984319
 21
125.7235983422
 31
0.0
  0
SPLINE
  5
172
330
1F
100
AcDbEntity
  8
0
  6
SLD-Durchgehend
 62
     8
370
     0
100
AcDbSpline
210
0.0
220
0.0
230
1.0
 70
     8
 71
     3
 72
    18
 73
    14
 74
     0
 42
0.000000001
 43
0.00000001
 40
0.0
 40
0.0
 40
0.0
 40
0.0
 40
0.0625651840621782
 40
0.1251051867467389
 40
0.2497730569770165
 40
0.3745142866513969
 40
0.4370320170527074
 40
0.499559384719336
 40
0.624554354056637
 40
0.7496623495866465
 40
0.8315440923733062
 40
0.9162381369363213
 40
1.0
 40
1.0
 40
1.0
 40
1.0
 10
97.57580383752118
 20
125.6466748228064
 30
0.0
 10
97.49177417107377
 20
125.6495190082276
 30
0.0
 10
97.32374865863027
 20
125.6552062343359
 30
0.0
 10
96.99183871897367
 20
125.7196899756515
 30
0.0
 10
96.59722134052325
 20
125.8906246580164
 30
0.0
 10
96.2728033983623
 20
126.1758085940238
 30
0.0
 10
96.06669236193952
 20
126.4490708822595
 30
0.0
 10
95.90623612242962
 20
126.7524050841706
 30
0.0
 10
95.77427918302303
 20
127.1620523335549
 30
0.0
 10
95.69515841808132
 20
127.6101206069207
 30
0.0
 10
95.65500010818171
 20
128.0073921426449
 30
0.0
 10
95.63580533134876
 20
128.3495777666566
 30
0.0
 10
95.63369465265623
 20
128.5801192022451
 30
0.0
 10
95.63264515322278
 20
128.6947520484915
 30
0.0
  0
SPLINE
  5
173
330
1F
100
AcDbEntity
  8
0
  6
SLD-Durchgehend
 62
     8
370
     0
100
AcDbSpline
210
0.0
220
0.0
230
1.0
 70
     8
 71
     3
 72
    13
 73
     9
 74
     0
 42
0.000000001
 43
0.00000001
 40
0.0
 40
0.0
 40
0.0
 40
0.0
 40
0.1251169239566821
 40
0.2501738135914154
 40
0.4997948914030771
 40
0.6633841159507837
 40
0.8341207194555661
 40
0.9999999999999999
 40
0.9999999999999999
 40
0.9999999999999999
 40
0.9999999999999999
 10
98.89964558255504
 20
126.2560503592482
 30
0.0
 10
98.85941535727383
 20
126.2068667106757
 30
0.0
 10
98.77897421020944
 20
126.1085230131117
 30
0.0
 10
98.59131616689157
 20
125.9387255469257
 30
0.0
 10
98.35726221186039
 20
125.79637369303
 30
0.0
 10
98.07860119327677
 20
125.7016214809634
 30
0.0
 10
97.83011851670827
 20
125.6542832967927
 30
0.0
 10
97.65975596082083
 20
125.6491864652655
 30
0.0
 10
97.57580383752118
 20
125.6466748228064
 30
0.0
  0
SPLINE
  5
174
330
1F
100
AcDbEntity
  8
0
  6
SLD-Durchgehend
 62
     8
370
     0
100
AcDbSpline
210
0.0
220
0.0
230
1.0
 70
     8
 71
     3
 72
    10
 73
     6
 74
     0
 42
0.000000001
 43
0.00000001
 40
0.0
 40
0.0
 40
0.0
 40
0.0
 40
0.5002372331609336
 40
0.7504068654799356
 40
1.0
 40
1.0
 40
1.0
 40
1.0
 10
99.46238001879881
 20
128.6827323993435
 30
0.0
 10
99.44691959253456
 20
128.2594267488429
 30
0.0
 10
99.42372737643615
 20
127.6244251030739
 30
0.0
 10
99.2270205454194
 20
126.7931875187098
 30
0.0
 10
99.00868661765799
 20
126.4349583348231
 30
0.0
 10
98.89964558255504
 20
126.2560503592482
 30
0.0
  0
SPLINE
  5
175
330
1F
100
AcDbEntity
  8
0
  6
SLD-Durchgehend
 62
     8
370
     0
100
AcDbSpline
210
0.0
220
0.0
230
1.0
 70
     8
 71
     3
 72
    10
 73
     6
 74
     0
 42
0.000000001
 43
0.00000001
 40
0.0
 40
0.0
 40
0.0
 40
0.0
 40
0.2495518402482707
 40
0.4996964024649462
 40
1.0
 40
1.0
 40
1.0
 40
1.0
 10
98.90423420888017
 20
131.1070116271964
 30
0.0
 10
99.01246798208412
 20
130.9280262164509
 30
0.0
 10
99.22919259946786
 20
130.5696302785397
 30
0.0
 10
99.42530008875517
 20
129.7397004841184
 30
0.0
 10
99.44754796096711
 20
129.1055220793994
 30
0.0
 10
99.46238001879881
 20
128.6827323993435
 30
0.0
  0
SPLINE
  5
176
330
1F
100
AcDbEntity
  8
0
  6
SLD-Durchgehend
 62
     8
370
     0
100
AcDbSpline
210
0.0
220
0.0
230
1.0
 70
     8
 71
     3
 72
    14
 73
    10
 74
     0
 42
0.000000001
 43
0.00000001
 40
0.0
 40
0.0
 40
0.0
 40
0.0
 40
0.1662105196510182
 40
0.3361459296890625
 40
0.500189362684038
 40
0.7497730987863268
 40
0.8141178122284501
 40
0.874891771204924
 40
0.9999999999999999
 40
0.9999999999999999
 40
0.9999999999999999
 40
0.9999999999999999
 10
97.57580383752118
 20
131.723599325656
 30
0.0
 10
97.66036240542964
 20
131.7211535211644
 30
0.0
 10
97.8313745560591
 20
131.716207100045
 30
0.0
 10
98.08094566576048
 20
131.6677210442281
 30
0.0
 10
98.36071099524595
 20
131.5720958382524
 30
0.0
 10
98.5683980423531
 20
131.4423403996581
 30
0.0
 10
98.71260260166564
 20
131.3186585978463
 30
0.0
 10
98.80379029261663
 20
131.2298897890516
 30
0.0
 10
98.8638266600055
 20
131.1564442410917
 30
0.0
 10
98.90423420888017
 20
131.1070116271964
 30
0.0
  0
SPLINE
  5
177
330
1F
100
AcDbEntity
  8
0
  6
SLD-Durchgehend
 62
     8
370
     0
100
AcDbSpline
210
0.0
220
0.0
230
1.0
 70
     8
 71
     3
 72
    13
 73
     9
 74
     0
 42
0.000000001
 43
0.00000001
 40
0.0
 40
0.0
 40
0.0
 40
0.0
 40
0.1251160705089267
 40
0.2501730436806271
 40
0.4997780104950814
 40
0.6644596992792068
 40
0.8342227537583811
 40
1.0
 40
1.0
 40
1.0
 40
1.0
 10
96.22442544509302
 20
131.1142237892142
 30
0.0
 10
96.26631077193814
 20
131.1633965029031
 30
0.0
 10
96.35006164150889
 20
131.2617187040364
 30
0.0
 10
96.54435707200199
 20
131.4316851977827
 30
0.0
 10
96.7862136485232
 20
131.5731666237058
 30
0.0
 10
97.06980349383478
 20
131.669530891188
 30
0.0
 10
97.32156757382069
 20
131.715822729267
 30
0.0
 10
97.49173219880358
 20
131.7210277365658
 30
0.0
 10
97.57580383752118
 20
131.723599325656
 30
0.0
  0
SPLINE
  5
178
330
1F
100
AcDbEntity
  8
0
  6
SLD-Durchgehend
 62
     8
370
     0
100
AcDbSpline
210
0.0
220
0.0
230
1.0
 70
     8
 71
     3
 72
    10
 73
     6
 74
     0
 42
0.000000001
 43
0.00000001
 40
0.0
 40
0.0
 40
0.0
 40
0.0
 40
0.500212237405215
 40
0.7503949891803954
 40
1.0
 40
1.0
 40
1.0
 40
1.0
 10
95.63264515322278
 20
128.6947520484915
 30
0.0
 10
95.64903873661393
 20
129.1168866269124
 30
0.0
 10
95.67363162321593
 20
129.7501531660319
 30
0.0
 10
95.88234214583225
 20
130.5789070857152
 30
0.0
 10
96.11048558786148
 20
130.9359224547084
 30
0.0
 10
96.22442544509302
 20
131.1142237892142
 30
0.0
  0
SPLINE
  5
179
330
1F
100
AcDbEntity
  8
0
  6
SLD-Durchgehend
 62
     8
370
     0
100
AcDbSpline
210
0.0
220
0.0
230
1.0
 70
     8
 71
     3
 72
    24
 73
    20
 74
     0
 42
0.000000001
 43
0.00000001
 40
0.0
 40
0.0
 40
0.0
 40
0.0
 40
0.1422148360244332
 40
0.2832220408721488
 40
0.4031431909957006
 40
0.4574830171553972
 40
0.4813727064414101
 40
0.4907004190121556
 40
0.4999969149701181
 40
0.5005247991591922
 40
0.5044535279247545
 40
0.5151659405013482
 40
0.5833257083945929
 40
0.6364728303889611
 40
0.6874637428316642
 40
0.7500350641326078
 40
0.8315546712369087
 40
0.9175770433015142
 40
1.0
 40
1.0
 40
1.0
 40
1.0
 10
94.24847594068031
 20
128.5865789314499
 30
0.0
 10
94.17520183054897
 20
128.5007434844746
 30
0.0
 10
94.0292758245525
 20
128.3298014706093
 30
0.0
 10
93.80080176405234
 20
128.1058980793705
 30
0.0
 10
93.61649919297088
 20
127.93746519712
 30
0.0
 10
93.50146241368861
 20
127.8308183478058
 30
0.0
 10
93.45033390294766
 20
127.7840502677648
 30
0.0
 10
93.42535905793397
 20
127.7615130970995
 30
0.0
 10
93.41401731774238
 20
127.7514651773038
 30
0.0
 10
93.40594199015655
 20
127.7441713678026
 30
0.0
 10
93.39711130397444
 20
127.7360436739889
 30
0.0
 10
93.34887838955568
 20
127.6917140291716
 30
0.0
 10
93.27233581480839
 20
127.6206892000158
 30
0.0
 10
93.1717330272022
 20
127.5288514966672
 30
0.0
 10
93.07733176818255
 20
127.4369142818067
 30
0.0
 10
92.96593570243057
 20
127.330438611136
 30
0.0
 10
92.83856786964152
 20
127.2007397069382
 30
0.0
 10
92.71369557415143
 20
127.0469894164224
 30
0.0
 10
92.64432221685864
 20
126.9331493065167
 30
0.0
 10
92.6103767387254
 20
126.877445544838
 30
0.0
  0
SPLINE
  5
17A
330
1F
100
AcDbEntity
  8
0
  6
SLD-Durchgehend
 62
     8
370
     0
100
AcDbSpline
210
0.0
220
0.0
230
1.0
 70
     8
 71
     3
 72
     9
 73
     5
 74
     0
 42
0.000000001
 43
0.00000001
 40
0.0
 40
0.0
 40
0.0
 40
0.0
 40
0.4990789487146965
 40
0.9999999999999999
 40
0.9999999999999999
 40
0.9999999999999999
 40
0.9999999999999999
 10
94.83002967335285
 20
130.0913875957718
 30
0.0
 10
94.79918854145158
 20
129.8155806306181
 30
0.0
 10
94.73739244289703
 20
129.2629486956025
 30
0.0
 10
94.41164812623359
 20
128.8123122257006
 30
0.0
 10
94.24847594068031
 20
128.5865789314499
 30
0.0
  0
SPLINE
  5
17B
330
1F
100
AcDbEntity
  8
0
  6
SLD-Durchgehend
 62
     8
370
     0
100
AcDbSpline
210
0.0
220
0.0
230
1.0
 70
     8
 71
     3
 72
    15
 73
    11
 74
     0
 42
0.000000001
 43
0.00000001
 40
0.0
 40
0.0
 40
0.0
 40
0.0
 40
0.2496576941054357
 40
0.3747085808241146
 40
0.4997184196497802
 40
0.6249461667350743
 40
0.7497705700422311
 40
0.8747773574203715
 40
0.9373789884824862
 40
0.9999999999999999
 40
0.9999999999999999
 40
0.9999999999999999
 40
0.9999999999999999
 10
92.99427244417946
 20
131.723599325656
 30
0.0
 10
93.2238705014806
 20
131.7095759925685
 30
0.0
 10
93.56847178653035
 20
131.6885285209157
 30
0.0
 10
93.99896441123674
 20
131.515882410064
 30
0.0
 10
94.28508075541772
 20
131.3186848115345
 30
0.0
 10
94.52497528818603
 20
131.067377619524
 30
0.0
 10
94.70632206997799
 20
130.7697600251882
 30
0.0
 10
94.79048040009216
 20
130.4922661235174
 30
0.0
 10
94.8265812713215
 20
130.2644005392621
 30
0.0
 10
94.8288800874147
 20
130.1490645270424
 30
0.0
 10
94.83002967335285
 20
130.0913875957718
 30
0.0
  0
SPLINE
  5
17C
330
1F
100
AcDbEntity
  8
0
  6
SLD-Durchgehend
 62
     8
370
     0
100
AcDbSpline
210
0.0
220
0.0
230
1.0
 70
     8
 71
     3
 72
    13
 73
     9
 74
     0
 42
0.000000001
 43
0.00000001
 40
0.0
 40
0.0
 40
0.0
 40
0.0
 40
0.2500155788149448
 40
0.3751420315867208
 40
0.500157040176803
 40
0.625271091109798
 40
0.7504082918052606
 40
1.0
 40
1.0
 40
1.0
 40
1.0
 10
91.1085564557148
 20
129.9135031213751
 30
0.0
 10
91.1444566879697
 20
130.1586456243537
 30
0.0
 10
91.19832407545955
 20
130.5264757293076
 30
0.0
 10
91.4076916489796
 20
130.974259562916
 30
0.0
 10
91.64011701794978
 20
131.2611984426889
 30
0.0
 10
91.93700406629996
 20
131.4754110742584
 30
0.0
 10
92.38129905835598
 20
131.6791421995845
 30
0.0
 10
92.74921714685492
 20
131.7058261979809
 30
0.0
 10
92.99427244417946
 20
131.723599325656
 30
0.0
  0
LINE
  5
17D
330
1F
100
AcDbEntity
  8
0
  6
SLD-Durchgehend
 62
     8
370
     0
100
AcDbLine
 10
92.2306371767
 20
129.8005206546
 30
0.0
 11
91.1085564557
 21
129.9135031214
 31
0.0
  0
SPLINE
  5
17E
330
1F
100
AcDbEntity
  8
0
  6
SLD-Durchgehend
 62
     8
370
     0
100
AcDbSpline
210
0.0
220
0.0
230
1.0
 70
     8
 71
     3
 72
    12
 73
     8
 74
     0
 42
0.000000001
 43
0.00000001
 40
0.0
 40
0.0
 40
0.0
 40
0.0
 40
0.2491163676291163
 40
0.3744738237796962
 40
0.4995077460267981
 40
0.7492350227538354
 40
1.0
 40
1.0
 40
1.0
 40
1.0
 10
92.97045538273285
 20
130.7235991617432
 30
0.0
 10
92.85878485283446
 20
130.7131178234237
 30
0.0
 10
92.69092077094956
 20
130.697362187308
 30
0.0
 10
92.50372853758927
 20
130.5723333604701
 30
0.0
 10
92.35740263610565
 20
130.4033600495521
 30
0.0
 10
92.26096448922681
 20
130.1337771283996
 30
0.0
 10
92.24076024441585
 20
129.9117595865873
 30
0.0
 10
92.2306371766759
 20
129.8005206545582
 30
0.0
  0
SPLINE
  5
17F
330
1F
100
AcDbEntity
  8
0
  6
SLD-Durchgehend
 62
     8
370
     0
100
AcDbSpline
210
0.0
220
0.0
230
1.0
 70
     8
 71
     3
 72
    13
 73
     9
 74
     0
 42
0.000000001
 43
0.00000001
 40
0.0
 40
0.0
 40
0.0
 40
0.0
 40
0.2501083924690185
 40
0.3778760485918065
 40
0.5004078937431122
 40
0.6254632891989452
 40
0.750526403127607
 40
1.0
 40
1.0
 40
1.0
 40
1.0
 10
93.67756088335643
 20
129.9363391509047
 30
0.0
 10
93.672601535412
 20
130.0372434671583
 30
0.0
 10
93.66510870885654
 20
130.1896946661579
 30
0.0
 10
93.59251607054298
 20
130.3785977188552
 30
0.0
 10
93.50923254104967
 20
130.5051367418629
 30
0.0
 10
93.39836832197047
 20
130.6062903255247
 30
0.0
 10
93.22179992246328
 20
130.7053465401306
 30
0.0
 10
93.0709406240978
 20
130.7163019310564
 30
0.0
 10
92.97045538273285
 20
130.7235991617432
 30
0.0
  0
SPLINE
  5
180
330
1F
100
AcDbEntity
  8
0
  6
SLD-Durchgehend
 62
     8
370
     0
100
AcDbSpline
210
0.0
220
0.0
230
1.0
 70
     8
 71
     3
 72
     9
 73
     5
 74
     0
 42
0.000000001
 43
0.00000001
 40
0.0
 40
0.0
 40
0.0
 40
0.0
 40
0.5005539967678097
 40
1.0
 40
1.0
 40
1.0
 40
1.0
 10
93.45018441394548
 20
129.2428297957173
 30
0.0
 10
93.51367913048941
 20
129.3500896306394
 30
0.0
 10
93.64052801583232
 20
129.5643718771397
 30
0.0
 10
93.66522571581237
 20
129.8124416795622
 30
0.0
 10
93.67756088335643
 20
129.9363391509047
 30
0.0
  0
SPLINE
  5
181
330
1F
100
AcDbEntity
  8
0
  6
SLD-Durchgehend
 62
     8
370
     0
100
AcDbSpline
210
0.0
220
0.0
230
1.0
 70
     8
 71
     3
 72
    11
 73
     7
 74
     0
 42
0.000000001
 43
0.00000001
 40
0.0
 40
0.0
 40
0.0
 40
0.0
 40
0.2500532467302935
 40
0.5001008688508736
 40
0.75013129030585
 40
0.9999999999999999
 40
0.9999999999999999
 40
0.9999999999999999
 40
0.9999999999999999
 10
92.54043837149273
 20
128.2740792294732
 30
0.0
 10
92.61970331736879
 20
128.3512258637805
 30
0.0
 10
92.77823142616309
 20
128.505517397086
 30
0.0
 10
93.01178033076451
 20
128.7419958369063
 30
0.0
 10
93.24458005769426
 20
128.9802626253514
 30
0.0
 10
93.38166441027846
 20
129.1553262826384
 30
0.0
 10
93.45018441394548
 20
129.2428297957173
 30
0.0
  0
SPLINE
  5
182
330
1F
100
AcDbEntity
  8
0
  6
SLD-Durchgehend
 62
     8
370
     0
100
AcDbSpline
210
0.0
220
0.0
230
1.0
 70
     8
 71
     3
 72
    16
 73
    12
 74
     0
 42
0.000000001
 43
0.00000001
 40
0.0
 40
0.0
 40
0.0
 40
0.0
 40
0.0840359324438357
 40
0.1653875093712125
 40
0.2499991165378611
 40
0.3749335101244876
 40
0.4998984416745825
 40
0.6249085059999644
 40
0.7499358457846736
 40
0.874965408130992
 40
1.0
 40
1.0
 40
1.0
 40
1.0
 10
90.96078117449413
 20
125.7235983421793
 30
0.0
 10
90.97181547752177
 20
125.8095620679656
 30
0.0
 10
90.99353161539658
 20
125.9787435846168
 30
0.0
 10
91.05420468223494
 20
126.2293383066891
 30
0.0
 10
91.1510165022209
 20
126.5122776825405
 30
0.0
 10
91.29551463490833
 20
126.8243951394433
 30
0.0
 10
91.50594799146417
 20
127.1454675827203
 30
0.0
 10
91.74648292601438
 20
127.4430220915347
 30
0.0
 10
92.00008734100126
 20
127.7297940026369
 30
0.0
 10
92.2658016866882
 20
128.0059093169822
 30
0.0
 10
92.44889158239982
 20
128.1846880600548
 30
0.0
 10
92.54043837149273
 20
128.2740792294732
 30
0.0
  0
LINE
  5
183
330
1F
100
AcDbEntity
  8
0
  6
SLD-Durchgehend
 62
     8
370
     0
100
AcDbLine
 10
94.8300296734
 20
125.7235983422
 30
0.0
 11
90.9607811745
 21
125.7235983422
 31
0.0
  0
LINE
  5
184
330
1F
100
AcDbEntity
  8
0
  6
SLD-Durchgehend
 62
     8
370
     0
100
AcDbLine
 10
94.8300296734
 20
126.8774455448
 30
0.0
 11
94.8300296734
 21
125.7235983422
 31
0.0
  0
LINE
  5
185
330
1F
100
AcDbEntity
  8
0
  6
SLD-Durchgehend
 62
     8
370
     0
100
AcDbLine
 10
94.8300296734
 20
126.8774455448
 30
0.0
 11
92.6103767387
 21
126.8774455448
 31
0.0
  0
SPLINE
  5
186
330
1F
100
AcDbEntity
  8
0
  6
SLD-Durchgehend
 62
     8
370
     0
100
AcDbSpline
210
0.0
220
0.0
230
1.0
 70
     8
 71
     3
 72
    20
 73
    16
 74
     0
 42
0.000000001
 43
0.00000001
 40
0.0
 40
0.0
 40
0.0
 40
0.0
 40
0.0623931128863977
 40
0.1249388089314715
 40
0.250049696305712
 40
0.3751768240732295
 40
0.5002723189132233
 40
0.5628213512406738
 40
0.6253402119358256
 40
0.7499168806427311
 40
0.8125139542422841
 40
0.8748911057487738
 40
0.9173577899516465
 40
0.9579220270242086
 40
1.0
 40
1.0
 40
1.0
 40
1.0
 10
82.60301671993564
 20
129.8666277935496
 30
0.0
 10
82.63834446672846
 20
129.8182579224856
 30
0.0
 10
82.70908635477244
 20
129.7213998912169
 30
0.0
 10
82.87407122565696
 20
129.6040856804291
 30
0.0
 10
83.09376010984587
 20
129.4828909720472
 30
0.0
 10
83.37866522848496
 20
129.3553622660934
 30
0.0
 10
83.62524763588387
 20
129.2115066375828
 30
0.0
 10
83.82419586745077
 20
129.0674369923395
 30
0.0
 10
84.01567900063523
 20
128.8819947110184
 30
0.0
 10
84.18251290695619
 20
128.6174426324258
 30
0.0
 10
84.30164224158852
 20
128.2989555884557
 30
0.0
 10
84.35630828825073
 20
128.0652695433586
 30
0.0
 10
84.38349524328119
 20
127.8545626331702
 30
0.0
 10
84.3984903664464
 20
127.671042238001
 30
0.0
 10
84.39972758834774
 20
127.5489722001526
 30
0.0
 10
84.40035753023456
 20
127.4868192186346
 30
0.0
  0
SPLINE
  5
187
330
1F
100
AcDbEntity
  8
0
  6
SLD-Durchgehend
 62
     8
370
     0
100
AcDbSpline
210
0.0
220
0.0
230
1.0
 70
     8
 71
     3
 72
    11
 73
     7
 74
     0
 42
0.000000001
 43
0.00000001
 40
0.0
 40
0.0
 40
0.0
 40
0.0
 40
0.2501304542831188
 40
0.4998676604642772
 40
0.749729906804184
 40
1.0
 40
1.0
 40
1.0
 40
1.0
 10
82.52500541579555
 20
130.2235981484642
 30
0.0
 10
82.52582446011853
 20
130.1890865933539
 30
0.0
 10
82.5274612610859
 20
130.1201177412347
 30
0.0
 10
82.54412315491697
 20
130.0229419227789
 30
0.0
 10
82.56912619018922
 20
129.9362292641752
 30
0.0
 10
82.59171373680535
 20
129.8898408933215
 30
0.0
 10
82.60301671993564
 20
129.8666277935496
 30
0.0
  0
SPLINE
  5
188
330
1F
100
AcDbEntity
  8
0
  6
SLD-Durchgehend
 62
     8
370
     0
100
AcDbSpline
210
0.0
220
0.0
230
1.0
 70
     8
 71
     3
 72
    11
 73
     7
 74
     0
 42
0.000000001
 43
0.00000001
 40
0.0
 40
0.0
 40
0.0
 40
0.0
 40
0.2502720849269516
 40
0.4999773829946869
 40
0.749716715706565
 40
1.0
 40
1.0
 40
1.0
 40
1.0
 10
82.6078279323561
 20
130.5877806653967
 30
0.0
 10
82.59541887810379
 20
130.5655506991079
 30
0.0
 10
82.57062887216952
 20
130.5211411103502
 30
0.0
 10
82.54374680172138
 20
130.4322090682476
 30
0.0
 10
82.52783912850258
 20
130.3305205464198
 30
0.0
 10
82.52595067148637
 20
130.2592647864029
 30
0.0
 10
82.52500541579555
 20
130.2235981484642
 30
0.0
  0
SPLINE
  5
189
330
1F
100
AcDbEntity
  8
0
  6
SLD-Durchgehend
 62
     8
370
     0
100
AcDbSpline
210
0.0
220
0.0
230
1.0
 70
     8
 71
     3
 72
     9
 73
     5
 74
     0
 42
0.000000001
 43
0.00000001
 40
0.0
 40
0.0
 40
0.0
 40
0.0
 40
0.5011041691448208
 40
0.9999999999999999
 40
0.9999999999999999
 40
0.9999999999999999
 40
0.9999999999999999
 10
82.9897195480449
 20
130.800520818471
 30
0.0
 10
82.91935686617938
 20
130.7966351279923
 30
0.0
 10
82.77894158688609
 20
130.7888808710572
 30
0.0
 10
82.66478178271053
 20
130.654715306299
 30
0.0
 10
82.6078279323561
 20
130.5877806653967
 30
0.0
  0
SPLINE
  5
18A
330
1F
100
AcDbEntity
  8
0
  6
SLD-Durchgehend
 62
     8
370
     0
100
AcDbSpline
210
0.0
220
0.0
230
1.0
 70
     8
 71
     3
 72
    13
 73
     9
 74
     0
 42
0.000000001
 43
0.00000001
 40
0.0
 40
0.0
 40
0.0
 40
0.0
 40
0.249857659147083
 40
0.3758165513585187
 40
0.4997953731320943
 40
0.6229648487778312
 40
0.7498729585006371
 40
0.9999999999999999
 40
0.9999999999999999
 40
0.9999999999999999
 40
0.9999999999999999
 10
83.56238234859536
 20
129.9543676933041
 30
0.0
 10
83.54687389458154
 20
130.0800371588042
 30
0.0
 10
83.5235472784423
 20
130.2690594417175
 30
0.0
 10
83.44863121203326
 20
130.4888711170448
 30
0.0
 10
83.37345289703157
 20
130.6242166760318
 30
0.0
 10
83.28194868602908
 20
130.7154977130098
 30
0.0
 10
83.15172434799481
 20
130.7879280147067
 30
0.0
 10
83.05433087473271
 20
130.7954985119827
 30
0.0
 10
82.9897195480449
 20
130.800520818471
 30
0.0
  0
LINE
  5
18B
330
1F
100
AcDbEntity
  8
0
  6
SLD-Durchgehend
 62
     8
370
     0
100
AcDbLine
 10
84.2530008785
 20
130.0312912127
 30
0.0
 11
83.5623823486
 21
129.9543676933
 31
0.0
  0
SPLINE
  5
18C
330
1F
100
AcDbEntity
  8
0
  6
SLD-Durchgehend
 62
     8
370
     0
100
AcDbSpline
210
0.0
220
0.0
230
1.0
 70
     8
 71
     3
 72
    15
 73
    11
 74
     0
 42
0.000000001
 43
0.00000001
 40
0.0
 40
0.0
 40
0.0
 40
0.0
 40
0.2499670972203532
 40
0.375042662987536
 40
0.5000084322582923
 40
0.6249418065275623
 40
0.7498728237182607
 40
0.8748003230977193
 40
0.9373895402818039
 40
0.9999999999999999
 40
0.9999999999999999
 40
0.9999999999999999
 40
0.9999999999999999
 10
82.98255115818809
 20
131.8005209823838
 30
0.0
 10
83.12024387751393
 20
131.7898520984194
 30
0.0
 10
83.32683364354398
 20
131.7738448450744
 30
0.0
 10
83.61626244423897
 20
131.6155200687508
 30
0.0
 10
83.82525262970228
 20
131.4278774987045
 30
0.0
 10
84.00594517595303
 20
131.1538008847182
 30
0.0
 10
84.14613495016282
 20
130.8171373119948
 30
0.0
 10
84.2160443812387
 20
130.4972689108732
 30
0.0
 10
84.24508486903521
 20
130.232494407328
 30
0.0
 10
84.25036191023533
 20
130.0983665300191
 30
0.0
 10
84.25300087851117
 20
130.031291212677
 30
0.0
  0
SPLINE
  5
18D
330
1F
100
AcDbEntity
  8
0
  6
SLD-Durchgehend
 62
     8
370
     0
100
AcDbSpline
210
0.0
220
0.0
230
1.0
 70
     8
 71
     3
 72
    13
 73
     9
 74
     0
 42
0.000000001
 43
0.00000001
 40
0.0
 40
0.0
 40
0.0
 40
0.0
 40
0.1250898591966112
 40
0.2502018051398363
 40
0.3761529563420415
 40
0.5003799715020912
 40
0.7497478169844812
 40
1.0
 40
1.0
 40
1.0
 40
1.0
 10
82.07028158080409
 20
130.1430704107275
 30
0.0
 10
82.07335640866637
 20
130.2698390968134
 30
0.0
 10
82.07950660730414
 20
130.5233988521571
 30
0.0
 10
82.13211626871875
 20
130.8800510879705
 30
0.0
 10
82.2122906617897
 20
131.1958101987708
 30
0.0
 10
82.36365182045414
 20
131.5265270785665
 30
0.0
 10
82.61620219660479
 20
131.7644745804904
 30
0.0
 10
82.86029082372836
 20
131.7884913450333
 30
0.0
 10
82.98255115818809
 20
131.8005209823838
 30
0.0
  0
SPLINE
  5
18E
330
1F
100
AcDbEntity
  8
0
  6
SLD-Durchgehend
 62
     8
370
     0
100
AcDbSpline
210
0.0
220
0.0
230
1.0
 70
     8
 71
     3
 72
    11
 73
     7
 74
     0
 42
0.000000001
 43
0.00000001
 40
0.0
 40
0.0
 40
0.0
 40
0.0
 40
0.4985778463530673
 40
0.749066868828677
 40
0.8745092660901091
 40
1.0
 40
1.0
 40
1.0
 40
1.0
 10
82.27745521884988
 20
128.9471553673735
 30
0.0
 10
82.21754923733225
 20
129.1144186338037
 30
0.0
 10
82.12754606866409
 20
129.3657161436537
 30
0.0
 10
82.08498443928919
 20
129.7490388907461
 30
0.0
 10
82.07175448141909
 20
129.9727736578181
 30
0.0
 10
82.07077261072091
 20
130.0862975371467
 30
0.0
 10
82.07028158080409
 20
130.1430704107275
 30
0.0
  0
SPLINE
  5
18F
330
1F
100
AcDbEntity
  8
0
  6
SLD-Durchgehend
 62
     8
370
     0
100
AcDbSpline
210
0.0
220
0.0
230
1.0
 70
     8
 71
     3
 72
     9
 73
     5
 74
     0
 42
0.000000001
 43
0.00000001
 40
0.0
 40
0.0
 40
0.0
 40
0.0
 40
0.5010297228887064
 40
1.0
 40
1.0
 40
1.0
 40
1.0
 10
82.87836410176585
 20
128.3582130482188
 30
0.0
 10
82.76334298666758
 20
128.4197860782704
 30
0.0
 10
82.53377354229389
 20
128.5426790469681
 30
0.0
 10
82.36277727415042
 20
128.8125151648563
 30
0.0
 10
82.27745521884988
 20
128.9471553673735
 30
0.0
  0
SPLINE
  5
190
330
1F
100
AcDbEntity
  8
0
  6
SLD-Durchgehend
 62
     8
370
     0
100
AcDbSpline
210
0.0
220
0.0
230
1.0
 70
     8
 71
     3
 72
    11
 73
     7
 74
     0
 42
0.000000001
 43
0.00000001
 40
0.0
 40
0.0
 40
0.0
 40
0.0
 40
0.499941611620196
 40
0.5063768991132755
 40
0.7499691376682809
 40
1.0
 40
1.0
 40
1.0
 40
1.0
 10
83.3785197145922
 20
128.0973961611977
 30
0.0
 10
83.2920189070815
 20
128.1449192830821
 30
0.0
 10
83.20440465441683
 20
128.1930541263051
 30
0.0
 10
83.07904960688045
 20
128.255745240021
 30
0.0
 10
82.99656413425733
 20
128.2980527422075
 30
0.0
 10
82.91810524148033
 20
128.3379859884112
 30
0.0
 10
82.87836410176585
 20
128.3582130482188
 30
0.0
  0
SPLINE
  5
191
330
1F
100
AcDbEntity
  8
0
  6
SLD-Durchgehend
 62
     8
370
     0
100
AcDbSpline
210
0.0
220
0.0
230
1.0
 70
     8
 71
     3
 72
    11
 73
     7
 74
     0
 42
0.000000001
 43
0.00000001
 40
0.0
 40
0.0
 40
0.0
 40
0.0
 40
0.2498288885251978
 40
0.3734188718080418
 40
0.5006396053417439
 40
1.0
 40
1.0
 40
1.0
 40
1.0
 10
83.6942175782902
 20
127.4747995694866
 30
0.0
 10
83.69024561840196
 20
127.5506394195374
 30
0.0
 10
83.68430873580567
 20
127.6639971317347
 30
0.0
 10
83.6424129875225
 20
127.7978894248607
 30
0.0
 10
83.55641037116746
 20
127.9687302856128
 30
0.0
 10
83.4574150627703
 20
128.0403322363782
 30
0.0
 10
83.3785197145922
 20
128.0973961611977
 30
0.0
  0
SPLINE
  5
192
330
1F
100
AcDbEntity
  8
0
  6
SLD-Durchgehend
 62
     8
370
     0
100
AcDbSpline
210
0.0
220
0.0
230
1.0
 70
     8
 71
     3
 72
    13
 73
     9
 74
     0
 42
0.000000001
 43
0.00000001
 40
0.0
 40
0.0
 40
0.0
 40
0.0
 40
0.2503790238526111
 40
0.499885937470205
 40
0.6249918829143319
 40
0.750147493197819
 40
0.8750666916785486
 40
0.9999999999999999
 40
0.9999999999999999
 40
0.9999999999999999
 40
0.9999999999999999
 10
83.04329387914966
 20
126.6466749867192
 30
0.0
 10
83.1126689625942
 20
126.6518791023753
 30
0.0
 10
83.25117748495813
 20
126.6622692069194
 30
0.0
 10
83.43087720467108
 20
126.7700667054445
 30
0.0
 10
83.55275322898254
 20
126.9335812241771
 30
0.0
 10
83.62987239297983
 20
127.0861130282081
 30
0.0
 10
83.68437916113386
 20
127.2709691100773
 30
0.0
 10
83.69093798244002
 20
127.4068535250978
 30
0.0
 10
83.6942175782902
 20
127.4747995694866
 30
0.0
  0
SPLINE
  5
193
330
1F
100
AcDbEntity
  8
0
  6
SLD-Durchgehend
 62
     8
370
     0
100
AcDbSpline
210
0.0
220
0.0
230
1.0
 70
     8
 71
     3
 72
    13
 73
     9
 74
     0
 42
0.000000001
 43
0.00000001
 40
0.0
 40
0.0
 40
0.0
 40
0.0
 40
0.2499450064551937
 40
0.3743880749258207
 40
0.5000677016851054
 40
0.6250801179223007
 40
0.7501742381001022
 40
0.9999999999999999
 40
0.9999999999999999
 40
0.9999999999999999
 40
0.9999999999999999
 10
82.4269166595919
 20
127.8005221893778
 30
0.0
 10
82.44261543733374
 20
127.6411075406071
 30
0.0
 10
82.46613035071734
 20
127.4023232403537
 30
0.0
 10
82.53526435777712
 20
127.1166565533924
 30
0.0
 10
82.60629591915306
 20
126.9306440785712
 30
0.0
 10
82.69915993752447
 20
126.7943764017157
 30
0.0
 10
82.8402184479499
 20
126.6697279010794
 30
0.0
 10
82.96208727160996
 20
126.6558934773955
 30
0.0
 10
83.04329387914966
 20
126.6466749867192
 30
0.0
  0
LINE
  5
194
330
1F
100
AcDbEntity
  8
0
  6
SLD-Durchgehend
 62
     8
370
     0
100
AcDbLine
 10
81.9901794575
 20
127.72359867
 30
0.0
 11
82.4269166596
 21
127.8005221894
 31
0.0
  0
SPLINE
  5
195
330
1F
100
AcDbEntity
  8
0
  6
SLD-Durchgehend
 62
     8
370
     0
100
AcDbSpline
210
0.0
220
0.0
230
1.0
 70
     8
 71
     3
 72
    13
 73
     9
 74
     0
 42
0.000000001
 43
0.00000001
 40
0.0
 40
0.0
 40
0.0
 40
0.0
 40
0.2500004777400968
 40
0.3751416489515113
 40
0.5001950665583532
 40
0.6253889164435616
 40
0.750322479144102
 40
1.0
 40
1.0
 40
1.0
 40
1.0
 10
83.02756849747728
 20
125.6466748228064
 30
0.0
 10
82.88116072734061
 20
125.6616216824023
 30
0.0
 10
82.66146653793396
 20
125.6840503977637
 30
0.0
 10
82.41801278995365
 20
125.8864830827867
 30
0.0
 10
82.26320016115982
 20
126.1277824015646
 30
0.0
 10
82.14532630224248
 20
126.4571891718711
 30
0.0
 10
82.03604171762449
 20
126.9807545616877
 30
0.0
 10
82.00852157574757
 20
127.4265061489558
 30
0.0
 10
81.99017945748399
 20
127.7235986700049
 30
0.0
  0
SPLINE
  5
196
330
1F
100
AcDbEntity
  8
0
  6
SLD-Durchgehend
 62
     8
370
     0
100
AcDbSpline
210
0.0
220
0.0
230
1.0
 70
     8
 71
     3
 72
    13
 73
     9
 74
     0
 42
0.000000001
 43
0.00000001
 40
0.0
 40
0.0
 40
0.0
 40
0.0
 40
0.1251218178818998
 40
0.2502579160365674
 40
0.375369080853215
 40
0.500441772135138
 40
0.7496865745883283
 40
1.0
 40
1.0
 40
1.0
 40
1.0
 10
84.40035753023456
 20
127.4868192186346
 30
0.0
 10
84.394252282992
 20
127.3450872902403
 30
0.0
 10
84.38204109170916
 20
127.061607257451
 30
0.0
 10
84.27929353448971
 20
126.662708725165
 30
0.0
 10
84.12954601397642
 20
126.3081842108358
 30
0.0
 10
83.86623522428515
 20
125.9330492090931
 30
0.0
 10
83.46637273537353
 20
125.681312767748
 30
0.0
 10
83.17404501968348
 20
125.6582372583374
 30
0.0
 10
83.02756849747728
 20
125.6466748228064
 30
0.0
  0
LINE
  5
197
330
1F
100
AcDbEntity
  8
0
  6
SLD-Durchgehend
 62
     8
370
     0
100
AcDbLine
 10
81.8074101962
 20
130.7235991617
 30
0.0
 11
81.3883494965
 21
130.7235991617
 31
0.0
  0
LINE
  5
198
330
1F
100
AcDbEntity
  8
0
  6
SLD-Durchgehend
 62
     8
370
     0
100
AcDbLine
 10
81.8074101962
 20
131.7235993257
 30
0.0
 11
81.8074101962
 21
130.7235991617
 31
0.0
  0
LINE
  5
199
330
1F
100
AcDbEntity
  8
0
  6
SLD-Durchgehend
 62
     8
370
     0
100
AcDbLine
 10
81.8074101962
 20
131.7235993257
 30
0.0
 11
81.1810622371
 21
131.7235993257
 31
0.0
  0
LINE
  5
19A
330
1F
100
AcDbEntity
  8
0
  6
SLD-Durchgehend
 62
     8
370
     0
100
AcDbLine
 10
81.2362654514
 20
130.7235991617
 30
0.0
 11
81.1810622371
 21
130.7235991617
 31
0.0
  0
LINE
  5
19B
330
1F
100
AcDbEntity
  8
0
  6
SLD-Durchgehend
 62
     8
370
     0
100
AcDbLine
 10
81.2362654514
 20
125.7235983422
 30
0.0
 11
81.2362654514
 21
130.7235991617
 31
0.0
  0
LINE
  5
19C
330
1F
100
AcDbEntity
  8
0
  6
SLD-Durchgehend
 62
     8
370
     0
100
AcDbLine
 10
81.3883494965
 20
125.7235983422
 30
0.0
 11
81.2362654514
 21
125.7235983422
 31
0.0
  0
LINE
  5
19D
330
1F
100
AcDbEntity
  8
0
  6
SLD-Durchgehend
 62
     8
370
     0
100
AcDbLine
 10
81.3883494965
 20
130.7235991617
 30
0.0
 11
81.3883494965
 21
125.7235983422
 31
0.0
  0
SPLINE
  5
19E
330
1F
100
AcDbEntity
  8
0
  6
SLD-Durchgehend
 62
     8
370
     0
100
AcDbSpline
210
0.0
220
0.0
230
1.0
 70
     8
 71
     3
 72
    15
 73
    11
 74
     0
 42
0.000000001
 43
0.00000001
 40
0.0
 40
0.0
 40
0.0
 40
0.0
 40
0.1632711879454558
 40
0.3326384764128479
 40
0.4999834840092455
 40
0.6300752684020176
 40
0.7499526304832006
 40
0.8332630926339588
 40
0.917657122997096
 40
1.0
 40
1.0
 40
1.0
 40
1.0
 10
86.9982539124472
 20
130.1851363887778
 30
0.0
 10
87.09653135843809
 20
130.2324200670463
 30
0.0
 10
87.29675566201256
 20
130.3287528670728
 30
0.0
 10
87.57636017777436
 20
130.5406865293363
 30
0.0
 10
87.8274552958033
 20
130.7588486920199
 30
0.0
 10
88.03704642552617
 20
130.9797176406255
 30
0.0
 10
88.18482026348352
 20
131.1799136103506
 30
0.0
 10
88.29337273062372
 20
131.3686826619231
 30
0.0
 10
88.37696161852088
 20
131.5408861987258
 30
0.0
 10
88.41826151282312
 20
131.6631964929824
 30
0.0
 10
88.43865742978285
 20
131.723599325656
 30
0.0
  0
LINE
  5
19F
330
1F
100
AcDbEntity
  8
0
  6
SLD-Durchgehend
 62
     8
370
     0
100
AcDbLine
 10
86.9982539124
 20
129.0312910488
 30
0.0
 11
86.9982539124
 21
130.1851363888
 31
0.0
  0
SPLINE
  5
1A0
330
1F
100
AcDbEntity
  8
0
  6
SLD-Durchgehend
 62
     8
370
     0
100
AcDbSpline
210
0.0
220
0.0
230
1.0
 70
     8
 71
     3
 72
     9
 73
     5
 74
     0
 42
0.000000001
 43
0.00000001
 40
0.0
 40
0.0
 40
0.0
 40
0.0
 40
0.5000146214111018
 40
1.0
 40
1.0
 40
1.0
 40
1.0
 10
88.2377855859382
 20
129.9952322652331
 30
0.0
 10
88.04957022474147
 20
129.792554719844
 30
0.0
 10
87.67315050992283
 20
129.3872114824461
 30
0.0
 10
87.22321505914495
 20
129.1499288803873
 30
0.0
 10
86.9982539124472
 20
129.0312910487643
 30
0.0
  0
LINE
  5
1A1
330
1F
100
AcDbEntity
  8
0
  6
SLD-Durchgehend
 62
     8
370
     0
100
AcDbLine
 10
88.2377855859
 20
125.7235983422
 30
0.0
 11
88.2377855859
 21
129.9952322652
 31
0.0
  0
LINE
  5
1A2
330
1F
100
AcDbEntity
  8
0
  6
SLD-Durchgehend
 62
     8
370
     0
100
AcDbLine
 10
89.2704407133
 20
125.7235983422
 30
0.0
 11
88.2377855859
 21
125.7235983422
 31
0.0
  0
LINE
  5
1A3
330
1F
100
AcDbEntity
  8
0
  6
SLD-Durchgehend
 62
     8
370
     0
100
AcDbLine
 10
89.2704407133
 20
131.7235993257
 30
0.0
 11
89.2704407133
 21
125.7235983422
 31
0.0
  0
LINE
  5
1A4
330
1F
100
AcDbEntity
  8
0
  6
SLD-Durchgehend
 62
     8
370
     0
100
AcDbLine
 10
89.2704407133
 20
131.7235993257
 30
0.0
 11
88.4386574298
 21
131.7235993257
 31
0.0
  0
SPLINE
  5
1A5
330
1F
100
AcDbEntity
  8
0
  6
SLD-Durchgehend
 62
     8
370
     0
100
AcDbSpline
210
0.0
220
0.0
230
1.0
 70
     8
 71
     3
 72
     9
 73
     5
 74
     0
 42
0.000000001
 43
0.00000001
 40
0.0
 40
0.0
 40
0.0
 40
0.0
 40
0.4999998663582138
 40
1.0
 40
1.0
 40
1.0
 40
1.0
 10
105.2036144219024
 20
125.7235983421793
 30
0.0
 10
104.9397169117346
 20
126.3706333903806
 30
0.0
 10
104.4119217503281
 20
127.6647038326669
 30
0.0
 10
103.8118722417967
 20
128.9587750999466
 30
0.0
 10
103.5118474073393
 20
129.6058109065285
 30
0.0
  0
LINE
  5
1A6
330
1F
100
AcDbEntity
  8
0
  6
SLD-Durchgehend
 62
     8
370
     0
100
AcDbLine
 10
105.9667121999
 20
125.7235983422
 30
0.0
 11
105.2036144219
 21
125.7235983422
 31
0.0
  0
LINE
  5
1A7
330
1F
100
AcDbEntity
  8
0
  6
SLD-Durchgehend
 62
     8
370
     0
100
AcDbLine
 10
105.9667121999
 20
131.7235993257
 30
0.0
 11
105.9667121999
 21
125.7235983422
 31
0.0
  0
LINE
  5
1A8
330
1F
100
AcDbEntity
  8
0
  6
SLD-Durchgehend
 62
     8
370
     0
100
AcDbLine
 10
105.9667121999
 20
131.7235993257
 30
0.0
 11
105.2604353435
 21
131.7235993257
 31
0.0
  0
LINE
  5
1A9
330
1F
100
AcDbEntity
  8
0
  6
SLD-Durchgehend
 62
     8
370
     0
100
AcDbLine
 10
105.2604353435
 20
127.7812903782
 30
0.0
 11
105.2604353435
 21
131.7235993257
 31
0.0
  0
SPLINE
  5
1AA
330
1F
100
AcDbEntity
  8
0
  6
SLD-Durchgehend
 62
     8
370
     0
100
AcDbSpline
210
0.0
220
0.0
230
1.0
 70
     8
 71
     3
 72
     9
 73
     5
 74
     0
 42
0.000000001
 43
0.00000001
 40
0.0
 40
0.0
 40
0.0
 40
0.0
 40
0.5000001239352716
 40
1.0
 40
1.0
 40
1.0
 40
1.0
 10
103.5516698293073
 20
131.723599325656
 30
0.0
 10
103.8551768811304
 20
131.0665474501859
 30
0.0
 10
104.4621908343157
 20
129.7524440249731
 30
0.0
 10
104.9943538844093
 20
128.4383414852233
 30
0.0
 10
105.2604353435023
 20
127.781290378212
 30
0.0
  0
LINE
  5
1AB
330
1F
100
AcDbEntity
  8
0
  6
SLD-Durchgehend
 62
     8
370
     0
100
AcDbLine
 10
103.5516698293
 20
131.7235993257
 30
0.0
 11
102.5914580941
 21
131.7235993257
 31
0.0
  0
LINE
  5
1AC
330
1F
100
AcDbEntity
  8
0
  6
SLD-Durchgehend
 62
     8
370
     0
100
AcDbLine
 10
102.5914580941
 20
125.7235983422
 30
0.0
 11
102.5914580941
 21
131.7235993257
 31
0.0
  0
LINE
  5
1AD
330
1F
100
AcDbEntity
  8
0
  6
SLD-Durchgehend
 62
     8
370
     0
100
AcDbLine
 10
103.5118474073
 20
125.7235983422
 30
0.0
 11
102.5914580941
 21
125.7235983422
 31
0.0
  0
LINE
  5
1AE
330
1F
100
AcDbEntity
  8
0
  6
SLD-Durchgehend
 62
     8
370
     0
100
AcDbLine
 10
103.5118474073
 20
129.6058109065
 30
0.0
 11
103.5118474073
 21
125.7235983422
 31
0.0
  0
SPLINE
  5
1AF
330
1F
100
AcDbEntity
  8
0
  6
SLD-Durchgehend
 62
     8
370
     0
100
AcDbSpline
210
0.0
220
0.0
230
1.0
 70
     8
 71
     3
 72
    11
 73
     7
 74
     0
 42
0.000000001
 43
0.00000001
 40
0.0
 40
0.0
 40
0.0
 40
0.0
 40
0.2499164977707236
 40
0.4994471925444773
 40
0.7491684417357095
 40
1.0
 40
1.0
 40
1.0
 40
1.0
 10
97.57580383752118
 20
130.7235991617432
 30
0.0
 10
97.49606106002994
 20
130.7157269673239
 30
0.0
 10
97.33669860617451
 20
130.6999947310091
 30
0.0
 10
97.12284042278985
 20
130.5711157844156
 30
0.0
 10
96.98407324571087
 20
130.3660519050688
 30
0.0
 10
96.93303950636704
 20
130.2119025063853
 30
0.0
 10
96.90746603604983
 20
130.1346568425885
 30
0.0
  0
SPLINE
  5
1B0
330
1F
100
AcDbEntity
  8
0
  6
SLD-Durchgehend
 62
     8
370
     0
100
AcDbSpline
210
0.0
220
0.0
230
1.0
 70
     8
 71
     3
 72
    10
 73
     6
 74
     0
 42
0.000000001
 43
0.00000001
 40
0.0
 40
0.0
 40
0.0
 40
0.0
 40
0.3291533730436878
 40
0.6620706475844231
 40
1.0
 40
1.0
 40
1.0
 40
1.0
 10
96.90746603604983
 20
130.1346568425885
 30
0.0
 10
96.8751022030609
 20
129.9775030890599
 30
0.0
 10
96.81000445343996
 20
129.6613985132298
 30
0.0
 10
96.78625361353191
 20
129.1737267612482
 30
0.0
 10
96.782272251325
 20
128.8472103509909
 30
0.0
 10
96.78026669730077
 20
128.6827323993435
 30
0.0
  0
SPLINE
  5
1B1
330
1F
100
AcDbEntity
  8
0
  6
SLD-Durchgehend
 62
     8
370
     0
100
AcDbSpline
210
0.0
220
0.0
230
1.0
 70
     8
 71
     3
 72
    18
 73
    14
 74
     0
 42
0.000000001
 43
0.00000001
 40
0.0
 40
0.0
 40
0.0
 40
0.0
 40
0.1251105926785838
 40
0.2502131091727613
 40
0.3753131854359957
 40
0.5003907636856522
 40
0.6253496787461771
 40
0.6891290255886102
 40
0.7503870769575212
 40
0.8127320431171855
 40
0.8751119652563762
 40
0.9375124189092632
 40
1.0
 40
1.0
 40
1.0
 40
1.0
 10
96.78026669730077
 20
128.6827323993435
 30
0.0
 10
96.78089613751814
 20
128.5813620205017
 30
0.0
 10
96.782154977321
 20
128.3786278065154
 30
0.0
 10
96.79188903606459
 20
128.0746482135574
 30
0.0
 10
96.81090046607443
 20
127.7711286406051
 30
0.0
 10
96.84517409911919
 20
127.4689126942538
 30
0.0
 10
96.90640902291622
 20
127.2207577315999
 30
0.0
 10
96.98491795323817
 20
127.0341054190155
 30
0.0
 10
97.05628217398116
 20
126.9002153035432
 30
0.0
 10
97.15440949629026
 20
126.7839802486232
 30
0.0
 10
97.28421982182611
 20
126.7055958459708
 30
0.0
 10
97.42654481541473
 20
126.6550422733793
 30
0.0
 10
97.52602769559434
 20
126.6494653791689
 30
0.0
 10
97.57580383752118
 20
126.6466749867192
 30
0.0
  0
SPLINE
  5
1B2
330
1F
100
AcDbEntity
  8
0
  6
SLD-Durchgehend
 62
     8
370
     0
100
AcDbSpline
210
0.0
220
0.0
230
1.0
 70
     8
 71
     3
 72
    11
 73
     7
 74
     0
 42
0.000000001
 43
0.00000001
 40
0.0
 40
0.0
 40
0.0
 40
0.0
 40
0.2499384495798322
 40
0.499411482602339
 40
0.7491417451296393
 40
0.9999999999999999
 40
0.9999999999999999
 40
0.9999999999999999
 40
0.9999999999999999
 10
97.57580383752118
 20
126.6466749867192
 30
0.0
 10
97.65540341704285
 20
126.6544751216849
 30
0.0
 10
97.814454351744
 20
126.6700608667924
 30
0.0
 10
98.02564113249736
 20
126.7992718968705
 30
0.0
 10
98.16227477743197
 20
127.0041709089904
 30
0.0
 10
98.21228703003757
 20
127.1583526993031
 30
0.0
 10
98.23734950345586
 20
127.2356173058739
 30
0.0
  0
SPLINE
  5
1B3
330
1F
100
AcDbEntity
  8
0
  6
SLD-Durchgehend
 62
     8
370
     0
100
AcDbSpline
210
0.0
220
0.0
230
1.0
 70
     8
 71
     3
 72
    10
 73
     6
 74
     0
 42
0.000000001
 43
0.00000001
 40
0.0
 40
0.0
 40
0.0
 40
0.0
 40
0.3284927586617346
 40
0.6618307543870859
 40
1.0
 40
1.0
 40
1.0
 40
1.0
 10
98.23734950345586
 20
127.2356173058739
 30
0.0
 10
98.26902924803262
 20
127.3919106120034
 30
0.0
 10
98.33285601041682
 20
127.7068025357182
 30
0.0
 10
98.35585758453804
 20
128.1929078993851
 30
0.0
 10
98.35976545897643
 20
128.5186763043721
 30
0.0
 10
98.36173345406185
 20
128.6827323993435
 30
0.0
  0
SPLINE
  5
1B4
330
1F
100
AcDbEntity
  8
0
  6
SLD-Durchgehend
 62
     8
370
     0
100
AcDbSpline
210
0.0
220
0.0
230
1.0
 70
     8
 71
     3
 72
    13
 73
     9
 74
     0
 42
0.000000001
 43
0.00000001
 40
0.0
 40
0.0
 40
0.0
 40
0.0
 40
0.5006606501749863
 40
0.6257938630174377
 40
0.7507604051931098
 40
0.8132388241009963
 40
0.875707906941008
 40
1.0
 40
1.0
 40
1.0
 40
1.0
 10
98.36173345406185
 20
128.6827323993435
 30
0.0
 10
98.36534586892672
 20
129.0915811806186
 30
0.0
 10
98.36986115698126
 20
129.6026160664932
 30
0.0
 10
98.22436640568718
 20
130.1931964271112
 30
0.0
 10
98.12353338732926
 20
130.4280306183913
 30
0.0
 10
97.99395648408266
 20
130.5829222023262
 30
0.0
 10
97.82469096030599
 20
130.6935630720353
 30
0.0
 10
97.67525529652684
 20
130.711597203141
 30
0.0
 10
97.57580383752118
 20
130.7235991617432
 30
0.0
  0
LINE
  5
1B5
330
1F
100
AcDbEntity
  8
0
  6
SLD-Durchgehend
 62
     8
370
     0
100
AcDbLine
 10
108.4712947167
 20
121.7235976865
 30
0.0
 11
108.4810624279
 21
121.7235976865
 31
0.0
  0
LINE
  5
1B6
330
1F
100
AcDbEntity
  8
0
  6
SLD-Durchgehend
 62
     8
370
     0
100
AcDbLine
 10
108.4810624279
 20
135.7235981187
 30
0.0
 11
108.4712947167
 21
135.7235981187
 31
0.0
  0
LINE
  5
1B7
330
1F
100
AcDbEntity
  8
0
  6
SLD-Durchgehend
 62
     8
370
     0
100
AcDbLine
 10
94.8310623325
 20
224.673598822
 30
0.0
 11
87.0810624592
 21
224.673598822
 31
0.0
  0
LINE
  5
1B8
330
1F
100
AcDbEntity
  8
0
  6
SLD-Durchgehend
 62
     8
370
     0
100
AcDbLine
 10
102.5810622058
 20
224.673598822
 30
0.0
 11
94.8310623325
 21
224.673598822
 31
0.0
  0
LINE
  5
1B9
330
1F
100
AcDbEntity
  8
0
  6
SLD-Durchgehend
 62
     8
370
     0
100
AcDbLine
 10
94.8310623325
 20
201.1735959014
 30
0.0
 11
102.5810622058
 21
201.1735959014
 31
0.0
  0
LINE
  5
1BA
330
1F
100
AcDbEntity
  8
0
  6
SLD-Durchgehend
 62
     8
370
     0
100
AcDbLine
 10
87.0810624592
 20
201.1735959014
 30
0.0
 11
94.8310623325
 21
201.1735959014
 31
0.0
  0
LINE
  5
1BB
330
1F
100
AcDbEntity
  8
0
  6
SLD-Durchgehend
 62
     8
370
     0
100
AcDbLine
 10
95.0810623444
 20
225.6736008486
 30
0.0
 11
94.5810623206
 21
225.6736008486
 31
0.0
  0
LWPOLYLINE
  5
1BC
330
1F
100
AcDbEntity
  8
0
  6
SLD-Durchgehend
 62
     8
370
     0
100
AcDbPolyline
 90
        9
 70
   128
 43
0.0
 10
95.0810623444
 20
225.6736008486
 10
95.0858660189
 20
225.5760503968
 10
95.1000924369
 20
225.4822550377
 10
95.1231949411
 20
225.3958134016
 10
95.1542856319
 20
225.3200484475
 10
95.1921697678
 20
225.2578659018
 10
95.2353914881
 20
225.211657401
 10
95.2822897497
 20
225.1832036337
 10
95.3310623563
 20
225.1735998353
  0
LWPOLYLINE
  5
1BD
330
1F
100
AcDbEntity
  8
0
  6
SLD-Durchgehend
 62
     8
370
     0
100
AcDbPolyline
 90
        9
 70
   128
 43
0.0
 10
94.5810623206
 20
225.6736008486
 10
94.5762586461
 20
225.5760503968
 10
94.5620322281
 20
225.4822550377
 10
94.5389297239
 20
225.3958134016
 10
94.5078390332
 20
225.3200484475
 10
94.4699548972
 20
225.2578659018
 10
94.4267331769
 20
225.211657401
 10
94.3798349153
 20
225.1832036337
 10
94.3310623088
 20
225.1735998353
  0
LINE
  5
1BE
330
1F
100
AcDbEntity
  8
0
  6
SLD-Durchgehend
 62
     8
370
     0
100
AcDbLine
 10
90.0810624852
 20
225.6736008486
 30
0.0
 11
94.5810623206
 21
225.6736008486
 31
0.0
  0
LWPOLYLINE
  5
1BF
330
1F
100
AcDbEntity
  8
0
  6
SLD-Durchgehend
 62
     8
370
     0
100
AcDbPolyline
 90
        9
 70
   128
 43
0.0
 10
90.0810624852
 20
225.6736008486
 10
90.0762587234
 20
225.5760503968
 10
90.0620323054
 20
225.4822550377
 10
90.0389299176
 20
225.3958134016
 10
90.0078391105
 20
225.3200484475
 10
89.9699547708
 20
225.2578659018
 10
89.9267330214
 20
225.211657401
 10
89.8798348762
 20
225.1832036337
 10
89.8310624443
 20
225.1735998353
  0
LINE
  5
1C0
330
1F
100
AcDbEntity
  8
0
  6
SLD-Durchgehend
 62
     8
370
     0
100
AcDbLine
 10
95.0810623444
 20
225.6736008486
 30
0.0
 11
99.5810621798
 21
225.6736008486
 31
0.0
  0
LWPOLYLINE
  5
1C1
330
1F
100
AcDbEntity
  8
0
  6
SLD-Durchgehend
 62
     8
370
     0
100
AcDbPolyline
 90
        9
 70
   128
 43
0.0
 10
99.5810621798
 20
225.6736008486
 10
99.5858659416
 20
225.5760503968
 10
99.6000923596
 20
225.4822550377
 10
99.6231947474
 20
225.3958134016
 10
99.6542855546
 20
225.3200484475
 10
99.6921698942
 20
225.2578659018
 10
99.7353916436
 20
225.211657401
 10
99.7822897888
 20
225.1832036337
 10
99.8310622208
 20
225.1735998353
  0
LINE
  5
1C2
330
1F
100
AcDbEntity
  8
0
  6
SLD-Durchgehend
 62
     8
370
     0
100
AcDbLine
 10
95.0810623444
 20
227.6735974511
 30
0.0
 11
95.0810623444
 21
225.6736008486
 31
0.0
  0
LINE
  5
1C3
330
1F
100
AcDbEntity
  8
0
  6
SLD-Durchgehend
 62
     8
370
     0
100
AcDbLine
 10
94.5810623206
 20
225.6736008486
 30
0.0
 11
94.5810623206
 21
227.6735974511
 31
0.0
  0
LINE
  5
1C4
330
1F
100
AcDbEntity
  8
0
  6
SLD-Durchgehend
 62
     8
370
     0
100
AcDbLine
 10
94.5810623206
 20
227.6735974511
 30
0.0
 11
95.0810623444
 21
227.6735974511
 31
0.0
  0
LWPOLYLINE
  5
1C5
330
1F
100
AcDbEntity
  8
0
  6
SLD-Durchgehend
 62
     8
370
     0
100
AcDbPolyline
 90
        9
 70
   128
 43
0.0
 10
94.8310623325
 20
228.1735984644
 10
94.8798349136
 20
228.163994666
 10
94.9267331934
 20
228.1355408987
 10
94.9699548918
 20
228.0893323978
 10
95.0078390278
 20
228.0271498522
 10
95.0389297331
 20
227.9513848981
 10
95.0620322228
 20
227.864943262
 10
95.0762586408
 20
227.7711404523
 10
95.0810623444
 20
227.6735974511
  0
LWPOLYLINE
  5
1C6
330
1F
100
AcDbEntity
  8
0
  6
SLD-Durchgehend
 62
     8
370
     0
100
AcDbPolyline
 90
        9
 70
   128
 43
0.0
 10
94.8310623325
 20
228.1735984644
 10
94.7822897514
 20
228.163994666
 10
94.7353914716
 20
228.1355408987
 10
94.6921697732
 20
228.0893323978
 10
94.6542856372
 20
228.0271498522
 10
94.6231949319
 20
227.9513848981
 10
94.6000924423
 20
227.864943262
 10
94.5858660243
 20
227.7711404523
 10
94.5810623206
 20
227.6735974511
  0
LINE
  5
1C7
330
1F
100
AcDbEntity
  8
0
  6
SLD-Durchgehend
 62
     8
370
     0
100
AcDbLine
 10
94.5810623206
 20
227.6735974511
 30
0.0
 11
90.0810624852
 21
227.6735974511
 31
0.0
  0
LWPOLYLINE
  5
1C8
330
1F
100
AcDbEntity
  8
0
  6
SLD-Durchgehend
 62
     8
370
     0
100
AcDbPolyline
 90
        9
 70
   128
 43
0.0
 10
90.3310625262
 20
228.1735984644
 10
90.2822896287
 20
228.163994666
 10
90.2353914834
 20
228.1355408987
 10
90.1921697341
 20
228.0893323978
 10
90.15428586
 20
228.0271498522
 10
90.1231950529
 20
227.9513848981
 10
90.1000926651
 20
227.864943262
 10
90.0858657814
 20
227.7711404523
 10
90.0810624852
 20
227.6735974511
  0
LINE
  5
1C9
330
1F
100
AcDbEntity
  8
0
  6
SLD-Durchgehend
 62
     8
370
     0
100
AcDbLine
 10
90.0810624852
 20
227.6735974511
 30
0.0
 11
90.0810624852
 21
225.6736008486
 31
0.0
  0
LINE
  5
1CA
330
1F
100
AcDbEntity
  8
0
  6
SLD-Durchgehend
 62
     8
370
     0
100
AcDbLine
 10
99.5810621798
 20
227.6735974511
 30
0.0
 11
95.0810623444
 21
227.6735974511
 31
0.0
  0
LINE
  5
1CB
330
1F
100
AcDbEntity
  8
0
  6
SLD-Durchgehend
 62
     8
370
     0
100
AcDbLine
 10
99.5810621798
 20
225.6736008486
 30
0.0
 11
99.5810621798
 21
227.6735974511
 31
0.0
  0
LWPOLYLINE
  5
1CC
330
1F
100
AcDbEntity
  8
0
  6
SLD-Durchgehend
 62
     8
370
     0
100
AcDbPolyline
 90
        9
 70
   128
 43
0.0
 10
99.3310621388
 20
228.1735984644
 10
99.3798350364
 20
228.163994666
 10
99.4267331816
 20
228.1355408987
 10
99.469954931
 20
228.0893323978
 10
99.507838805
 20
228.0271498522
 10
99.5389296122
 20
227.9513848981
 10
99.5620319999
 20
227.864943262
 10
99.5762588836
 20
227.7711404523
 10
99.5810621798
 20
227.6735974511
  0
LINE
  5
1CD
330
1F
100
AcDbEntity
  8
0
  6
SLD-Durchgehend
 62
     8
370
     0
100
AcDbLine
 10
90.0810624852
 20
225.6736008486
 30
0.0
 11
89.8310624443
 21
225.6736008486
 31
0.0
  0
LINE
  5
1CE
330
1F
100
AcDbEntity
  8
0
  6
SLD-Durchgehend
 62
     8
370
     0
100
AcDbLine
 10
99.5810621798
 20
225.6736008486
 30
0.0
 11
99.8310622208
 21
225.6736008486
 31
0.0
  0
LINE
  5
1CF
330
1F
100
AcDbEntity
  8
0
  6
SLD-Durchgehend
 62
     8
370
     0
100
AcDbLine
 10
89.8310624443
 20
227.6735974511
 30
0.0
 11
90.0810624852
 21
227.6735974511
 31
0.0
  0
LINE
  5
1D0
330
1F
100
AcDbEntity
  8
0
  6
SLD-Durchgehend
 62
     8
370
     0
100
AcDbLine
 10
99.8310622208
 20
227.6735974511
 30
0.0
 11
99.5810621798
 21
227.6735974511
 31
0.0
  0
INSERT
  5
1D1
330
1F
100
AcDbEntity
  8
0
  6
Continuous
 62
     7
100
AcDbBlockReference
  2
Block1
 10
94.63904871
 20
241.5112936807
 30
0.0
 50
270.0
  0
INSERT
  5
1D2
330
1F
100
AcDbEntity
  8
0
  6
Continuous
 62
     7
100
AcDbBlockReference
  2
Block1
 10
132.261900919
 20
151.1949543189
 30
0.0
  0
HATCH
  5
1D3
330
1F
100
AcDbEntity
  8
0
  6
SLD-Durchgehend
 62
     7
370
     0
100
AcDbHatch
 10
0.0
 20
0.0
 30
0.0
210
0.0
220
0.0
230
1.0
  2
ANSI31
 70
     0
 71
     0
 91
        1
 92
        0
 93
       11
 72
     1
 10
88.68106233250927
 20
103.4235984643689
 11
88.68106233250931
 21
115.9235984643689
 72
     1
 10
88.68106233250931
 20
115.9235984643689
 11
92.08106233250932
 21
117.9665245690626
 72
     1
 10
92.08106233250932
 20
117.9665245690626
 11
95.48106233250931
 21
115.9235984643689
 72
     1
 10
95.48106233250931
 20
115.9235984643689
 11
95.48106233250927
 21
103.4235984643689
 72
     1
 10
95.48106233250927
 20
103.4235984643689
 11
97.08106233250926
 21
103.4235984643689
 72
     1
 10
97.08106233250926
 20
103.4235984643689
 11
97.08106233250928
 21
107.9235984643689
 72
     1
 10
97.08106233250928
 20
107.9235984643689
 11
98.58106233250928
 21
108.6230599516013
 72
     1
 10
98.58106233250928
 20
108.6230599516013
 11
100.0810623325093
 21
107.9235984643689
 72
     1
 10
100.0810623325093
 20
107.9235984643689
 11
100.0810623511962
 21
106.0964633872399
 72
     4
 94
        3
 73
     1
 74
     0
 95
       12
 96
        8
 40
0.2675083616007177
 40
0.2675083616007177
 40
0.2675083616007177
 40
0.2675083616007177
 40
0.3267319159987685
 40
0.5288882645362161
 40
0.6667484609971068
 40
0.8206847719883363
 40
0.9473310708959676
 40
0.9473310708959676
 40
0.9473310708959676
 40
0.9473310708959676
 10
100.081062351197
 20
106.0964633872425
 42
1.0
 10
100.3730718078112
 20
107.0485753227742
 42
1.0
 10
100.9556653026312
 20
111.5382242346978
 42
1.0
 10
97.74534915759395
 20
118.5877488833771
 42
1.0
 10
87.02840611678536
 20
118.8706084278657
 42
1.0
 10
87.3841792172331
 20
110.7741838138634
 42
1.0
 10
87.06267579957746
 20
105.2215005362772
 42
1.0
 10
87.68189424499731
 20
103.4235984838646
 42
1.0
 72
     1
 10
87.6818942450018
 20
103.4235984838516
 11
88.68106233250927
 21
103.4235984643689
 97
        0
 75
     0
 76
     1
 52
0.0
 41
1.0
 77
     0
 78
     1
 53
45.0
 43
0.0
 44
0.0
 45
-2.245064030267288
 46
2.245064030267288
 79
     0
 98
        1
 10
0.0
 20
0.0
  0
DIMENSION
  5
1D4
330
1F
100
AcDbEntity
  8
0
  6
SLD-Durchgehend
 62
     7
370
     0
100
AcDbDimension
  2
_D
 10
118.1394866713
 20
103.1735984644
 30
0.0
 11
118.1394866713
 21
107.4001685998
 31
0.0
 70
   160
  1
<>
 71
     2
 42
-1.0
  3
SLDDIMSTYLE0
100
AcDbAlignedDimension
 13
103.7087027848
 23
113.1735984644
 33
0.0
 14
103.7087027848
 24
103.1735984644
 34
0.0
 50
90.0
100
AcDbRotatedDimension
  0
DIMENSION
  5
1DF
330
1F
100
AcDbEntity
  8
0
  6
SLD-Durchgehend
 62
     7
370
     0
100
AcDbDimension
  2
_D_1
 10
62.7229362963
 20
103.1735984644
 30
0.0
 11
62.7229362963
 21
149.7907917965
 31
0.0
 70
   160
  1
<>
 71
     2
 42
-1.0
  3
SLDDIMSTYLE1
100
AcDbAlignedDimension
 13
82.0810623325
 23
200.6735984644
 33
0.0
 14
85.9534218802
 24
103.1735984644
 34
0.0
 50
90.0
100
AcDbRotatedDimension
  0
DIMENSION
  5
1EA
330
1F
100
AcDbEntity
  8
0
  6
SLD-Durchgehend
 62
     7
370
     0
100
AcDbDimension
  2
_D_2
 10
72.5169851353
 20
114.4235984644
 30
0.0
 11
72.5169851353
 21
108.8832278129
 31
0.0
 70
   160
  1
<>
 71
     2
 42
-1.0
  3
SLDDIMSTYLE2
100
AcDbAlignedDimension
 13
83.0010623325
 23
103.1735984644
 33
0.0
 14
88.0810623325
 24
114.4235984644
 34
0.0
 50
90.0
100
AcDbRotatedDimension
  0
DIMENSION
  5
1F5
330
1F
100
AcDbEntity
  8
0
  6
SLD-Durchgehend
 62
     7
370
     0
100
AcDbDimension
  2
_D_3
 10
50.0810623325
 20
103.1735984644
 30
0.0
 11
50.0810623325
 21
152.8935319362
 31
0.0
 70
   160
  1
<>
 71
     2
 42
-1.0
  3
SLDDIMSTYLE2
100
AcDbAlignedDimension
 13
90.3310623325
 23
228.1735984644
 33
0.0
 14
81.0810623325
 24
103.1735984644
 34
0.0
 50
90.0
100
AcDbRotatedDimension
  0
DIMENSION
  5
1FF
330
1F
100
AcDbEntity
  8
0
  6
SLD-Durchgehend
 62
     7
370
     0
100
AcDbDimension
  2
_D_4
 10
92.0810623325
 20
86.1735984644
 30
0.0
 11
99.5610051527
 21
86.1735984644
 31
0.0
 70
   160
  1
<>
 71
     2
 42
-1.0
  3
SLDDIMSTYLE0
100
AcDbAlignedDimension
 13
108.5810623325
 23
103.1735984644
 33
0.0
 14
92.0810623325
 24
101.4235984644
 34
0.0
 50
0.0
100
AcDbRotatedDimension
  0
DIMENSION
  5
209
330
1F
100
AcDbEntity
  8
0
  6
SLD-Durchgehend
 62
     7
370
     0
100
AcDbDimension
  2
_D_5
 10
88.0810623325
 20
95.3860458763
 30
0.0
 11
91.6594364593
 21
95.3860458763
 31
0.0
 70
   160
  1
M<>
 71
     2
 42
-1.0
  3
SLDDIMSTYLE3
100
AcDbAlignedDimension
 13
96.0810623325
 23
103.4235984644
 33
0.0
 14
88.0810623325
 24
103.4235984644
 34
0.0
 50
0.0
100
AcDbRotatedDimension
  0
DIMENSION
  5
217
330
1F
100
AcDbEntity
  8
0
  6
SLD-Durchgehend
 62
     7
370
     0
100
AcDbDimension
  2
_D_6
 10
81.0810623325
 20
75.799346366
 30
0.0
 11
91.6594364593
 21
75.799346366
 31
0.0
 70
   160
  1
%%c<>
 71
     2
 42
-1.0
  3
SLDDIMSTYLE0
100
AcDbAlignedDimension
 13
108.5810623325
 23
103.1735984644
 33
0.0
 14
81.0810623325
 24
103.1735984644
 34
0.0
 50
0.0
100
AcDbRotatedDimension
  0
DIMENSION
  5
222
330
1F
100
AcDbEntity
  8
0
  6
SLD-Durchgehend
 62
     7
370
     0
100
AcDbDimension
  2
_D_7
 10
128.3587721079
 20
103.1735984644
 30
0.0
 11
128.3587721079
 21
128.3860453289
 31
0.0
 70
   160
  1
<>
 71
     2
 42
-1.0
  3
SLDDIMSTYLE0
100
AcDbAlignedDimension
 13
107.3976714285
 23
151.1735984644
 33
0.0
 14
108.5810623325
 24
103.1735984644
 34
0.0
 50
90.0
100
AcDbRotatedDimension
  0
INSERT
  5
233
330
1F
100
AcDbEntity
  8
0
  6
Continuous
 62
     7
370
     0
100
AcDbBlockReference
  2
SW_NOTE_3
 10
122.6540084388
 20
163.3966244726
 30
0.0
  0
LEADER
  5
235
330
1F
100
AcDbEntity
  8
0
  6
Continuous
 62
     7
370
     0
100
AcDbLeader
  3
SLDDIMSTYLE4
 76
     2
 10
107.0810623325
 20
151.1949543189
 30
0.0
 10
122.6540084388
 20
163.3966244726
 30
0.0
  0
INSERT
  5
23D
330
1F
100
AcDbEntity
  8
0
  6
Continuous
 62
     7
370
     0
100
AcDbBlockReference
  2
SW_NOTE_4
 10
114.4261603376
 20
214.6624472574
 30
0.0
  0
LEADER
  5
23E
330
1F
100
AcDbEntity
  8
0
  6
Continuous
 62
     7
370
     0
100
AcDbLeader
  3
SLDDIMSTYLE4
 76
     2
 10
94.6936183491
 20
201.1735984644
 30
0.0
 10
114.4261603376
 20
214.6624472574
 30
0.0
  0
LINE
  5
23F
330
1F
100
AcDbEntity
  8
0
  6
SLD-Durchgehend
 62
     7
370
     0
100
AcDbLine
 10
88.0810621574
 20
103.4235984762
 30
0.0
 11
88.0810621574
 21
114.4235989114
 31
0.0
  0
LINE
  5
240
330
1F
100
AcDbEntity
  8
0
  6
SLD-Durchgehend
 62
     7
370
     0
100
AcDbLine
 10
96.0810623046
 20
114.4235989114
 30
0.0
 11
96.0810623046
 21
103.4235984762
 31
0.0
  0
LINE
  5
241
330
1F
100
AcDbEntity
  8
0
  6
SLD-Durchgehend
 62
     7
370
     0
100
AcDbLine
 10
95.4810623343
 20
114.4235989114
 30
0.0
 11
96.0810623046
 21
114.4235989114
 31
0.0
  0
LINE
  5
242
330
1F
100
AcDbEntity
  8
0
  6
SLD-Durchgehend
 62
     7
370
     0
100
AcDbLine
 10
88.0810621574
 20
114.4235989114
 30
0.0
 11
88.6810625352
 21
114.4235989114
 31
0.0
  0
LINE
  5
243
330
1F
100
AcDbEntity
  8
0
  6
SLD-Durchgehend
 62
     7
370
     0
100
AcDbLine
 10
95.4810380936
 20
114.4235989114
 30
0.0
 11
88.6810625352
 21
114.4235989114
 31
0.0
  0
LINE
  5
244
330
1F
100
AcDbEntity
  8
0
  6
SLD-Punktstrich
 62
     7
370
     0
100
AcDbLine
 10
92.0810623325
 20
117.9235984644
 30
0.0
 11
92.0810623325
 21
101.4235984644
 31
0.0
  0
LINE
  5
245
330
1F
100
AcDbEntity
  8
0
  6
SLD-Punktstrich
 62
     7
370
     0
100
AcDbLine
 10
94.8310623325
 20
101.1735984644
 30
0.0
 11
94.8310623325
 21
219.5349127642
 31
0.0
  0
ARC
  5
246
330
1F
100
AcDbEntity
  8
0
  6
SLD-Durchgehend
 62
     7
370
    15
100
AcDbCircle
 10
107.8810623325
 20
260.3113627864
 30
0.0
 40
0.2000000000000028
100
AcDbArc
 50
270.0
 51
0.0
  0
ARC
  5
247
330
1F
100
AcDbEntity
  8
0
  6
SLD-Durchgehend
 62
     7
370
    15
100
AcDbCircle
 10
107.8810623325
 20
270.7113627864
 30
0.0
 40
0.2000000000000028
100
AcDbArc
 50
0.0
 51
90.0
  0
ARC
  5
248
330
1F
100
AcDbEntity
  8
0
  6
SLD-Durchgehend
 62
     7
370
    15
100
AcDbCircle
 10
107.7810623325
 20
270.7113627864
 30
0.0
 40
0.2000000000000028
100
AcDbArc
 50
90.0
 51
180.0
  0
ARC
  5
249
330
1F
100
AcDbEntity
  8
0
  6
SLD-Durchgehend
 62
     7
370
    15
100
AcDbCircle
 10
107.7810623325
 20
260.3113627864
 30
0.0
 40
0.2000000000000028
100
AcDbArc
 50
180.0
 51
270.0
  0
LINE
  5
24A
330
1F
100
AcDbEntity
  8
0
  6
SLD-Durchgehend
 62
     7
370
    15
100
AcDbLine
 10
107.7810626857
 20
260.1113626464
 30
0.0
 11
107.8810625158
 21
260.1113626464
 31
0.0
  0
LINE
  5
24B
330
1F
100
AcDbEntity
  8
0
  6
SLD-Durchgehend
 62
     7
370
    15
100
AcDbLine
 10
107.8810625158
 20
270.9113629265
 30
0.0
 11
107.7810626857
 21
270.9113629265
 31
0.0
  0
LINE
  5
24C
330
1F
100
AcDbEntity
  8
0
  6
SLD-Durchgehend
 62
     7
370
    15
100
AcDbLine
 10
108.081062176
 20
270.7113623349
 30
0.0
 11
108.081062176
 21
269.1855975157
 31
0.0
  0
LINE
  5
24D
330
1F
100
AcDbEntity
  8
0
  6
SLD-Durchgehend
 62
     7
370
    15
100
AcDbLine
 10
108.081062176
 20
261.8371280572
 30
0.0
 11
108.081062176
 21
260.3113627723
 31
0.0
  0
LINE
  5
24E
330
1F
100
AcDbEntity
  8
0
  6
SLD-Durchgehend
 62
     7
370
    15
100
AcDbLine
 10
107.5810620941
 20
260.311363238
 30
0.0
 11
107.5810620941
 21
260.3635475701
 31
0.0
  0
LINE
  5
24F
330
1F
100
AcDbEntity
  8
0
  6
SLD-Durchgehend
 62
     7
370
    15
100
AcDbLine
 10
107.5810620941
 20
270.6591780028
 30
0.0
 11
107.5810620941
 21
270.7113628006
 31
0.0
  0
CIRCLE
  5
250
330
1F
100
AcDbEntity
  8
0
  6
SLD-Durchgehend
 62
     7
370
    15
100
AcDbCircle
 10
92.0810623325
 20
265.5113627864
 30
0.0
 40
3.399999999999977
  0
CIRCLE
  5
251
330
1F
100
AcDbEntity
  8
0
  6
SLD-Durchgehend
 62
     7
370
    15
100
AcDbCircle
 10
85.5810623325
 20
265.5113627864
 30
0.0
 40
1.5
  0
CIRCLE
  5
252
330
1F
100
AcDbEntity
  8
0
  6
SLD-Durchgehend
 62
     7
370
    15
100
AcDbCircle
 10
98.5810623325
 20
265.5113627864
 30
0.0
 40
1.5
  0
LINE
  5
253
330
1F
100
AcDbEntity
  8
0
  6
SLD-Durchgehend
 62
     7
370
    15
100
AcDbLine
 10
85.9534217424
 20
255.011362928
 30
0.0
 11
103.7087029226
 21
255.011362928
 31
0.0
  0
LINE
  5
254
330
1F
100
AcDbEntity
  8
0
  6
SLD-Durchgehend
 62
     7
370
    15
100
AcDbLine
 10
103.7087029226
 20
276.0113626449
 30
0.0
 11
85.9534217424
 21
276.0113626449
 31
0.0
  0
CIRCLE
  5
255
330
1F
100
AcDbEntity
  8
0
  6
SLD-Durchgehend
 62
     7
370
    15
100
AcDbCircle
 10
92.0810623325
 20
265.5113627864
 30
0.0
 40
9.079999999999998
  0
ARC
  5
256
330
1F
100
AcDbEntity
  8
0
  6
SLD-Durchgehend
 62
     7
370
    15
100
AcDbCircle
 10
94.8310623325
 20
265.5113627864
 30
0.0
 40
13.75
100
AcDbArc
 50
310.2141710174
 51
49.7858289826
  0
ARC
  5
257
330
1F
100
AcDbEntity
  8
0
  6
SLD-Durchgehend
 62
     7
370
    15
100
AcDbCircle
 10
94.8310623325
 20
265.5113627864
 30
0.0
 40
13.74999999999999
100
AcDbArc
 50
130.2141710174
 51
229.7858289826
  0
ARC
  5
258
330
1F
100
AcDbEntity
  8
0
  6
SLD-Durchgehend
 62
     7
370
    15
100
AcDbCircle
 10
94.8310623325
 20
265.5113627864
 30
0.0
 40
13.75
100
AcDbArc
 50
229.7858289826
 51
310.2141710174
  0
ARC
  5
259
330
1F
100
AcDbEntity
  8
0
  6
SLD-Durchgehend
 62
     7
370
    15
100
AcDbCircle
 10
94.8310623325
 20
265.5113627864
 30
0.0
 40
13.75
100
AcDbArc
 50
49.7858289826
 51
130.2141710174
  0
ARC
  5
25A
330
1F
100
AcDbEntity
  8
0
  6
SLD-Durchgehend
 62
     7
370
    15
100
AcDbCircle
 10
94.8310623325
 20
265.5113627864
 30
0.0
 40
13.75000000000003
100
AcDbArc
 50
270.0
 51
310.2141710174
  0
LINE
  5
25B
330
1F
100
AcDbEntity
  8
0
  6
SLD-Durchgehend
 62
     8
370
     0
100
AcDbLine
 10
107.8810625158
 20
260.1113626464
 30
0.0
 11
107.8810625158
 21
261.1800813778
 31
0.0
  0
LINE
  5
25C
330
1F
100
AcDbEntity
  8
0
  6
SLD-Durchgehend
 62
     8
370
     0
100
AcDbLine
 10
107.8810625158
 20
269.8426441951
 30
0.0
 11
107.8810625158
 21
270.9113629265
 31
0.0
  0
LINE
  5
25D
330
1F
100
AcDbEntity
  8
0
  6
SLD-Durchgehend
 62
     8
370
     0
100
AcDbLine
 10
107.7810626857
 20
270.9113629265
 30
0.0
 11
107.7810626857
 21
270.1330505973
 31
0.0
  0
LINE
  5
25E
330
1F
100
AcDbEntity
  8
0
  6
SLD-Durchgehend
 62
     8
370
     0
100
AcDbLine
 10
107.7810626857
 20
260.8896749756
 30
0.0
 11
107.7810626857
 21
260.1113626464
 31
0.0
  0
DIMENSION
  5
25F
330
1F
100
AcDbEntity
  8
0
  6
SLD-Durchgehend
 62
     7
370
     0
100
AcDbDimension
  2
_D_8
 10
98.5810623325
 20
284.0322956453
 30
0.0
 11
90.795500797
 21
284.0322956453
 31
0.0
 70
   160
  1
<>
 71
     2
 42
-1.0
  3
SLDDIMSTYLE0
100
AcDbAlignedDimension
 13
85.5810623325
 23
268.0113627864
 33
0.0
 14
98.5810623325
 24
268.0113627864
 34
0.0
100
AcDbRotatedDimension
  0
DIMENSION
  5
269
330
1F
100
AcDbEntity
  8
0
  6
SLD-Durchgehend
 62
     7
370
     0
100
AcDbDimension
  2
_D_9
 10
74.9935179687
 20
264.0113627864
 30
0.0
 11
74.9935179687
 21
265.3194212434
 31
0.0
 70
   160
  1
%%c<>
 71
     2
 42
-1.0
  3
SLDDIMSTYLE3
100
AcDbAlignedDimension
 13
85.5810623325
 23
267.0113627864
 33
0.0
 14
85.5810623325
 24
264.0113627864
 34
0.0
 50
90.0
100
AcDbRotatedDimension
  0
DIMENSION
  5
276
330
1F
100
AcDbEntity
  8
0
  6
SLD-Durchgehend
 62
     7
370
     0
100
AcDbDimension
  2
_D_10
 10
65.6370807678
 20
255.0113627864
 30
0.0
 11
65.6370807678
 21
264.4184309944
 31
0.0
 70
   160
  1
SW<>
 71
     2
 42
-1.0
  3
SLDDIMSTYLE0
100
AcDbAlignedDimension
 13
85.9534218802
 23
276.0113627864
 33
0.0
 14
85.9534218802
 24
255.0113627864
 34
0.0
 50
90.0
100
AcDbRotatedDimension
  0
INSERT
  5
28C
330
1F
100
AcDbEntity
  8
0
  6
SLD-Durchgehend
 62
     7
370
     0
100
AcDbBlockReference
  2
SW_CENTERMARKSYMBOL_0
 10
98.5810623325
 20
265.5113627864
 30
0.0
  0
INSERT
  5
298
330
1F
100
AcDbEntity
  8
0
  6
SLD-Durchgehend
 62
     7
370
     0
100
AcDbBlockReference
  2
SW_CENTERMARKSYMBOL_1
 10
85.5810623325
 20
265.5113627864
 30
0.0
  0
INSERT
  5
2A4
330
1F
100
AcDbEntity
  8
0
  6
SLD-Durchgehend
 62
     7
370
     0
100
AcDbBlockReference
  2
SW_CENTERMARKSYMBOL_2
 10
92.0810623325
 20
265.5113627864
 30
0.0
  0
INSERT
  5
2B0
330
1F
100
AcDbEntity
  8
0
  6
SLD-Durchgehend
 62
     7
370
     0
100
AcDbBlockReference
  2
SW_CENTERMARKSYMBOL_3
 10
94.8310623325
 20
265.5113627864
 30
0.0
  0
LINE
  5
2B1
330
1F
100
AcDbEntity
  8
0
  6
SLD-Durchgehend
 62
     7
370
    15
100
AcDbLine
 10
172.6659611452
 20
73.9287969037
 30
0.0
 11
172.6659611452
 21
73.9859412933
 31
0.0
  0
LINE
  5
2B2
330
1F
100
AcDbEntity
  8
0
  6
SLD-Durchgehend
 62
     7
370
    15
100
AcDbLine
 10
165.4659614657
 20
73.9859411585
 30
0.0
 11
165.4659614657
 21
73.9287967689
 31
0.0
  0
LINE
  5
2B3
330
1F
100
AcDbEntity
  8
0
  6
SLD-Durchgehend
 62
     7
370
    15
100
AcDbLine
 10
185.6450251529
 20
71.4528440728
 30
0.0
 11
180.2672739469
 21
72.9144016193
 31
0.0
  0
LINE
  5
2B4
330
1F
100
AcDbEntity
  8
0
  6
SLD-Durchgehend
 62
     7
370
    15
100
AcDbLine
 10
187.9896810919
 20
70.8156168285
 30
0.0
 11
185.8355628709
 21
71.4010600038
 31
0.0
  0
LINE
  5
2B5
330
1F
100
AcDbEntity
  8
0
  6
SLD-Durchgehend
 62
     7
370
    15
100
AcDbLine
 10
188.8328599694
 20
70.5864588767
 30
0.0
 11
188.1257451027
 21
70.7786375459
 31
0.0
  0
LINE
  5
2B6
330
1F
100
AcDbEntity
  8
0
  6
SLD-Durchgehend
 62
     7
370
    15
100
AcDbLine
 10
181.6553288763
 20
53.6769724817
 30
0.0
 11
184.0596334203
 21
53.0235340246
 31
0.0
  0
LINE
  5
2B7
330
1F
100
AcDbEntity
  8
0
  6
SLD-Durchgehend
 62
     7
370
    15
100
AcDbLine
 10
180.3799208295
 20
54.0236010601
 30
0.0
 11
180.9764815596
 21
53.8614686364
 31
0.0
  0
LINE
  5
2B8
330
1F
100
AcDbEntity
  8
0
  6
SLD-Durchgehend
 62
     7
370
    15
100
AcDbLine
 10
179.1126342533
 20
54.3680223969
 30
0.0
 11
179.6107093851
 21
54.2326562485
 31
0.0
  0
LINE
  5
2B9
330
1F
100
AcDbEntity
  8
0
  6
SLD-Durchgehend
 62
     7
370
    15
100
AcDbLine
 10
175.4940473977
 20
55.3514767673
 30
0.0
 11
178.1937702983
 21
54.6177499309
 31
0.0
  0
LINE
  5
2BA
330
1F
100
AcDbEntity
  8
0
  6
SLD-Durchgehend
 62
     7
370
    15
100
AcDbLine
 10
186.4495939812
 20
69.1784002437
 30
0.0
 11
186.4469788191
 21
69.3027480763
 31
0.0
  0
LINE
  5
2BB
330
1F
100
AcDbEntity
  8
0
  6
SLD-Durchgehend
 62
     7
370
    15
100
AcDbLine
 10
177.9976982039
 20
72.0048761327
 30
0.0
 11
177.9976982039
 21
71.8890764391
 31
0.0
  0
LINE
  5
2BC
330
1F
100
AcDbEntity
  8
0
  6
SLD-Durchgehend
 62
     7
370
    15
100
AcDbLine
 10
188.1257451027
 20
70.7786375459
 30
0.0
 11
187.9896810919
 21
70.8156168285
 31
0.0
  0
LINE
  5
2BD
330
1F
100
AcDbEntity
  8
0
  6
SLD-Durchgehend
 62
     7
370
    15
100
AcDbLine
 10
180.9764815596
 20
53.8614686364
 30
0.0
 11
181.6553288763
 21
53.6769724817
 31
0.0
  0
LINE
  5
2BE
330
1F
100
AcDbEntity
  8
0
  6
SLD-Durchgehend
 62
     7
370
    15
100
AcDbLine
 10
179.6107093851
 20
54.2326562485
 30
0.0
 11
180.3799208295
 21
54.0236010601
 31
0.0
  0
LINE
  5
2BF
330
1F
100
AcDbEntity
  8
0
  6
SLD-Durchgehend
 62
     7
370
    15
100
AcDbLine
 10
178.1937702983
 20
54.6177499309
 30
0.0
 11
179.1126342533
 21
54.3680223969
 31
0.0
  0
LINE
  5
2C0
330
1F
100
AcDbEntity
  8
0
  6
SLD-Durchgehend
 62
     7
370
    15
100
AcDbLine
 10
185.8355628709
 20
71.4010600038
 30
0.0
 11
185.6450251529
 21
71.4528440728
 31
0.0
  0
LINE
  5
2C1
330
1F
100
AcDbEntity
  8
0
  6
SLD-Durchgehend
 62
     7
370
    15
100
AcDbLine
 10
129.4429578459
 20
82.6513506792
 30
0.0
 11
127.0845091348
 21
83.2923265034
 31
0.0
  0
LINE
  5
2C2
330
1F
100
AcDbEntity
  8
0
  6
SLD-Durchgehend
 62
     7
370
    15
100
AcDbLine
 10
132.980628716
 20
81.6898875398
 30
0.0
 11
130.6221800049
 21
82.330863364
 31
0.0
  0
LINE
  5
2C3
330
1F
100
AcDbEntity
  8
0
  6
SLD-Durchgehend
 62
     7
370
    15
100
AcDbLine
 10
136.518303979
 20
80.7284232065
 30
0.0
 11
134.159855268
 21
81.3693990308
 31
0.0
  0
LINE
  5
2C4
330
1F
100
AcDbEntity
  8
0
  6
SLD-Durchgehend
 62
     7
370
    15
100
AcDbLine
 10
138.6296754791
 20
80.154597674
 30
0.0
 11
137.6975261381
 21
80.4079358914
 31
0.0
  0
LINE
  5
2C5
330
1F
100
AcDbEntity
  8
0
  6
SLD-Durchgehend
 62
     7
370
    15
100
AcDbLine
 10
124.3744354255
 20
73.3207029636
 30
0.0
 11
135.9196017698
 21
70.1829741342
 31
0.0
  0
LINE
  5
2C6
330
1F
100
AcDbEntity
  8
0
  6
SLD-Durchgehend
 62
     7
370
    15
100
AcDbLine
 10
136.7104223238
 20
80.158072546
 30
0.0
 11
136.3871713194
 21
80.2459252426
 31
0.0
  0
LINE
  5
2C7
330
1F
100
AcDbEntity
  8
0
  6
SLD-Durchgehend
 62
     7
370
    15
100
AcDbLine
 10
133.1727470607
 20
81.1195368793
 30
0.0
 11
132.8494960564
 21
81.2073895759
 31
0.0
  0
LINE
  5
2C8
330
1F
100
AcDbEntity
  8
0
  6
SLD-Durchgehend
 62
     7
370
    15
100
AcDbLine
 10
129.6350761906
 20
82.0810000187
 30
0.0
 11
129.3118251863
 21
82.1688527153
 31
0.0
  0
LINE
  5
2C9
330
1F
100
AcDbEntity
  8
0
  6
SLD-Durchgehend
 62
     7
370
    15
100
AcDbLine
 10
123.1450755912
 20
76.2176706778
 30
0.0
 11
123.1404458368
 21
76.1048874871
 31
0.0
  0
SPLINE
  5
2CA
330
1F
100
AcDbEntity
  8
0
  6
SLD-Durchgehend
 62
     7
370
    15
100
AcDbSpline
210
0.0
220
0.0
230
1.0
 70
     8
 71
     3
 72
    12
 73
     8
 74
     0
 42
0.000000001
 43
0.00000001
 40
0.0
 40
0.0
 40
0.0
 40
0.0
 40
0.0602167698883226
 40
0.3061211193455832
 40
0.5521155413945193
 40
0.7984610246173819
 40
1.0
 40
1.0
 40
1.0
 40
1.0
 10
123.6621744328795
 20
79.29847159533358
 30
0.0
 10
123.6416801920821
 20
79.23689695706743
 30
0.0
 10
123.5374945981906
 20
78.92387290705122
 30
0.0
 10
123.3961519859451
 20
78.33633541012809
 30
0.0
 10
123.2484739199003
 20
77.56060512516247
 30
0.0
 10
123.1612153949219
 20
76.8430480271921
 30
0.0
 10
123.1500843410368
 20
76.4117473057952
 30
0.0
 10
123.1450755912314
 20
76.21767067776761
 30
0.0
  0
SPLINE
  5
2CB
330
1F
100
AcDbEntity
  8
0
  6
SLD-Durchgehend
 62
     7
370
    15
100
AcDbSpline
210
0.0
220
0.0
230
1.0
 70
     8
 71
     3
 72
    17
 73
    13
 74
     0
 42
0.000000001
 43
0.00000001
 40
0.0
 40
0.0
 40
0.0
 40
0.0
 40
0.0610608322869432
 40
0.1569690530580161
 40
0.2569946208559845
 40
0.3641047694134469
 40
0.4754779317578869
 40
0.5871046958299367
 40
0.6978710312458549
 40
0.8079053176722588
 40
0.9174562708643079
 40
0.9999999999999999
 40
0.9999999999999999
 40
0.9999999999999999
 40
0.9999999999999999
 10
126.9956040486315
 20
83.29743054981014
 30
0.0
 10
126.9178051482566
 20
83.31299068268672
 30
0.0
 10
126.7178075513779
 20
83.35299110900932
 30
0.0
 10
126.3780566196208
 20
83.27849535702379
 30
0.0
 10
125.9934207415288
 20
83.10168818328971
 30
0.0
 10
125.6006867180606
 20
82.80464653952207
 30
0.0
 10
125.2062132225183
 20
82.3928397622557
 30
0.0
 10
124.8230225562405
 20
81.87600225259857
 30
0.0
 10
124.4626430170014
 20
81.27364062719194
 30
0.0
 10
124.1347572771396
 20
80.60132999464524
 30
0.0
 10
123.8625512249237
 20
79.93787808967791
 30
0.0
 10
123.7223985201055
 20
79.49064790525149
 30
0.0
 10
123.6621744328795
 20
79.29847159533358
 30
0.0
  0
SPLINE
  5
2CC
330
1F
100
AcDbEntity
  8
0
  6
SLD-Durchgehend
 62
     7
370
    15
100
AcDbSpline
210
0.0
220
0.0
230
1.0
 70
     8
 71
     3
 72
    14
 73
    10
 74
     0
 42
0.000000001
 43
0.00000001
 40
0.0
 40
0.0
 40
0.0
 40
0.0
 40
0.064798171024817
 40
0.231691250133036
 40
0.40003030367382
 40
0.5703708740843081
 40
0.7241037298108179
 40
0.8675595567479245
 40
0.9999999999999999
 40
0.9999999999999999
 40
0.9999999999999999
 40
0.9999999999999999
 10
123.1426033144163
 20
76.01354397531071
 30
0.0
 10
123.144019448142
 20
75.92372677280738
 30
0.0
 10
123.1490829520658
 20
75.60257789464731
 30
0.0
 10
123.2035384699115
 20
75.09266049136873
 30
0.0
 10
123.3312693909732
 20
74.5214634284518
 30
0.0
 10
123.5217737645008
 20
74.05122276341595
 30
0.0
 10
123.7677831311401
 20
73.69254009920621
 30
0.0
 10
124.0535264468224
 20
73.43683625940997
 30
0.0
 10
124.2781504588365
 20
73.35780525765485
 30
0.0
 10
124.3859783163708
 20
73.31986744538963
 30
0.0
  0
LINE
  5
2CD
330
1F
100
AcDbEntity
  8
0
  6
SLD-Durchgehend
 62
     7
370
    15
100
AcDbLine
 10
123.1404458368
 20
76.1048874871
 30
0.0
 11
123.1426033144
 21
76.0135439753
 31
0.0
  0
LINE
  5
2CE
330
1F
100
AcDbEntity
  8
0
  6
SLD-Durchgehend
 62
     7
370
    15
100
AcDbLine
 10
122.8282069076
 20
80.6477414878
 30
0.0
 11
122.0198668084
 21
77.2872747709
 31
0.0
  0
ARC
  5
2CF
330
1F
100
AcDbEntity
  8
0
  6
SLD-Durchgehend
 62
     7
370
    15
100
AcDbCircle
 10
123.1522961223
 20
80.5697836246
 30
0.0
 40
0.3333333333333329
100
AcDbArc
 50
134.305033619
 51
166.4747984159
  0
LINE
  5
2D0
330
1F
100
AcDbEntity
  8
0
  6
SLD-Durchgehend
 62
     7
370
    15
100
AcDbLine
 10
124.5361504707
 20
82.3862569269
 30
0.0
 11
122.9194702723
 21
80.8083274917
 31
0.0
  0
ARC
  5
2D1
330
1F
100
AcDbEntity
  8
0
  6
SLD-Durchgehend
 62
     7
370
    15
100
AcDbCircle
 10
122.3439559971
 20
77.2093169794
 30
0.0
 40
0.3333333333333309
100
AcDbArc
 50
166.4747984159
 51
204.3932128691
  0
LINE
  5
2D2
330
1F
100
AcDbEntity
  8
0
  6
SLD-Durchgehend
 62
     7
370
    15
100
AcDbLine
 10
122.0403797576
 20
77.0716511314
 30
0.0
 11
122.8487198568
 21
75.2891138663
 31
0.0
  0
LINE
  5
2D3
330
1F
100
AcDbEntity
  8
0
  6
SLD-Durchgehend
 62
     7
370
    15
100
AcDbLine
 10
125.2073340831
 20
82.374001556
 30
0.0
 11
124.8563986932
 21
82.4693782753
 31
0.0
  0
LINE
  5
2D4
330
1F
100
AcDbEntity
  8
0
  6
SLD-Durchgehend
 62
     7
370
    15
100
AcDbLine
 10
123.064874997
 20
75.105114331
 30
0.0
 11
123.223104747
 21
75.0621108754
 31
0.0
  0
ARC
  5
2D5
330
1F
100
AcDbEntity
  8
0
  6
SLD-Durchgehend
 62
     7
370
    15
100
AcDbCircle
 10
124.7689763729
 20
82.1477131108
 30
0.0
 40
0.3333333333333349
100
AcDbArc
 50
74.7954868413
 51
134.305033619
  0
ARC
  5
2D6
330
1F
100
AcDbEntity
  8
0
  6
SLD-Durchgehend
 62
     7
370
    15
100
AcDbCircle
 10
123.1522961223
 20
75.4267798204
 30
0.0
 40
0.3333333333333311
100
AcDbArc
 50
204.3932128691
 51
254.7954868413
  0
LINE
  5
2D7
330
1F
100
AcDbEntity
  8
0
  6
SLD-Durchgehend
 62
     7
370
    15
100
AcDbLine
 10
154.6661145367
 20
79.9413325222
 30
0.0
 11
142.8738709814
 21
83.1462116433
 31
0.0
  0
LINE
  5
2D8
330
1F
100
AcDbEntity
  8
0
  6
SLD-Durchgehend
 62
     7
370
    15
100
AcDbLine
 10
138.0656758776
 20
65.4546218118
 30
0.0
 11
149.8579194328
 21
62.2497426907
 31
0.0
  0
LINE
  5
2D9
330
1F
100
AcDbEntity
  8
0
  6
SLD-Durchgehend
 62
     7
370
    15
100
AcDbLine
 10
141.0882172966
 20
82.6788676215
 30
0.0
 11
140.4536306607
 21
82.2297687338
 31
0.0
  0
LINE
  5
2DA
330
1F
100
AcDbEntity
  8
0
  6
SLD-Durchgehend
 62
     7
370
    15
100
AcDbLine
 10
136.4422540417
 20
67.4700453854
 30
0.0
 11
136.7622228568
 21
66.7615186266
 31
0.0
  0
LINE
  5
2DB
330
1F
100
AcDbEntity
  8
0
  6
SLD-Durchgehend
 62
     7
370
    15
100
AcDbLine
 10
199.7714378988
 20
67.6826721226
 30
0.0
 11
189.2763431114
 21
70.5350140031
 31
0.0
  0
LINE
  5
2DC
330
1F
100
AcDbEntity
  8
0
  6
SLD-Durchgehend
 62
     7
370
    15
100
AcDbLine
 10
184.4681480076
 20
52.8434241716
 30
0.0
 11
194.9632427949
 21
49.991082291
 31
0.0
  0
LINE
  5
2DD
330
1F
100
AcDbEntity
  8
0
  6
SLD-Durchgehend
 62
     7
370
    15
100
AcDbLine
 10
191.7086143397
 20
55.1059866774
 30
0.0
 11
191.7863970621
 21
55.181904999
 31
0.0
  0
LINE
  5
2DE
330
1F
100
AcDbEntity
  8
0
  6
SLD-Durchgehend
 62
     7
370
    15
100
AcDbLine
 10
191.7086143397
 20
53.9982626363
 30
0.0
 11
191.7863970621
 21
54.074180958
 31
0.0
  0
LINE
  5
2DF
330
1F
100
AcDbEntity
  8
0
  6
SLD-Durchgehend
 62
     7
370
    15
100
AcDbLine
 10
180.1373549052
 20
73.0187951727
 30
0.0
 11
171.4243688584
 21
75.3867980835
 31
0.0
  0
LINE
  5
2E0
330
1F
100
AcDbEntity
  8
0
  6
SLD-Durchgehend
 62
     7
370
    15
100
AcDbLine
 10
169.6992389061
 20
75.8556514395
 30
0.0
 11
154.8429967623
 21
79.8932597234
 31
0.0
  0
LINE
  5
2E1
330
1F
100
AcDbEntity
  8
0
  6
SLD-Durchgehend
 62
     7
370
    15
100
AcDbLine
 10
150.0348016585
 20
62.2016698919
 30
0.0
 11
175.3291598014
 21
55.3272053412
 31
0.0
  0
LWPOLYLINE
  5
2E2
330
1F
100
AcDbEntity
  8
0
  6
SLD-Durchgehend
 62
     7
370
    15
100
AcDbPolyline
 90
        7
 70
   128
 43
0.0
 10
170.7460636509
 20
75.6257739914
 10
171.3525880937
 20
75.4180190801
 10
171.8654957729
 20
75.151635475
 10
172.2637922612
 20
74.8375276431
 10
172.5311686361
 20
74.4885558001
 10
172.6566783896
 20
74.1190070945
 10
172.6659611452
 20
73.9859412933
  0
ARC
  5
2E3
330
1F
100
AcDbEntity
  8
0
  6
SLD-Durchgehend
 62
     7
370
    15
100
AcDbCircle
 10
166.9634564514
 20
73.8123230357
 30
0.0
 40
1.507525948308232
100
AcDbArc
 50
118.5501071286
 51
173.3867088126
  0
LWPOLYLINE
  5
2E4
330
1F
100
AcDbEntity
  8
0
  6
SLD-Durchgehend
 62
     7
370
    15
100
AcDbPolyline
 90
       10
 70
   128
 43
0.0
 10
170.6838375599
 20
75.6793281982
 10
170.0335427188
 20
75.8147394738
 10
169.3436336264
 20
75.879958796
 10
168.6423562024
 20
75.8723159872
 10
167.9584228845
 20
75.7921232076
 10
167.3198309854
 20
75.6426645421
 10
166.7527251231
 20
75.4300586756
 10
166.2803242536
 20
75.1630092121
 10
165.92196795
 20
74.8524493781
 10
165.9092850491
 20
74.83822319
  0
LWPOLYLINE
  5
2E5
330
1F
100
AcDbEntity
  8
0
  6
SLD-Durchgehend
 62
     7
370
    15
100
AcDbPolyline
 90
       17
 70
   128
 43
0.0
 10
165.6086746734
 20
73.968965987
 10
165.6511422621
 20
73.7925836859
 10
165.84128506
 20
73.4448453584
 10
166.16344657
 20
73.1239384262
 10
166.6044384139
 20
72.8430006606
 10
167.14620391
 20
72.6135344902
 10
167.7665634593
 20
72.4449340574
 10
168.4401214046
 20
72.3441013577
 10
169.1393027664
 20
72.3151644768
 10
169.8354803223
 20
72.3593086714
 10
170.5001533327
 20
72.4747263787
 10
171.1061089763
 20
72.656692871
 10
171.6285421836
 20
72.8977575293
 10
172.0460641854
 20
73.1880512448
 10
172.3415793058
 20
73.5156899659
 10
172.502989901
 20
73.8672599223
 10
172.5101534364
 20
73.8972524053
  0
LWPOLYLINE
  5
2E6
330
1F
100
AcDbEntity
  8
0
  6
SLD-Durchgehend
 62
     7
370
    15
100
AcDbPolyline
 90
       12
 70
   128
 43
0.0
 10
167.3858567634
 20
72.2889646677
 10
168.0611650603
 20
72.1483449067
 10
168.7776075192
 20
72.0806174861
 10
169.5058572985
 20
72.0885541815
 10
170.2160973213
 20
72.1718308353
 10
170.8792499069
 20
72.3270380162
 10
171.4681654448
 20
72.5478216284
 10
171.9587360031
 20
72.8251421124
 10
172.3308748263
 20
73.1476466774
 10
172.5693490658
 20
73.5021312516
 10
172.664392767
 20
73.8740839607
 10
172.6659611452
 20
73.9287969037
  0
LWPOLYLINE
  5
2E7
330
1F
100
AcDbEntity
  8
0
  6
SLD-Durchgehend
 62
     7
370
    15
100
AcDbPolyline
 90
        7
 70
   128
 43
0.0
 10
165.4659614657
 20
73.9287967689
 10
165.4752442213
 20
73.7957309677
 10
165.6007539747
 20
73.4261822621
 10
165.8681281532
 20
73.0772110161
 10
166.2664246415
 20
72.7631031842
 10
166.7793345172
 20
72.496718982
 10
167.3858567634
 20
72.2889646677
  0
ARC
  5
2E8
330
1F
100
AcDbEntity
  8
0
  6
SLD-Durchgehend
 62
     7
370
    15
100
AcDbCircle
 10
169.0513657871
 20
77.5560085496
 30
0.0
 40
5.556913338084116
100
AcDbArc
 50
253.2306039597
 51
300.7064948274
  0
LWPOLYLINE
  5
2E9
330
1F
100
AcDbEntity
  8
0
  6
SLD-Durchgehend
 62
     7
370
    15
100
AcDbPolyline
 90
       14
 70
   128
 43
0.0
 10
171.940157192
 20
73.7596033839
 10
171.9152672336
 20
73.7080337468
 10
171.6743810847
 20
73.3913174008
 10
171.3026991732
 20
73.1101485406
 10
170.8188570389
 20
72.8786267758
 10
170.2471160989
 20
72.708361584
 10
169.6161492067
 20
72.6078899511
 10
168.9575935357
 20
72.5822506242
 10
168.3044698236
 20
72.6327294128
 10
167.6895323504
 20
72.7567945191
 10
167.1436145982
 20
72.9482249889
 10
166.6940897033
 20
73.1974224648
 10
166.3635018697
 20
73.4918898015
 10
166.2377121352
 20
73.6694967841
  0
LWPOLYLINE
  5
2EA
330
1F
100
AcDbEntity
  8
0
  6
SLD-Durchgehend
 62
     7
370
    15
100
AcDbPolyline
 90
       10
 70
   128
 43
0.0
 10
166.164582207
 20
74.3729665595
 10
166.2166553772
 20
74.4924262636
 10
166.4575393296
 20
74.8091432065
 10
166.8292234377
 20
75.0903114698
 10
167.313065572
 20
75.3218332345
 10
167.8848043155
 20
75.4920990234
 10
168.5157712077
 20
75.5925706562
 10
169.1743268787
 20
75.6182099831
 10
169.8274505908
 20
75.5677311945
 10
170.4423880639
 20
75.4436660882
  0
LWPOLYLINE
  5
2EB
330
1F
100
AcDbEntity
  8
0
  6
SLD-Durchgehend
 62
     7
370
    15
100
AcDbPolyline
 90
       14
 70
   128
 43
0.0
 10
167.7515434376
 20
72.7125217079
 10
168.3387771406
 20
72.594045897
 10
168.9624745407
 20
72.5458416434
 10
169.5913614418
 20
72.5703258464
 10
170.1939030154
 20
72.6662706716
 10
170.7398837214
 20
72.8288655785
 10
171.2019275663
 20
73.0499568238
 10
171.5568652169
 20
73.3184581623
 10
171.7868980539
 20
73.6209059528
 10
171.8804918079
 20
73.9421340379
 10
171.8329539033
 20
74.2660345856
 10
171.6466662056
 20
74.5763663041
 10
171.3309717105
 20
74.8575674908
 10
171.0838515361
 20
75.0073762419
  0
LWPOLYLINE
  5
2EC
330
1F
100
AcDbEntity
  8
0
  6
SLD-Durchgehend
 62
     7
370
    15
100
AcDbPolyline
 90
       15
 70
   128
 43
0.0
 10
170.2189816979
 20
75.3188743114
 10
169.7931432738
 20
75.3968196437
 10
169.1694458736
 20
75.4450238973
 10
168.5405589725
 20
75.4205396943
 10
167.938017399
 20
75.3245948691
 10
167.392036693
 20
75.1619999622
 10
166.9299928481
 20
74.9409087169
 10
166.5750551974
 20
74.6724073784
 10
166.3450223604
 20
74.3699595879
 10
166.2514286064
 20
74.0487315028
 10
166.2989665111
 20
73.7248309551
 10
166.4852542088
 20
73.4144992366
 10
166.8009487038
 20
73.13329805
 10
167.2302200127
 20
72.8953279708
 10
167.7515434376
 20
72.7125217079
  0
SPLINE
  5
2ED
330
1F
100
AcDbEntity
  8
0
  6
SLD-Durchgehend
 62
     7
370
    15
100
AcDbSpline
210
0.0
220
0.0
230
1.0
 70
     8
 71
     3
 72
    12
 73
     8
 74
     0
 42
0.000000001
 43
0.00000001
 40
0.0
 40
0.0
 40
0.0
 40
0.0
 40
0.214654000769105
 40
0.4293110834688894
 40
0.6438917508614312
 40
0.8585089538163342
 40
1.0
 40
1.0
 40
1.0
 40
1.0
 10
178.0362258093251
 20
72.07976331267163
 30
0.0
 10
178.0220017046705
 20
72.06287637384537
 30
0.0
 10
177.9935532911362
 20
72.02910225373581
 30
0.0
 10
177.9977285936033
 20
71.97128046344196
 30
0.0
 10
178.0373112877966
 20
71.91716308938493
 30
0.0
 10
178.1015453852563
 20
71.87645433294875
 30
0.0
 10
178.1544478060302
 20
71.85969748668074
 30
0.0
 10
178.1754673102935
 20
71.85303955692221
 30
0.0
  0
ARC
  5
2EE
330
1F
100
AcDbEntity
  8
0
  6
SLD-Durchgehend
 62
     7
370
    15
100
AcDbCircle
 10
179.8846165458
 20
70.5380772288
 30
0.0
 40
2.406936703734476
100
AcDbArc
 50
80.8522404729
 51
140.1695498838
  0
LWPOLYLINE
  5
2EF
330
1F
100
AcDbEntity
  8
0
  6
SLD-Durchgehend
 62
     7
370
    15
100
AcDbPolyline
 90
       21
 70
   128
 43
0.0
 10
175.4940473977
 20
55.3514767673
 10
175.2305214662
 20
55.4511204524
 10
174.8346074784
 20
55.7244725044
 10
174.4869586731
 20
56.1310581679
 10
174.1930837277
 20
56.6644347281
 10
173.9576388379
 20
57.316150729
 10
173.7843546977
 20
58.0758797333
 10
173.6759770978
 20
58.9315835399
 10
173.6342234613
 20
59.8697037715
 10
173.6597550265
 20
60.875375403
 10
173.7521675746
 20
61.9326636705
 10
173.9099966452
 20
63.0248157534
 10
174.1307415868
 20
64.1345260083
 10
174.4109043848
 20
65.2442113854
 10
174.7460461655
 20
66.3362881722
 10
175.1308561594
 20
67.3934528494
 10
175.5592373259
 20
68.3989540619
 10
176.0244016855
 20
69.3368599609
 10
176.518978836
 20
70.192308345
 10
177.0351319296
 20
70.9517454571
 10
177.5646825607
 20
71.60313782
  0
SPLINE
  5
2F0
330
1F
100
AcDbEntity
  8
0
  6
SLD-Durchgehend
 62
     7
370
    15
100
AcDbSpline
210
0.0
220
0.0
230
1.0
 70
     8
 71
     3
 72
    12
 73
     8
 74
     0
 42
0.000000001
 43
0.00000001
 40
0.0
 40
0.0
 40
0.0
 40
0.0
 40
0.2146610799084719
 40
0.4293254092142098
 40
0.6439763465372285
 40
0.8585749108046078
 40
1.0
 40
1.0
 40
1.0
 40
1.0
 10
178.0148352208494
 20
71.69067600481301
 30
0.0
 10
177.9799740792118
 20
71.69788998719514
 30
0.0
 10
177.9102512682315
 20
71.71231806115988
 30
0.0
 10
177.7951102429301
 20
71.7081629432275
 30
0.0
 10
177.6890242535613
 20
71.68423035219065
 30
0.0
 10
177.6100172447214
 20
71.64643997282846
 30
0.0
 10
177.5775712488823
 20
71.61544865790314
 30
0.0
 10
177.5646825606984
 20
71.60313782002773
 30
0.0
  0
LINE
  5
2F1
330
1F
100
AcDbEntity
  8
0
  6
SLD-Durchgehend
 62
     7
370
    15
100
AcDbLine
 10
178.0148352208
 20
71.6906760048
 30
0.0
 11
186.2694046113
 21
69.4472609185
 31
0.0
  0
SPLINE
  5
2F2
330
1F
100
AcDbEntity
  8
0
  6
SLD-Durchgehend
 62
     7
370
    15
100
AcDbSpline
210
0.0
220
0.0
230
1.0
 70
     8
 71
     3
 72
    12
 73
     8
 74
     0
 42
0.000000001
 43
0.00000001
 40
0.0
 40
0.0
 40
0.0
 40
0.0
 40
0.2146538863893733
 40
0.4293111202760196
 40
0.6438937993953412
 40
0.8585111917970533
 40
1.0
 40
1.0
 40
1.0
 40
1.0
 10
186.4088641289088
 20
69.19947877767568
 30
0.0
 10
186.4230543906478
 20
69.21966132757285
 30
0.0
 10
186.4514351354208
 20
69.26002674211122
 30
0.0
 10
186.4471958978737
 20
69.32398105633786
 30
0.0
 10
186.4075755118632
 20
69.3815960991221
 30
0.0
 10
186.3433276365483
 20
69.42366496238101
 30
0.0
 10
186.2904242770016
 20
69.44055151899882
 30
0.0
 10
186.2694046112967
 20
69.44726091851629
 30
0.0
  0
ARC
  5
2F3
330
1F
100
AcDbEntity
  8
0
  6
SLD-Durchgehend
 62
     7
370
    15
100
AcDbCircle
 10
189.0154038356
 20
67.6435127462
 30
0.0
 40
2.947819224445345
100
AcDbArc
 50
99.2607472471
 51
136.407574386
  0
LWPOLYLINE
  5
2F4
330
1F
100
AcDbEntity
  8
0
  6
SLD-Durchgehend
 62
     7
370
    15
100
AcDbPolyline
 90
       20
 70
   128
 43
0.0
 10
183.82492011
 20
53.2001888424
 10
183.6787890467
 20
53.3208134621
 10
183.3311402414
 20
53.7273991256
 10
183.0372652959
 20
54.2607756858
 10
182.8018204062
 20
54.9124916867
 10
182.6285362659
 20
55.6722206909
 10
182.520158666
 20
56.5279244975
 10
182.4784050295
 20
57.4660447291
 10
182.5039365947
 20
58.4717163606
 10
182.5963491428
 20
59.5290046281
 10
182.7541782134
 20
60.621156711
 10
182.974923155
 20
61.730866966
 10
183.255085953
 20
62.840552343
 10
183.5902277337
 20
63.9326291298
 10
183.9750377276
 20
64.9897938071
 10
184.4034188941
 20
65.9952950196
 10
184.8685832537
 20
66.9332009185
 10
185.3631604042
 20
67.7886493026
 10
185.8793134978
 20
68.5480864147
 10
186.4088641289
 20
69.1994787777
  0
SPLINE
  5
2F5
330
1F
100
AcDbEntity
  8
0
  6
SLD-Durchgehend
 62
     7
370
    15
100
AcDbSpline
210
0.0
220
0.0
230
1.0
 70
     8
 71
     3
 72
    12
 73
     8
 74
     0
 42
0.000000001
 43
0.00000001
 40
0.0
 40
0.0
 40
0.0
 40
0.0
 40
0.2146614029213809
 40
0.4293239552764339
 40
0.6439752333314464
 40
0.8585750097640231
 40
1.0
 40
1.0
 40
1.0
 40
1.0
 10
186.4300367007406
 20
69.60962447062549
 30
0.0
 10
186.4648989980503
 20
69.60229859583282
 30
0.0
 10
186.5346237793444
 20
69.5876468070201
 30
0.0
 10
186.6497867473718
 20
69.58966795118133
 30
0.0
 10
186.7559173872288
 20
69.6092391695358
 30
0.0
 10
186.8349930914509
 20
69.64060135746901
 30
0.0
 10
186.8674960937788
 20
69.66601079045844
 30
0.0
 10
186.8804073775355
 20
69.67610427031958
 30
0.0
  0
LINE
  5
2F6
330
1F
100
AcDbEntity
  8
0
  6
SLD-Durchgehend
 62
     7
370
    15
100
AcDbLine
 10
178.1754673103
 20
71.8530395569
 30
0.0
 11
186.4300367007
 21
69.6096244706
 31
0.0
  0
LINE
  5
2F7
330
1F
100
AcDbEntity
  8
0
  6
SLD-Durchgehend
 62
     7
370
    15
100
AcDbLine
 10
186.8804073775
 20
69.5617372577
 30
0.0
 11
186.9904495551
 21
69.6589570946
 31
0.0
  0
LWPOLYLINE
  5
2F8
330
1F
100
AcDbEntity
  8
0
  6
SLD-Durchgehend
 62
     7
370
    15
100
AcDbPolyline
 90
       17
 70
   128
 43
0.0
 10
182.9401493208
 20
54.7560152877
 10
182.8596393524
 20
55.011201615
 10
182.6888135584
 20
55.7594889949
 10
182.5819166455
 20
56.6023353353
 10
182.5406416968
 20
57.5263899675
 10
182.5656427067
 20
58.5170166185
 10
182.6565235695
 20
59.5585240164
 10
182.8118447445
 20
60.6344153443
 10
183.0291461469
 20
61.7276488087
 10
183.3049856865
 20
62.8209080251
 10
183.6349943221
 20
63.8968764826
 10
184.013944736
 20
64.9385109323
 10
184.4358344951
 20
65.9293128169
 10
184.8939810935
 20
66.8535884119
 10
185.3811278608
 20
67.6966966869
 10
185.889558273
 20
68.4452838156
 10
186.4112193196
 20
69.0874924621
  0
SPLINE
  5
2F9
330
1F
100
AcDbEntity
  8
0
  6
SLD-Durchgehend
 62
     7
370
    15
100
AcDbSpline
210
0.0
220
0.0
230
1.0
 70
     8
 71
     3
 72
     9
 73
     5
 74
     0
 42
0.000000001
 43
0.00000001
 40
0.0
 40
0.0
 40
0.0
 40
0.0
 40
0.5534604436466136
 40
1.0
 40
1.0
 40
1.0
 40
1.0
 10
186.4467723139674
 20
69.17841199081104
 30
0.0
 10
186.4461718572771
 20
69.16115880225878
 30
0.0
 10
186.4450869438074
 20
69.12998550207031
 30
0.0
 10
186.4216740865096
 20
69.10060985190107
 30
0.0
 10
186.4112193195989
 20
69.08749246210691
 30
0.0
  0
SPLINE
  5
2FA
330
1F
100
AcDbEntity
  8
0
  6
SLD-Durchgehend
 62
     7
370
    15
100
AcDbSpline
210
0.0
220
0.0
230
1.0
 70
     8
 71
     3
 72
    11
 73
     7
 74
     0
 42
0.000000001
 43
0.00000001
 40
0.0
 40
0.0
 40
0.0
 40
0.0
 40
0.3109413612064414
 40
0.6218873866784101
 40
0.9328137825840948
 40
1.0
 40
1.0
 40
1.0
 40
1.0
 10
178.1754673102935
 20
71.73875077764166
 30
0.0
 10
178.1438711797866
 20
71.74945211971087
 30
0.0
 10
178.0806784448161
 20
71.77085496437444
 30
0.0
 10
178.0217524875755
 20
71.82070813014508
 30
0.0
 10
177.9943687383233
 20
71.86244552057207
 30
0.0
 10
177.9999103079322
 20
71.88483309764474
 30
0.0
 10
178.0008949804542
 20
71.888811109929
 30
0.0
  0
LINE
  5
2FB
330
1F
100
AcDbEntity
  8
0
  6
SLD-Durchgehend
 62
     7
370
    15
100
AcDbLine
 10
178.1754673103
 20
71.7387507776
 30
0.0
 11
186.4300367007
 21
69.4953356913
 31
0.0
  0
SPLINE
  5
2FC
330
1F
100
AcDbEntity
  8
0
  6
SLD-Durchgehend
 62
     7
370
    15
100
AcDbSpline
210
0.0
220
0.0
230
1.0
 70
     8
 71
     3
 72
    12
 73
     8
 74
     0
 42
0.000000001
 43
0.00000001
 40
0.0
 40
0.0
 40
0.0
 40
0.0
 40
0.2146523612957311
 40
0.429309349595675
 40
0.643889267806593
 40
0.858502097525195
 40
1.0
 40
1.0
 40
1.0
 40
1.0
 10
186.8804073775355
 20
69.56173725771178
 30
0.0
 10
186.8596745614376
 20
69.54663537017362
 30
0.0
 10
186.8182084823293
 20
69.51643126956397
 30
0.0
 10
186.7208042375777
 20
69.4862389255604
 30
0.0
 10
186.610851722019
 20
69.4727703218379
 30
0.0
 10
186.5092876020218
 20
69.47712177928366
 30
0.0
 10
186.4525721543467
 20
69.49015645977019
 30
0.0
 10
186.4300367007406
 20
69.49533569134492
 30
0.0
  0
LWPOLYLINE
  5
2FD
330
1F
100
AcDbEntity
  8
0
  6
SLD-Durchgehend
 62
     7
370
    15
100
AcDbPolyline
 90
       16
 70
   128
 43
0.0
 10
132.7520076543
 20
73.3891482733
 10
132.7848941196
 20
74.1501861632
 10
132.8826562654
 20
74.9546610674
 10
133.042627696
 20
75.7806294407
 10
133.2604445862
 20
76.6055607153
 10
133.530165498
 20
77.4069530503
 10
133.8444332132
 20
78.1629463156
 10
134.1946751767
 20
78.8529192747
 10
134.5713379146
 20
79.4580511423
 10
134.9641468965
 20
79.9618354635
 10
135.3623873522
 20
80.3505303569
 10
135.7551963341
 20
80.6135332526
 10
136.131859072
 20
80.7436701436
 10
136.4821010355
 20
80.7373909716
 10
136.7963687507
 20
80.5948675551
 10
137.0473541901
 20
80.3453441344
  0
LINE
  5
2FE
330
1F
100
AcDbEntity
  8
0
  6
SLD-Durchgehend
 62
     7
370
    15
100
AcDbLine
 10
133.9312298133
 20
73.0686609581
 30
0.0
 11
132.7520076543
 21
73.3891482733
 31
0.0
  0
LWPOLYLINE
  5
2FF
330
1F
100
AcDbEntity
  8
0
  6
SLD-Durchgehend
 62
     7
370
    15
100
AcDbPolyline
 90
       15
 70
   128
 43
0.0
 10
133.9312298133
 20
73.0686609581
 10
133.9641162786
 20
73.829698848
 10
134.0618784244
 20
74.6341737523
 10
134.2218498551
 20
75.4601421255
 10
134.4396667452
 20
76.2850734001
 10
134.709387657
 20
77.0864657352
 10
135.0236553722
 20
77.8424590004
 10
135.3738973358
 20
78.5324319595
 10
135.7505600736
 20
79.1375638272
 10
136.1433690555
 20
79.6413481483
 10
136.5416095112
 20
80.0300430417
 10
136.9344184931
 20
80.2930459375
 10
137.311081231
 20
80.4231828284
 10
137.6613231946
 20
80.4169036564
 10
137.6975261381
 20
80.4079358914
  0
LWPOLYLINE
  5
300
330
1F
100
AcDbEntity
  8
0
  6
SLD-Durchgehend
 62
     7
370
    15
100
AcDbPolyline
 90
        3
 70
   128
 43
0.0
 10
127.0845091348
 20
83.2923265034
 10
127.0483061913
 20
83.3012942685
 10
127.0200218811
 20
83.3071135028
  0
LWPOLYLINE
  5
301
330
1F
100
AcDbEntity
  8
0
  6
SLD-Durchgehend
 62
     7
370
    15
100
AcDbPolyline
 90
       15
 70
   128
 43
0.0
 10
130.3935589432
 20
74.0301240975
 10
130.4264454085
 20
74.7911619874
 10
130.5242075543
 20
75.5956368917
 10
130.684178985
 20
76.4216052649
 10
130.9019958751
 20
77.2465365395
 10
131.1717167869
 20
78.0479288746
 10
131.4859845021
 20
78.8039221398
 10
131.8362264657
 20
79.4938950989
 10
132.2128892035
 20
80.0990269666
 10
132.6056981854
 20
80.6028112877
 10
133.0039386411
 20
80.9915061811
 10
133.396747623
 20
81.2545090769
 10
133.7734103609
 20
81.3846459678
 10
134.1236523245
 20
81.3783667958
 10
134.159855268
 20
81.3693990308
  0
LWPOLYLINE
  5
302
330
1F
100
AcDbEntity
  8
0
  6
SLD-Durchgehend
 62
     7
370
    15
100
AcDbPolyline
 90
       16
 70
   128
 43
0.0
 10
129.2143323912
 20
74.3506126065
 10
129.2472188565
 20
75.1116504965
 10
129.3449810023
 20
75.9161254007
 10
129.504952433
 20
76.742093774
 10
129.7227693231
 20
77.5670250486
 10
129.9924902349
 20
78.3684173836
 10
130.3067579501
 20
79.1244106488
 10
130.6569999137
 20
79.814383608
 10
131.0336626515
 20
80.4195154756
 10
131.4264716334
 20
80.9232997968
 10
131.8247120891
 20
81.3119946902
 10
132.217521071
 20
81.5749975859
 10
132.5941838089
 20
81.7051344768
 10
132.9444257725
 20
81.6988553049
 10
133.2586934877
 20
81.5563318884
 10
133.509678927
 20
81.3068084676
  0
LINE
  5
303
330
1F
100
AcDbEntity
  8
0
  6
SLD-Durchgehend
 62
     7
370
    15
100
AcDbLine
 10
129.2143323912
 20
74.3506126065
 30
0.0
 11
130.3935589432
 21
74.0301240975
 31
0.0
  0
LWPOLYLINE
  5
304
330
1F
100
AcDbEntity
  8
0
  6
SLD-Durchgehend
 62
     7
370
    15
100
AcDbPolyline
 90
       15
 70
   128
 43
0.0
 10
126.8558836802
 20
74.9915884308
 10
126.8887701454
 20
75.7526263207
 10
126.9865322913
 20
76.557101225
 10
127.1465037219
 20
77.3830695982
 10
127.3643206121
 20
78.2080008728
 10
127.6340415239
 20
79.0093932078
 10
127.9483092391
 20
79.7653864731
 10
128.2985512026
 20
80.4553594322
 10
128.6752139405
 20
81.0604912998
 10
129.0680229224
 20
81.564275621
 10
129.4662633781
 20
81.9529705144
 10
129.85907236
 20
82.2159734102
 10
130.2357350978
 20
82.3461103011
 10
130.5859770614
 20
82.3398311291
 10
130.6221800049
 20
82.330863364
  0
LWPOLYLINE
  5
305
330
1F
100
AcDbEntity
  8
0
  6
SLD-Durchgehend
 62
     7
370
    15
100
AcDbPolyline
 90
       16
 70
   128
 43
0.0
 10
125.6766615211
 20
75.3120757459
 10
125.7095479864
 20
76.0731136358
 10
125.8073101322
 20
76.8775885401
 10
125.9672815629
 20
77.7035569133
 10
126.185098453
 20
78.5284881879
 10
126.4548193648
 20
79.329880523
 10
126.76908708
 20
80.0858737882
 10
127.1193290436
 20
80.7758467474
 10
127.4959917814
 20
81.380978615
 10
127.8888007633
 20
81.8847629362
 10
128.287041219
 20
82.2734578296
 10
128.6798502009
 20
82.5364607253
 10
129.0565129388
 20
82.6665976162
 10
129.4067549023
 20
82.6603184443
 10
129.7210226176
 20
82.5177950278
 10
129.9720080569
 20
82.268271607
  0
LINE
  5
306
330
1F
100
AcDbEntity
  8
0
  6
SLD-Durchgehend
 62
     7
370
    15
100
AcDbLine
 10
125.6766615211
 20
75.3120757459
 30
0.0
 11
126.8558836802
 21
74.9915884308
 31
0.0
  0
LWPOLYLINE
  5
307
330
1F
100
AcDbEntity
  8
0
  6
SLD-Durchgehend
 62
     7
370
    15
100
AcDbPolyline
 90
       14
 70
   128
 43
0.0
 10
136.3871713194
 20
80.2459252426
 10
136.2522230655
 20
80.2696662868
 10
135.9081568129
 20
80.2285243457
 10
135.541457527
 20
80.0510802599
 10
135.1632671243
 20
79.74272563
 10
134.7850767217
 20
79.312829406
 10
134.4183774358
 20
78.7744540023
 10
134.0743111832
 20
78.1439575228
 10
133.7633324188
 20
77.4404972939
 10
133.4948899398
 20
76.6854478752
 10
133.2771401297
 20
75.9017507646
 10
133.1166994284
 20
75.1132181711
 10
133.0184426578
 20
74.3438094956
 10
132.9853552421
 20
73.6169026726
  0
LINE
  5
308
330
1F
100
AcDbEntity
  8
0
  6
SLD-Durchgehend
 62
     7
370
    15
100
AcDbLine
 10
132.9853552421
 20
73.6169026726
 30
0.0
 11
132.7520076543
 21
73.3891482733
 31
0.0
  0
LINE
  5
309
330
1F
100
AcDbEntity
  8
0
  6
SLD-Durchgehend
 62
     7
370
    15
100
AcDbLine
 10
133.936227346
 20
73.3584760095
 30
0.0
 11
132.9853552421
 21
73.6169026726
 31
0.0
  0
LWPOLYLINE
  5
30A
330
1F
100
AcDbEntity
  8
0
  6
SLD-Durchgehend
 62
     7
370
    15
100
AcDbPolyline
 90
       14
 70
   128
 43
0.0
 10
132.8494960564
 20
81.2073895759
 10
132.7145478024
 20
81.2311306201
 10
132.3704815499
 20
81.189988679
 10
132.003782264
 20
81.0125445932
 10
131.6255918613
 20
80.7041899633
 10
131.2474014586
 20
80.2742937393
 10
130.8807021727
 20
79.7359183356
 10
130.5366359202
 20
79.105421856
 10
130.2256571557
 20
78.4019616272
 10
129.9572146767
 20
77.6469122085
 10
129.7394648666
 20
76.8632150979
 10
129.5790241654
 20
76.0746825044
 10
129.4807673947
 20
75.3052738288
 10
129.4476799791
 20
74.5783670059
  0
LINE
  5
30B
330
1F
100
AcDbEntity
  8
0
  6
SLD-Durchgehend
 62
     7
370
    15
100
AcDbLine
 10
129.4476799791
 20
74.5783670059
 30
0.0
 11
129.2143323912
 21
74.3506126065
 31
0.0
  0
LINE
  5
30C
330
1F
100
AcDbEntity
  8
0
  6
SLD-Durchgehend
 62
     7
370
    15
100
AcDbLine
 10
129.4476799791
 20
74.5783670059
 30
0.0
 11
130.398552083
 21
74.3199403427
 31
0.0
  0
LWPOLYLINE
  5
30D
330
1F
100
AcDbEntity
  8
0
  6
SLD-Durchgehend
 62
     7
370
    15
100
AcDbPolyline
 90
       14
 70
   128
 43
0.0
 10
129.3118251863
 20
82.1688527153
 10
129.1768769323
 20
82.1925937595
 10
128.8328106798
 20
82.1514518184
 10
128.4661113939
 20
81.9740077326
 10
128.0879209912
 20
81.6656531027
 10
127.7097305885
 20
81.2357568786
 10
127.3430313026
 20
80.697381475
 10
126.9989650501
 20
80.0668849954
 10
126.6879862856
 20
79.3634247666
 10
126.4195438066
 20
78.6083753478
 10
126.2017939965
 20
77.8246782373
 10
126.0413532953
 20
77.0361456438
 10
125.9430965246
 20
76.2667369682
 10
125.9100091089
 20
75.5398301452
  0
LINE
  5
30E
330
1F
100
AcDbEntity
  8
0
  6
SLD-Durchgehend
 62
     7
370
    15
100
AcDbLine
 10
125.9100091089
 20
75.5398301452
 30
0.0
 11
125.6766615211
 21
75.3120757459
 31
0.0
  0
LINE
  5
30F
330
1F
100
AcDbEntity
  8
0
  6
SLD-Durchgehend
 62
     7
370
    15
100
AcDbLine
 10
125.9100091089
 20
75.5398301452
 30
0.0
 11
126.8608812129
 21
75.2814034821
 31
0.0
  0
LWPOLYLINE
  5
310
330
1F
100
AcDbEntity
  8
0
  6
SLD-Durchgehend
 62
     7
370
    15
100
AcDbPolyline
 90
       26
 70
   128
 43
0.0
 10
198.2777802152
 20
58.3379519108
 10
198.2445461072
 20
58.7886970691
 10
198.1469321025
 20
59.146245422
 10
197.9910716068
 20
59.3881306788
 10
197.7867578727
 20
59.4991543646
 10
197.5468287613
 20
59.4723405156
 10
197.2863598255
 20
59.3093738592
 10
197.0217173299
 20
59.020494254
 10
196.7695297378
 20
58.6238530301
 10
196.5456428638
 20
58.1443725916
 10
196.3641244663
 20
57.6121805523
 10
196.2363798563
 20
57.0607164033
 10
196.1704358209
 20
56.5246306542
 10
196.1704358209
 20
56.0376077026
 10
196.2363798563
 20
55.6302487538
 10
196.3641244663
 20
55.3281499824
 10
196.5456428638
 20
55.1502928013
 10
196.7695297378
 20
55.1078534844
 10
197.0217173299
 20
55.2034977362
 10
197.2863598255
 20
55.4312164753
 10
197.5468287613
 20
55.7767013178
 10
197.7867578727
 20
56.2182438383
 10
197.9910716068
 20
56.7281002605
 10
198.1469321025
 20
57.2742347944
 10
198.2445461072
 20
57.8223316695
 10
198.2777802152
 20
58.3379519108
  0
LWPOLYLINE
  5
311
330
1F
100
AcDbEntity
  8
0
  6
SLD-Durchgehend
 62
     7
370
    15
100
AcDbPolyline
 90
       17
 70
   128
 43
0.0
 10
197.6866327126
 20
54.0465821128
 10
197.6511076325
 20
54.3399323714
 10
197.5499407757
 20
54.5192753031
 10
197.3985339136
 20
54.5573081026
 10
197.2199373196
 20
54.4482405432
 10
197.0413407256
 20
54.2086766008
 10
196.8899338634
 20
53.8750883232
 10
196.7887670066
 20
53.4982614843
 10
196.7532419266
 20
53.1355640913
 10
196.7887670066
 20
52.8422138326
 10
196.8899338634
 20
52.6628709009
 10
197.0413407256
 20
52.6248381014
 10
197.2199373196
 20
52.7339056608
 10
197.3985339136
 20
52.9734696032
 10
197.5499407757
 20
53.3070578808
 10
197.6511076325
 20
53.6838847197
 10
197.6866327126
 20
54.0465821128
  0
LWPOLYLINE
  5
312
330
1F
100
AcDbEntity
  8
0
  6
SLD-Durchgehend
 62
     7
370
    15
100
AcDbPolyline
 90
       17
 70
   128
 43
0.0
 10
197.6866327126
 20
61.4753654058
 10
197.6511076325
 20
61.7687155314
 10
197.5499407757
 20
61.9480587291
 10
197.3985339136
 20
61.9860915286
 10
197.2199373196
 20
61.8770237032
 10
197.0413407256
 20
61.6374600269
 10
196.8899338634
 20
61.3038717493
 10
196.7887670066
 20
60.9270446442
 10
196.7532419266
 20
60.5643473842
 10
196.7887670066
 20
60.2709972586
 10
196.8899338634
 20
60.0916541939
 10
197.0413407256
 20
60.0536213944
 10
197.2199373196
 20
60.1626890868
 10
197.3985339136
 20
60.4022528962
 10
197.5499407757
 20
60.7358411738
 10
197.6511076325
 20
61.1126681458
 10
197.6866327126
 20
61.4753654058
  0
LWPOLYLINE
  5
313
330
1F
100
AcDbEntity
  8
0
  6
SLD-Durchgehend
 62
     7
370
    15
100
AcDbPolyline
 90
       27
 70
   128
 43
0.0
 10
154.7538052578
 20
79.9145330594
 10
154.5543060023
 20
79.9670760923
 10
154.0835182192
 20
79.9829365743
 10
153.5840043827
 20
79.8586378847
 10
153.0636419073
 20
79.5961394938
 10
152.5306374143
 20
79.1995816929
 10
151.9933965553
 20
78.6752181447
 10
151.4603920622
 20
78.0313184951
 10
150.9400295868
 20
77.2780374292
 10
150.4405157504
 20
76.4272544834
 10
149.9697279672
 20
75.4923873834
 10
149.5350909704
 20
74.4881794584
 10
149.1434593846
 20
73.430467413
 10
148.801008921
 20
72.3359319681
 10
148.5131410447
 20
71.2218350419
 10
148.2843948875
 20
70.1057461736
 10
148.1183785737
 20
69.0052671393
 10
148.0177095291
 20
67.9377526296
 10
147.9839759427
 20
66.9200384
 10
148.0177095291
 20
65.9681741993
 10
148.1183785737
 20
65.0971718369
 10
148.2843948875
 20
64.3207668262
 10
148.5131410447
 20
63.6512044818
 10
148.801008921
 20
63.0990433001
 10
149.1434593846
 20
62.6729921568
 10
149.5350909704
 20
62.3797689789
 10
149.9471121385
 20
62.2284688287
  0
LWPOLYLINE
  5
314
330
1F
100
AcDbEntity
  8
0
  6
SLD-Durchgehend
 62
     7
370
    15
100
AcDbPolyline
 90
        9
 70
   128
 43
0.0
 10
136.1917323875
 20
70.1249175211
 10
136.2254659738
 20
69.1730533204
 10
136.3261350184
 20
68.302050958
 10
136.4921513322
 20
67.5256459473
 10
136.7208974894
 20
66.8560836029
 10
137.0087653657
 20
66.3039224212
 10
137.3512158293
 20
65.8778712779
 10
137.7428474151
 20
65.5846481
 10
138.0656758776
 20
65.4546218118
  0
LWPOLYLINE
  5
315
330
1F
100
AcDbEntity
  8
0
  6
SLD-Durchgehend
 62
     7
370
    15
100
AcDbPolyline
 90
       19
 70
   128
 43
0.0
 10
142.8738709814
 20
83.1462116433
 10
142.762062447
 20
83.1719552134
 10
142.2912746639
 20
83.1878156954
 10
141.7917608274
 20
83.0635170058
 10
141.2713983521
 20
82.8010186149
 10
140.738393859
 20
82.404460814
 10
140.201153
 20
81.8800972658
 10
139.6681485069
 20
81.2361976162
 10
139.1477860316
 20
80.4829165503
 10
138.6482721951
 20
79.6321336045
 10
138.177484412
 20
78.6972665045
 10
137.7428474151
 20
77.6930585795
 10
137.3512158293
 20
76.6353465341
 10
137.0087653657
 20
75.5408110892
 10
136.7208974894
 20
74.426714163
 10
136.4921513322
 20
73.3106252947
 10
136.3261350184
 20
72.2101462604
 10
136.2254659738
 20
71.1426317507
 10
136.1917323875
 20
70.1249175211
  0
LWPOLYLINE
  5
316
330
1F
100
AcDbEntity
  8
0
  6
SLD-Durchgehend
 62
     7
370
    15
100
AcDbPolyline
 90
       15
 70
   128
 43
0.0
 10
135.9132538147
 20
70.5888333027
 10
135.9471911042
 20
71.5729607981
 10
136.0484228678
 20
72.6064978965
 10
136.2152169045
 20
73.6717602569
 10
136.4447190525
 20
74.7505206275
 10
136.7330027381
 20
75.8243215765
 10
137.0751350424
 20
76.8747898432
 10
137.4652623254
 20
77.8839515494
 10
137.8967091806
 20
78.8345400652
 10
138.3620934701
 20
79.7102900337
 10
138.8534524443
 20
80.4962177315
 10
139.3623787853
 20
81.1788751934
 10
139.8801645464
 20
81.7465817079
 10
140.3979503076
 20
82.189624746
 10
140.4536306607
 20
82.2297687338
  0
ARC
  5
317
330
1F
100
AcDbEntity
  8
0
  6
SLD-Durchgehend
 62
     7
370
    15
100
AcDbCircle
 10
143.7216540287
 20
70.3090149265
 30
0.0
 40
7.813412329172715
100
AcDbArc
 50
177.9476520207
 51
201.3058078446
  0
LWPOLYLINE
  5
318
330
1F
100
AcDbEntity
  8
0
  6
SLD-Durchgehend
 62
     7
370
    15
100
AcDbPolyline
 90
       15
 70
   128
 43
0.0
 10
200.6342080253
 20
67.0985223589
 10
200.2670845632
 20
67.4440675755
 10
199.8553364963
 20
67.6571560115
 10
199.4053007886
 20
67.7345091661
 10
198.9239026222
 20
67.6749357011
 10
198.4185503584
 20
67.4793523893
 10
197.897021009
 20
67.1507697235
 10
197.3673403469
 20
66.6942440873
 10
196.8376596847
 20
66.1168005948
 10
196.3161303353
 20
65.427325994
 10
195.8107780715
 20
64.6364307023
 10
195.3293799051
 20
63.7562854307
 10
194.8793441975
 20
62.8004349817
 10
194.4675961306
 20
61.7835890738
 10
194.1004726684
 20
60.7213963496
  0
LINE
  5
319
330
1F
100
AcDbEntity
  8
0
  6
SLD-Durchgehend
 62
     7
370
    15
100
AcDbLine
 10
188.204351989
 20
62.3238356117
 30
0.0
 11
194.1004726684
 21
60.7213963496
 31
0.0
  0
LWPOLYLINE
  5
31A
330
1F
100
AcDbEntity
  8
0
  6
SLD-Durchgehend
 62
     7
370
    15
100
AcDbPolyline
 90
       12
 70
   128
 43
0.0
 10
188.204351989
 20
52.1776713168
 10
187.8793930468
 20
52.6653744127
 10
187.6128473539
 20
53.2795038157
 10
187.4090503391
 20
54.0100730609
 10
187.2713160174
 20
54.8452006663
 10
187.201884254
 20
55.771304536
 10
187.201884254
 20
56.7733239097
 10
187.2713160174
 20
57.8349628384
 10
187.4090503391
 20
58.9389562847
 10
187.6128473539
 20
60.0673497983
 10
187.8793930468
 20
61.2017927363
 10
188.204351989
 20
62.3238356117
  0
LINE
  5
31B
330
1F
100
AcDbEntity
  8
0
  6
SLD-Durchgehend
 62
     7
370
    15
100
AcDbLine
 10
194.1004726684
 20
50.5752320547
 30
0.0
 11
188.204351989
 21
52.1776713168
 31
0.0
  0
LWPOLYLINE
  5
31C
330
1F
100
AcDbEntity
  8
0
  6
SLD-Durchgehend
 62
     7
370
    15
100
AcDbPolyline
 90
       15
 70
   128
 43
0.0
 10
194.1004726684
 20
50.5752320547
 10
194.4675961306
 20
50.229686838
 10
194.8793441975
 20
50.0165984021
 10
195.3293799051
 20
49.9392452475
 10
195.8107780715
 20
49.9988187125
 10
196.3161303353
 20
50.1944020243
 10
196.8376596847
 20
50.5229846901
 10
197.3673403469
 20
50.9795103263
 10
197.897021009
 20
51.5569538188
 10
198.4185503584
 20
52.2464284196
 10
198.9239026222
 20
53.0373237113
 10
199.4053007886
 20
53.9174689829
 10
199.8553364963
 20
54.8733194319
 10
200.2670845632
 20
55.8901653398
 10
200.6342080253
 20
56.952358064
  0
LWPOLYLINE
  5
31D
330
1F
100
AcDbEntity
  8
0
  6
SLD-Durchgehend
 62
     7
370
    15
100
AcDbPolyline
 90
       27
 70
   128
 43
0.0
 10
189.2763431114
 20
70.5350140031
 10
189.164534577
 20
70.5607575732
 10
188.6937467939
 20
70.5766180552
 10
188.1942329574
 20
70.4523193656
 10
187.6738704821
 20
70.1898209747
 10
187.140865989
 20
69.7932631738
 10
186.60362513
 20
69.2688996255
 10
186.0706206369
 20
68.6249999759
 10
185.5502581616
 20
67.87171891
 10
185.0507443251
 20
67.0209359642
 10
184.579956542
 20
66.0860688643
 10
184.1453195451
 20
65.0818609392
 10
183.7536879593
 20
64.0241488939
 10
183.4112374957
 20
62.9296134489
 10
183.1233696194
 20
61.8155165228
 10
182.8946234622
 20
60.6994276545
 10
182.7286071484
 20
59.5989486202
 10
182.6279381038
 20
58.5314341104
 10
182.5942045175
 20
57.5137198809
 10
182.6279381038
 20
56.5618556802
 10
182.7286071484
 20
55.6908533178
 10
182.8946234622
 20
54.914448307
 10
183.1233696194
 20
54.2448859627
 10
183.4112374957
 20
53.6927247809
 10
183.7536879593
 20
53.2666736376
 10
184.1453195451
 20
52.9734504597
 10
184.4681480076
 20
52.8434241716
  0
SPLINE
  5
31E
330
1F
100
AcDbEntity
  8
0
  6
SLD-Durchgehend
 62
     7
370
    15
100
AcDbSpline
210
0.0
220
0.0
230
1.0
 70
    11
 71
     3
 72
    22
 73
    18
 74
     0
 42
0.000000001
 43
0.00000001
 40
0.0
 40
0.0
 40
0.0
 40
0.0
 40
0.125
 40
0.125
 40
0.25
 40
0.25
 40
0.375
 40
0.375
 40
0.5
 40
0.5
 40
0.625
 40
0.625
 40
0.75
 40
0.75
 40
0.875
 40
0.875
 40
1.0
 40
1.0
 40
1.0
 40
1.0
 10
193.6741027305075
 20
67.49867470121515
 30
0.0
 10
193.7520148863892
 20
67.47749984670206
 30
0.0
 10
193.8450644355022
 20
67.47450456101342
 30
0.0
 10
194.0112458251666
 20
67.5036866803546
 30
0.0
 10
194.083765129577
 20
67.53590249574786
 30
0.0
 10
194.1650167472443
 20
67.61510714579298
 30
0.0
 10
194.1741292871031
 20
67.66180250357954
 30
0.0
 10
194.1222264030447
 20
67.74567677376439
 30
0.0
 10
194.0622821331395
 20
67.78139001270891
 30
0.0
 10
193.9083933388353
 20
67.82324777338799
 30
0.0
 10
193.8145921307539
 20
67.82900064161997
 30
0.0
 10
193.6484449653135
 20
67.80534565807115
 30
0.0
 10
193.5761385958199
 20
67.77601582799959
 30
0.0
 10
193.4939004116025
 20
67.69595094023829
 30
0.0
 10
193.4854884425453
 20
67.64672678075897
 30
0.0
 10
193.5367694534347
 20
67.55834326689067
 30
0.0
 10
193.5961905746258
 20
67.51984955572826
 30
0.0
 10
193.6741027305075
 20
67.49867470121515
 30
0.0
  0
LINE
  5
31F
330
1F
100
AcDbEntity
  8
0
  6
SLD-Durchgehend
 62
     7
370
    15
100
AcDbLine
 10
200.6342080253
 20
56.952358064
 30
0.0
 11
200.6342080253
 21
67.0985223589
 31
0.0
  0
LINE
  5
320
330
1F
100
AcDbEntity
  8
0
  6
SLD-Durchgehend
 62
     7
370
    15
100
AcDbLine
 10
194.1004726684
 20
60.7213963496
 30
0.0
 11
194.1004726684
 21
50.5752320547
 31
0.0
  0
LWPOLYLINE
  5
321
330
1F
100
AcDbEntity
  8
0
  6
SLD-Durchgehend
 62
     7
370
    15
100
AcDbPolyline
 90
       42
 70
   128
 43
0.0
 10
197.3673403469
 20
62.4541230849
 10
196.9360965429
 20
61.9724065303
 10
196.5149607462
 20
61.3803616356
 10
196.1138040106
 20
60.6918655467
 10
195.7420289889
 20
59.9230561779
 10
195.4083500748
 20
59.0919535746
 10
195.1205881068
 20
58.2180382749
 10
194.8854880346
 20
57.3217939424
 10
194.7085607088
 20
56.424228123
 10
194.5939526327
 20
55.546378417
 10
194.5443507752
 20
54.7088216542
 10
194.5609170845
 20
53.9311885754
 10
194.6432635685
 20
53.2317068482
 10
194.7894604079
 20
52.6267717011
 10
194.9960802903
 20
52.1305618383
 10
195.2582807027
 20
51.7547087686
 10
195.5699154897
 20
51.508021309
 10
195.9236804598
 20
51.3962820368
 10
196.311283693
 20
51.4221104276
 10
196.7236398992
 20
51.5849002928
 10
197.1510839009
 20
51.8808360207
 10
197.5835967928
 20
52.3029818625
 10
198.0110407945
 20
52.8414430337
 10
198.4233970007
 20
53.4835977657
 10
198.8110002339
 20
54.2143946511
 10
199.164765204
 20
55.0167048354
 10
199.476399991
 20
55.8717225065
 10
199.7386004034
 20
56.7594068573
 10
199.9452202858
 20
57.6589513991
 10
200.0914171253
 20
58.5492717405
 10
200.1737636092
 20
59.4094988532
 10
200.1903299185
 20
60.2194703836
 10
200.1407280611
 20
60.9602012794
 10
200.026119985
 20
61.6143289939
 10
199.8491926591
 20
62.1665218254
 10
199.6140925869
 20
62.6038364022
 10
199.3263306189
 20
62.9160226969
 10
198.9926517048
 20
63.0957636011
 10
198.6208766831
 20
63.1388453329
 10
198.2197199476
 20
63.044258878
 10
197.7985841509
 20
62.8142208764
 10
197.3673403469
 20
62.4541230849
  0
LINE
  5
322
330
1F
100
AcDbEntity
  8
0
  6
SLD-Durchgehend
 62
     7
370
    15
100
AcDbLine
 10
191.9239922608
 20
58.4091596864
 30
0.0
 11
190.5270651311
 21
58.3644434524
 31
0.0
  0
LINE
  5
323
330
1F
100
AcDbEntity
  8
0
  6
SLD-Durchgehend
 62
     7
370
    15
100
AcDbLine
 10
191.9239922608
 20
58.6450637695
 30
0.0
 11
191.9239922608
 21
58.4091596864
 31
0.0
  0
LINE
  5
324
330
1F
100
AcDbEntity
  8
0
  6
SLD-Durchgehend
 62
     7
370
    15
100
AcDbLine
 10
190.5270651311
 20
59.4516538635
 30
0.0
 11
191.9239922608
 21
58.6450637695
 31
0.0
  0
LINE
  5
325
330
1F
100
AcDbEntity
  8
0
  6
SLD-Durchgehend
 62
     7
370
    15
100
AcDbLine
 10
191.9239922608
 20
59.0719990021
 30
0.0
 11
190.5270651311
 21
59.4516538635
 31
0.0
  0
LINE
  5
326
330
1F
100
AcDbEntity
  8
0
  6
SLD-Durchgehend
 62
     7
370
    15
100
AcDbLine
 10
191.9239922608
 20
59.2976465363
 30
0.0
 11
191.9239922608
 21
59.0719990021
 31
0.0
  0
LINE
  5
327
330
1F
100
AcDbEntity
  8
0
  6
SLD-Durchgehend
 62
     7
370
    15
100
AcDbLine
 10
190.2730783553
 20
59.746329561
 30
0.0
 11
191.9239922608
 21
59.2976465363
 31
0.0
  0
LINE
  5
328
330
1F
100
AcDbEntity
  8
0
  6
SLD-Durchgehend
 62
     7
370
    15
100
AcDbLine
 10
190.2730783553
 20
59.4097814957
 30
0.0
 11
190.2730783553
 21
59.746329561
 31
0.0
  0
LINE
  5
329
330
1F
100
AcDbEntity
  8
0
  6
SLD-Durchgehend
 62
     7
370
    15
100
AcDbLine
 10
191.4117195189
 20
58.7461465838
 30
0.0
 11
190.2730783553
 21
59.4097814957
 31
0.0
  0
SPLINE
  5
32A
330
1F
100
AcDbEntity
  8
0
  6
SLD-Durchgehend
 62
     7
370
    15
100
AcDbSpline
210
0.0
220
0.0
230
1.0
 70
     8
 71
     3
 72
    15
 73
    11
 74
     0
 42
0.000000001
 43
0.00000001
 40
0.0
 40
0.0
 40
0.0
 40
0.0
 40
0.0892047702332469
 40
0.1898334556643503
 40
0.2992325919749821
 40
0.4192609378429081
 40
0.5492073901909383
 40
0.6890743636843499
 40
0.839579197948318
 40
1.0
 40
1.0
 40
1.0
 40
1.0
 10
191.6739739990436
 20
58.59634343975917
 30
0.0
 10
191.6661440683383
 20
58.60070514141925
 30
0.0
 10
191.6494814750765
 20
58.60998712148093
 30
0.0
 10
191.6232824034625
 20
58.62481356075569
 30
0.0
 10
191.5942901826569
 20
58.64089252748541
 30
0.0
 10
191.5630031416553
 20
58.65920796580699
 30
0.0
 10
191.52893048499
 20
58.67869633586182
 30
0.0
 10
191.4921005089019
 20
58.69944171092901
 30
0.0
 10
191.4528809165327
 20
58.72248426516526
 30
0.0
 10
191.4257285899282
 20
58.73809314661621
 30
0.0
 10
191.4117194587962
 20
58.74614648474285
 30
0.0
  0
SPLINE
  5
32B
330
1F
100
AcDbEntity
  8
0
  6
SLD-Durchgehend
 62
     7
370
    15
100
AcDbSpline
210
0.0
220
0.0
230
1.0
 70
     8
 71
     3
 72
    15
 73
    11
 74
     0
 42
0.000000001
 43
0.00000001
 40
0.0
 40
0.0
 40
0.0
 40
0.0
 40
0.162525521704188
 40
0.3143148980392373
 40
0.4549784905465745
 40
0.5845192373661985
 40
0.704567103309073
 40
0.8134949897289302
 40
0.9116812596826065
 40
1.0
 40
1.0
 40
1.0
 40
1.0
 10
191.4315621730646
 20
58.5901083386383
 30
0.0
 10
191.4446857755982
 20
58.59047815598361
 30
0.0
 10
191.470066058947
 20
58.59119336120164
 30
0.0
 10
191.506717523497
 20
58.59252148747856
 30
0.0
 10
191.5407768443449
 20
58.5935361814746
 30
0.0
 10
191.5723524341056
 20
58.59420552462548
 30
0.0
 10
191.6012875214194
 20
58.59507179294392
 30
0.0
 10
191.6278195400192
 20
58.59541994078094
 30
0.0
 10
191.651653660197
 20
58.59616897031422
 30
0.0
 10
191.6668010228864
 20
58.59628737138237
 30
0.0
 10
191.6739739990436
 20
58.59634343975917
 30
0.0
  0
LINE
  5
32C
330
1F
100
AcDbEntity
  8
0
  6
SLD-Durchgehend
 62
     7
370
    15
100
AcDbLine
 10
190.2730783553
 20
58.5472569343
 30
0.0
 11
191.43156221
 21
58.5901084424
 31
0.0
  0
LINE
  5
32D
330
1F
100
AcDbEntity
  8
0
  6
SLD-Durchgehend
 62
     7
370
    15
100
AcDbLine
 10
190.2730783553
 20
58.2078242146
 30
0.0
 11
190.2730783553
 21
58.5472569343
 31
0.0
  0
LINE
  5
32E
330
1F
100
AcDbEntity
  8
0
  6
SLD-Durchgehend
 62
     7
370
    15
100
AcDbLine
 10
191.9239922608
 20
57.7591411899
 30
0.0
 11
190.2730783553
 21
58.2078242146
 31
0.0
  0
LINE
  5
32F
330
1F
100
AcDbEntity
  8
0
  6
SLD-Durchgehend
 62
     7
370
    15
100
AcDbLine
 10
191.9239922608
 20
57.984788591
 30
0.0
 11
191.9239922608
 21
57.7591411899
 31
0.0
  0
LINE
  5
330
330
1F
100
AcDbEntity
  8
0
  6
SLD-Durchgehend
 62
     7
370
    15
100
AcDbLine
 10
190.5270651311
 20
58.3644434524
 30
0.0
 11
191.9239922608
 21
57.984788591
 31
0.0
  0
LINE
  5
331
330
1F
100
AcDbEntity
  8
0
  6
SLD-Durchgehend
 62
     7
370
    15
100
AcDbLine
 10
190.2730783553
 20
56.0539166232
 30
0.0
 11
191.3935302252
 21
55.7494018133
 31
0.0
  0
LINE
  5
332
330
1F
100
AcDbEntity
  8
0
  6
SLD-Durchgehend
 62
     7
370
    15
100
AcDbLine
 10
190.2730783553
 20
55.8282691555
 30
0.0
 11
190.2730783553
 21
56.0539166232
 31
0.0
  0
LINE
  5
333
330
1F
100
AcDbEntity
  8
0
  6
SLD-Durchgehend
 62
     7
370
    15
100
AcDbLine
 10
191.4084124495
 20
55.519709676
 30
0.0
 11
190.2730783553
 21
55.8282691555
 31
0.0
  0
SPLINE
  5
334
330
1F
100
AcDbEntity
  8
0
  6
SLD-Durchgehend
 62
     7
370
    15
100
AcDbSpline
210
0.0
220
0.0
230
1.0
 70
     8
 71
     3
 72
    23
 73
    19
 74
     0
 42
0.000000001
 43
0.00000001
 40
0.0
 40
0.0
 40
0.0
 40
0.0
 40
0.0735942393366706
 40
0.1438030845726419
 40
0.2113146183744807
 40
0.2791715203726297
 40
0.3469047428464689
 40
0.4137163819362349
 40
0.4817116873952845
 40
0.5518807121997042
 40
0.5909583408062428
 40
0.6345771578211139
 40
0.6828680236044947
 40
0.7359272416396799
 40
0.7945945955668134
 40
0.8581034315720175
 40
0.9265716693605601
 40
1.0
 40
1.0
 40
1.0
 40
1.0
 10
191.7546677037351
 20
55.22015030081392
 30
0.0
 10
191.7542861725638
 20
55.23130359132181
 30
0.0
 10
191.7535406609616
 20
55.25309711201891
 30
0.0
 10
191.7458785513498
 20
55.28614912300348
 30
0.0
 10
191.734382706367
 20
55.31812965649975
 30
0.0
 10
191.7175970670632
 20
55.34861828659995
 30
0.0
 10
191.6971722225891
 20
55.37728472186512
 30
0.0
 10
191.673069629402
 20
55.40349781725727
 30
0.0
 10
191.6452147195394
 20
55.42604578714298
 30
0.0
 10
191.6194970337413
 20
55.44246850747815
 30
0.0
 10
191.5966070535946
 20
55.45447591560067
 30
0.0
 10
191.5767220454017
 20
55.46366712955623
 30
0.0
 10
191.5545381741181
 20
55.47288877926163
 30
0.0
 10
191.5299164028148
 20
55.48199184073525
 30
0.0
 10
191.5029281679088
 20
55.49177480001622
 30
0.0
 10
191.4734554966043
 20
55.50076285591257
 30
0.0
 10
191.4417130413297
 20
55.51052973437437
 30
0.0
 10
191.4197682718179
 20
55.51657920117009
 30
0.0
 10
191.4084123397514
 20
55.51970966621931
 30
0.0
  0
SPLINE
  5
335
330
1F
100
AcDbEntity
  8
0
  6
SLD-Durchgehend
 62
     7
370
    15
100
AcDbSpline
210
0.0
220
0.0
230
1.0
 70
     8
 71
     3
 72
    23
 73
    19
 74
     0
 42
0.000000001
 43
0.00000001
 40
0.0
 40
0.0
 40
0.0
 40
0.0
 40
0.1020387126976406
 40
0.1951973892471023
 40
0.281231403879794
 40
0.3595173299923871
 40
0.4303435542093529
 40
0.4943707912330118
 40
0.5526181939787066
 40
0.6049018278419167
 40
0.6542752933478336
 40
0.7020598373927016
 40
0.7494496649684047
 40
0.7970865736118664
 40
0.8446124547373409
 40
0.8944120716984691
 40
0.9455549583006415
 40
1.0
 40
1.0
 40
1.0
 40
1.0
 10
191.4371842754406
 20
55.10162196086922
 30
0.0
 10
191.4518549153486
 20
55.09824445590673
 30
0.0
 10
191.4799194658796
 20
55.09178337722966
 30
0.0
 10
191.5202099759
 20
55.08469989422351
 30
0.0
 10
191.5568551857928
 20
55.08013820403684
 30
0.0
 10
191.5899889238303
 20
55.07781735517644
 30
0.0
 10
191.6196341879871
 20
55.07754734455656
 30
0.0
 10
191.6455518046575
 20
55.08027349130228
 30
0.0
 10
191.6682863119317
 20
55.08461695478839
 30
0.0
 10
191.6871304994098
 20
55.09243271903636
 30
0.0
 10
191.7032357244962
 20
55.10192657818175
 30
0.0
 10
191.716910581128
 20
55.11346926254018
 30
0.0
 10
191.728563411017
 20
55.12675294515872
 30
0.0
 10
191.7381895510767
 20
55.14174610512998
 30
0.0
 10
191.7455732312945
 20
55.15870550864307
 30
0.0
 10
191.7507021937485
 20
55.17743733604159
 30
0.0
 10
191.7542528492944
 20
55.19792365415108
 30
0.0
 10
191.7545265655226
 20
55.2125885421064
 30
0.0
 10
191.7546677037351
 20
55.22015030081392
 30
0.0
  0
LINE
  5
336
330
1F
100
AcDbEntity
  8
0
  6
SLD-Durchgehend
 62
     7
370
    15
100
AcDbLine
 10
191.4633106256
 20
54.8688739857
 30
0.0
 11
191.4371843653
 21
55.1016219446
 31
0.0
  0
SPLINE
  5
337
330
1F
100
AcDbEntity
  8
0
  6
SLD-Durchgehend
 62
     7
370
    15
100
AcDbSpline
210
0.0
220
0.0
230
1.0
 70
     8
 71
     3
 72
    23
 73
    19
 74
     0
 42
0.000000001
 43
0.00000001
 40
0.0
 40
0.0
 40
0.0
 40
0.0
 40
0.0693843382785907
 40
0.135152861728727
 40
0.1977357094633067
 40
0.2570484274319894
 40
0.3145896101412935
 40
0.370543527787568
 40
0.4258333542160398
 40
0.4811588952832258
 40
0.537040396648158
 40
0.5941387561101027
 40
0.6529749918449916
 40
0.7146821562126677
 40
0.7797896120230365
 40
0.8486208732548068
 40
0.9222174324246378
 40
1.0
 40
1.0
 40
1.0
 40
1.0
 10
191.9451577607118
 20
55.1590840481746
 30
0.0
 10
191.9447816659772
 20
55.14250112405531
 30
0.0
 10
191.9440490758723
 20
55.11019945906637
 30
0.0
 10
191.9382254956325
 20
55.06453156947364
 30
0.0
 10
191.9294671594554
 20
55.02251129658983
 30
0.0
 10
191.9153793033575
 20
54.98534156778954
 30
0.0
 10
191.8988962572753
 20
54.95139311528798
 30
0.0
 10
191.8777119110023
 20
54.922036530592
 30
0.0
 10
191.8532696499728
 20
54.89627848261603
 30
0.0
 10
191.8245215822431
 20
54.87522410738728
 30
0.0
 10
191.7924015870362
 20
54.85792304335146
 30
0.0
 10
191.7559087775406
 20
54.84631657495331
 30
0.0
 10
191.7163634912615
 20
54.8380421336625
 30
0.0
 10
191.6726642654353
 20
54.83555794345033
 30
0.0
 10
191.625621549406
 20
54.83656355068056
 30
0.0
 10
191.574635132881
 20
54.84313444384295
 30
0.0
 10
191.5201819753998
 20
54.85314785729713
 30
0.0
 10
191.482613952078
 20
54.86353616373461
 30
0.0
 10
191.4633105158941
 20
54.86887394817582
 30
0.0
  0
SPLINE
  5
338
330
1F
100
AcDbEntity
  8
0
  6
SLD-Durchgehend
 62
     7
370
    15
100
AcDbSpline
210
0.0
220
0.0
230
1.0
 70
     8
 71
     3
 72
    23
 73
    19
 74
     0
 42
0.000000001
 43
0.00000001
 40
0.0
 40
0.0
 40
0.0
 40
0.0
 40
0.061211027179311
 40
0.1184594960739765
 40
0.1726331058914159
 40
0.2237768589706947
 40
0.2712457424507515
 40
0.3159764808950315
 40
0.3576308604522536
 40
0.3965150371727528
 40
0.4698251775330551
 40
0.540534635237423
 40
0.6117536143254618
 40
0.6843458494326412
 40
0.7589299383044529
 40
0.8352216862935904
 40
0.9153235255430702
 40
1.0
 40
1.0
 40
1.0
 40
1.0
 10
191.3935303040502
 20
55.74940174499525
 30
0.0
 10
191.4102889161302
 20
55.74475493445878
 30
0.0
 10
191.442721254442
 20
55.73576212940603
 30
0.0
 10
191.489943844193
 20
55.72067858385223
 30
0.0
 10
191.5342725155007
 20
55.70471870230338
 30
0.0
 10
191.5758045222218
 20
55.68851665643182
 30
0.0
 10
191.6144520881796
 20
55.67127173463115
 30
0.0
 10
191.6500862879635
 20
55.65324751139149
 30
0.0
 10
191.6829964641861
 20
55.63485236107752
 30
0.0
 10
191.7222751773925
 20
55.60934362542878
 30
0.0
 10
191.7668375444219
 20
55.57464759339435
 30
0.0
 10
191.8140993170871
 20
55.52724388569173
 30
0.0
 10
191.854417051723
 20
55.47451660338398
 30
0.0
 10
191.8876000379404
 20
55.41699111870776
 30
0.0
 10
191.9132087894681
 20
55.35595093037797
 30
0.0
 10
191.9318019491537
 20
55.29217654895033
 30
0.0
 10
191.9433080824795
 20
55.22582315942294
 30
0.0
 10
191.9445298945051
 20
55.18173838441928
 30
0.0
 10
191.9451577607118
 20
55.1590840481746
 30
0.0
  0
LINE
  5
339
330
1F
100
AcDbEntity
  8
0
  6
SLD-Durchgehend
 62
     7
370
    15
100
AcDbLine
 10
188.204351989
 20
62.3238356117
 30
0.0
 11
188.204351989
 21
52.1776713168
 31
0.0
  0
LINE
  5
33A
330
1F
100
AcDbEntity
  8
0
  6
SLD-Durchgehend
 62
     7
370
    15
100
AcDbLine
 10
190.2730783553
 20
54.9461927152
 30
0.0
 11
191.3935302252
 21
54.6416779053
 31
0.0
  0
LINE
  5
33B
330
1F
100
AcDbEntity
  8
0
  6
SLD-Durchgehend
 62
     7
370
    15
100
AcDbLine
 10
190.2730783553
 20
54.7205453141
 30
0.0
 11
190.2730783553
 21
54.9461927152
 31
0.0
  0
LINE
  5
33C
330
1F
100
AcDbEntity
  8
0
  6
SLD-Durchgehend
 62
     7
370
    15
100
AcDbLine
 10
191.4084124495
 20
54.4119858345
 30
0.0
 11
190.2730783553
 21
54.7205453141
 31
0.0
  0
SPLINE
  5
33D
330
1F
100
AcDbEntity
  8
0
  6
SLD-Durchgehend
 62
     7
370
    15
100
AcDbSpline
210
0.0
220
0.0
230
1.0
 70
     8
 71
     3
 72
    23
 73
    19
 74
     0
 42
0.000000001
 43
0.00000001
 40
0.0
 40
0.0
 40
0.0
 40
0.0
 40
0.0735942393366713
 40
0.143803084572642
 40
0.211314618374481
 40
0.2791715203726298
 40
0.3469047428464695
 40
0.4137163819362348
 40
0.4817116873952855
 40
0.5518807121997042
 40
0.590958340806243
 40
0.6345771578211149
 40
0.6828680236044956
 40
0.7359272416396799
 40
0.7945945955668134
 40
0.8581034315720175
 40
0.9265716693605601
 40
1.0
 40
1.0
 40
1.0
 40
1.0
 10
191.7546677037351
 20
54.11242640452193
 30
0.0
 10
191.7542861725638
 20
54.12357969502983
 30
0.0
 10
191.7535406609616
 20
54.14537321572692
 30
0.0
 10
191.7458785513498
 20
54.17842522671148
 30
0.0
 10
191.734382706367
 20
54.21040576020777
 30
0.0
 10
191.7175970670632
 20
54.24089439030796
 30
0.0
 10
191.6971722225891
 20
54.26956082557314
 30
0.0
 10
191.673069629402
 20
54.29577392096527
 30
0.0
 10
191.6452147195394
 20
54.318321890851
 30
0.0
 10
191.6194970337413
 20
54.33474461118616
 30
0.0
 10
191.5966070535946
 20
54.34675201930868
 30
0.0
 10
191.5767220454017
 20
54.35594323326424
 30
0.0
 10
191.5545381741181
 20
54.36516488296964
 30
0.0
 10
191.5299164028149
 20
54.37426794444325
 30
0.0
 10
191.5029281679088
 20
54.38405090372422
 30
0.0
 10
191.4734554966043
 20
54.39303895962058
 30
0.0
 10
191.4417130413297
 20
54.40280583808238
 30
0.0
 10
191.4197682718179
 20
54.4088553048781
 30
0.0
 10
191.4084123397514
 20
54.41198576992732
 30
0.0
  0
SPLINE
  5
33E
330
1F
100
AcDbEntity
  8
0
  6
SLD-Durchgehend
 62
     7
370
    15
100
AcDbSpline
210
0.0
220
0.0
230
1.0
 70
     8
 71
     3
 72
    23
 73
    19
 74
     0
 42
0.000000001
 43
0.00000001
 40
0.0
 40
0.0
 40
0.0
 40
0.0
 40
0.1020387126976417
 40
0.1951973892471033
 40
0.2812314038797938
 40
0.3595173299923883
 40
0.4303435542093529
 40
0.4943707912330124
 40
0.5526181939787072
 40
0.604901827841918
 40
0.6542752933478344
 40
0.702059837392702
 40
0.7494496649684055
 40
0.7970865736118666
 40
0.844612454737341
 40
0.8944120716984701
 40
0.9455549583006428
 40
1.0
 40
1.0
 40
1.0
 40
1.0
 10
191.4371842754406
 20
53.99389806457723
 30
0.0
 10
191.4518549153486
 20
53.99052055961474
 30
0.0
 10
191.4799194658796
 20
53.98405948093768
 30
0.0
 10
191.5202099759001
 20
53.97697599793152
 30
0.0
 10
191.5568551857928
 20
53.97241430774485
 30
0.0
 10
191.5899889238303
 20
53.97009345888446
 30
0.0
 10
191.6196341879871
 20
53.96982344826456
 30
0.0
 10
191.6455518046575
 20
53.97254959501029
 30
0.0
 10
191.6682863119317
 20
53.97689305849642
 30
0.0
 10
191.6871304994099
 20
53.98470882274438
 30
0.0
 10
191.7032357244962
 20
53.99420268188977
 30
0.0
 10
191.716910581128
 20
54.00574536624818
 30
0.0
 10
191.728563411017
 20
54.01902904886673
 30
0.0
 10
191.7381895510767
 20
54.03402220883799
 30
0.0
 10
191.7455732312945
 20
54.05098161235108
 30
0.0
 10
191.7507021937485
 20
54.0697134397496
 30
0.0
 10
191.7542528492944
 20
54.09019975785909
 30
0.0
 10
191.7545265655226
 20
54.1048646458144
 30
0.0
 10
191.7546677037351
 20
54.11242640452193
 30
0.0
  0
LINE
  5
33F
330
1F
100
AcDbEntity
  8
0
  6
SLD-Durchgehend
 62
     7
370
    15
100
AcDbLine
 10
191.4633106256
 20
53.7611500777
 30
0.0
 11
191.4371843653
 21
53.9938981697
 31
0.0
  0
SPLINE
  5
340
330
1F
100
AcDbEntity
  8
0
  6
SLD-Durchgehend
 62
     7
370
    15
100
AcDbSpline
210
0.0
220
0.0
230
1.0
 70
     8
 71
     3
 72
    23
 73
    19
 74
     0
 42
0.000000001
 43
0.00000001
 40
0.0
 40
0.0
 40
0.0
 40
0.0
 40
0.0693843382785905
 40
0.1351528617287274
 40
0.1977357094633055
 40
0.2570484274319889
 40
0.3145896101412935
 40
0.3705435277875682
 40
0.4258333542160394
 40
0.4811588952832255
 40
0.5370403966481584
 40
0.5941387561101027
 40
0.6529749918449912
 40
0.7146821562126674
 40
0.7797896120230363
 40
0.8486208732548063
 40
0.9222174324246378
 40
1.0
 40
1.0
 40
1.0
 40
1.0
 10
191.9451577607118
 20
54.05136015188261
 30
0.0
 10
191.9447816659772
 20
54.03477722776331
 30
0.0
 10
191.9440490758723
 20
54.00247556277439
 30
0.0
 10
191.9382254956325
 20
53.95680767318165
 30
0.0
 10
191.9294671594554
 20
53.91478740029784
 30
0.0
 10
191.9153793033575
 20
53.87761767149755
 30
0.0
 10
191.8988962572753
 20
53.84366921899598
 30
0.0
 10
191.8777119110023
 20
53.8143126343
 30
0.0
 10
191.8532696499728
 20
53.78855458632405
 30
0.0
 10
191.8245215822431
 20
53.76750021109529
 30
0.0
 10
191.7924015870362
 20
53.75019914705948
 30
0.0
 10
191.7559087775406
 20
53.73859267866132
 30
0.0
 10
191.7163634912615
 20
53.73031823737051
 30
0.0
 10
191.6726642654353
 20
53.72783404715833
 30
0.0
 10
191.625621549406
 20
53.72883965438857
 30
0.0
 10
191.574635132881
 20
53.73541054755096
 30
0.0
 10
191.5201819753998
 20
53.74542396100515
 30
0.0
 10
191.482613952078
 20
53.75581226744261
 30
0.0
 10
191.4633105158941
 20
53.76115005188384
 30
0.0
  0
SPLINE
  5
341
330
1F
100
AcDbEntity
  8
0
  6
SLD-Durchgehend
 62
     7
370
    15
100
AcDbSpline
210
0.0
220
0.0
230
1.0
 70
     8
 71
     3
 72
    23
 73
    19
 74
     0
 42
0.000000001
 43
0.00000001
 40
0.0
 40
0.0
 40
0.0
 40
0.0
 40
0.061211027179311
 40
0.1184594960739765
 40
0.1726331058914153
 40
0.2237768589706947
 40
0.2712457424507515
 40
0.3159764808950316
 40
0.3576308604522536
 40
0.3965150371727528
 40
0.4698251775330552
 40
0.5405346352374231
 40
0.6117536143254619
 40
0.6843458494326415
 40
0.7589299383044531
 40
0.8352216862935908
 40
0.91532352554307
 40
1.0
 40
1.0
 40
1.0
 40
1.0
 10
191.3935303040502
 20
54.64167784870326
 30
0.0
 10
191.4102889161302
 20
54.63703103816679
 30
0.0
 10
191.442721254442
 20
54.62803823311405
 30
0.0
 10
191.489943844193
 20
54.61295468756024
 30
0.0
 10
191.5342725155007
 20
54.59699480601139
 30
0.0
 10
191.5758045222218
 20
54.58079276013983
 30
0.0
 10
191.6144520881796
 20
54.56354783833916
 30
0.0
 10
191.6500862879635
 20
54.54552361509951
 30
0.0
 10
191.6829964641861
 20
54.52712846478553
 30
0.0
 10
191.7222751773925
 20
54.50161972913679
 30
0.0
 10
191.7668375444219
 20
54.46692369710236
 30
0.0
 10
191.8140993170871
 20
54.41951998939975
 30
0.0
 10
191.854417051723
 20
54.366792707092
 30
0.0
 10
191.8876000379404
 20
54.30926722241577
 30
0.0
 10
191.9132087894681
 20
54.24822703408598
 30
0.0
 10
191.9318019491537
 20
54.18445265265834
 30
0.0
 10
191.9433080824795
 20
54.11809926313095
 30
0.0
 10
191.9445298945051
 20
54.07401448812729
 30
0.0
 10
191.9451577607118
 20
54.05136015188261
 30
0.0
  0
LINE
  5
342
330
1F
100
AcDbEntity
  8
0
  6
SLD-Durchgehend
 62
     7
370
    15
100
AcDbLine
 10
191.9239922608
 20
56.5834666146
 30
0.0
 11
190.5270651311
 21
56.5387504138
 31
0.0
  0
LINE
  5
343
330
1F
100
AcDbEntity
  8
0
  6
SLD-Durchgehend
 62
     7
370
    15
100
AcDbLine
 10
191.9239922608
 20
56.8193707974
 30
0.0
 11
191.9239922608
 21
56.5834666146
 31
0.0
  0
LINE
  5
344
330
1F
100
AcDbEntity
  8
0
  6
SLD-Durchgehend
 62
     7
370
    15
100
AcDbLine
 10
190.5270651311
 20
57.6259608914
 30
0.0
 11
191.9239922608
 21
56.8193707974
 31
0.0
  0
LINE
  5
345
330
1F
100
AcDbEntity
  8
0
  6
SLD-Durchgehend
 62
     7
370
    15
100
AcDbLine
 10
191.9239922608
 20
57.2463060301
 30
0.0
 11
190.5270651311
 21
57.6259608914
 31
0.0
  0
LINE
  5
346
330
1F
100
AcDbEntity
  8
0
  6
SLD-Durchgehend
 62
     7
370
    15
100
AcDbLine
 10
191.9239922608
 20
57.4719535642
 30
0.0
 11
191.9239922608
 21
57.2463060301
 31
0.0
  0
LINE
  5
347
330
1F
100
AcDbEntity
  8
0
  6
SLD-Durchgehend
 62
     7
370
    15
100
AcDbLine
 10
190.2730783553
 20
57.920636589
 30
0.0
 11
191.9239922608
 21
57.4719535642
 31
0.0
  0
LINE
  5
348
330
1F
100
AcDbEntity
  8
0
  6
SLD-Durchgehend
 62
     7
370
    15
100
AcDbLine
 10
190.2730783553
 20
57.5840884571
 30
0.0
 11
190.2730783553
 21
57.920636589
 31
0.0
  0
LINE
  5
349
330
1F
100
AcDbEntity
  8
0
  6
SLD-Durchgehend
 62
     7
370
    15
100
AcDbLine
 10
191.4117195189
 20
56.9204534455
 30
0.0
 11
190.2730783553
 21
57.5840884571
 31
0.0
  0
SPLINE
  5
34A
330
1F
100
AcDbEntity
  8
0
  6
SLD-Durchgehend
 62
     7
370
    15
100
AcDbSpline
210
0.0
220
0.0
230
1.0
 70
     8
 71
     3
 72
    15
 73
    11
 74
     0
 42
0.000000001
 43
0.00000001
 40
0.0
 40
0.0
 40
0.0
 40
0.0
 40
0.0892047702332446
 40
0.1898334556643483
 40
0.2992325919749799
 40
0.4192609378429059
 40
0.5492073901909375
 40
0.6890743636843486
 40
0.8395791979483176
 40
1.0
 40
1.0
 40
1.0
 40
1.0
 10
191.6739739990436
 20
56.77065035142608
 30
0.0
 10
191.6661440683383
 20
56.77501205308616
 30
0.0
 10
191.6494814750765
 20
56.78429403314784
 30
0.0
 10
191.6232824034625
 20
56.79912047242259
 30
0.0
 10
191.5942901826569
 20
56.81519943915232
 30
0.0
 10
191.5630031416553
 20
56.8335148774739
 30
0.0
 10
191.52893048499
 20
56.85300324752872
 30
0.0
 10
191.4921005089019
 20
56.87374862259591
 30
0.0
 10
191.4528809165328
 20
56.89679117683216
 30
0.0
 10
191.4257285899282
 20
56.91240005828312
 30
0.0
 10
191.4117194587962
 20
56.92045339640975
 30
0.0
  0
SPLINE
  5
34B
330
1F
100
AcDbEntity
  8
0
  6
SLD-Durchgehend
 62
     7
370
    15
100
AcDbSpline
210
0.0
220
0.0
230
1.0
 70
     8
 71
     3
 72
    15
 73
    11
 74
     0
 42
0.000000001
 43
0.00000001
 40
0.0
 40
0.0
 40
0.0
 40
0.0
 40
0.1625255217041867
 40
0.3143148980392358
 40
0.4549784905465752
 40
0.5845192373661994
 40
0.7045671033090737
 40
0.8134949897289292
 40
0.9116812596826074
 40
1.0
 40
1.0
 40
1.0
 40
1.0
 10
191.4315621730646
 20
56.76441525030521
 30
0.0
 10
191.4446857755982
 20
56.76478506765051
 30
0.0
 10
191.4700660589471
 20
56.76550027286854
 30
0.0
 10
191.5067175234971
 20
56.76682839914547
 30
0.0
 10
191.5407768443449
 20
56.76784309314149
 30
0.0
 10
191.5723524341056
 20
56.76851243629238
 30
0.0
 10
191.6012875214194
 20
56.76937870461082
 30
0.0
 10
191.6278195400192
 20
56.76972685244784
 30
0.0
 10
191.651653660197
 20
56.77047588198113
 30
0.0
 10
191.6668010228864
 20
56.77059428304927
 30
0.0
 10
191.6739739990436
 20
56.77065035142608
 30
0.0
  0
LINE
  5
34C
330
1F
100
AcDbEntity
  8
0
  6
SLD-Durchgehend
 62
     7
370
    15
100
AcDbLine
 10
190.2730783553
 20
56.7215638749
 30
0.0
 11
191.43156221
 21
56.764415304
 31
0.0
  0
LINE
  5
34D
330
1F
100
AcDbEntity
  8
0
  6
SLD-Durchgehend
 62
     7
370
    15
100
AcDbLine
 10
190.2730783553
 20
56.3821311095
 30
0.0
 11
190.2730783553
 21
56.7215638749
 31
0.0
  0
LINE
  5
34E
330
1F
100
AcDbEntity
  8
0
  6
SLD-Durchgehend
 62
     7
370
    15
100
AcDbLine
 10
191.9239922608
 20
55.9334480848
 30
0.0
 11
190.2730783553
 21
56.3821311095
 31
0.0
  0
LINE
  5
34F
330
1F
100
AcDbEntity
  8
0
  6
SLD-Durchgehend
 62
     7
370
    15
100
AcDbLine
 10
191.9239922608
 20
56.1590955524
 30
0.0
 11
191.9239922608
 21
55.9334480848
 31
0.0
  0
LINE
  5
350
330
1F
100
AcDbEntity
  8
0
  6
SLD-Durchgehend
 62
     7
370
    15
100
AcDbLine
 10
190.5270651311
 20
56.5387504138
 30
0.0
 11
191.9239922608
 21
56.1590955524
 31
0.0
  0
LWPOLYLINE
  5
351
330
1F
100
AcDbEntity
  8
0
  6
SLD-Durchgehend
 62
     7
370
    15
100
AcDbPolyline
 90
       22
 70
   128
 43
0.0
 10
178.8087936624
 20
72.6504975139
 10
178.5173923482
 20
72.4881344679
 10
177.9960169713
 20
72.1002287895
 10
177.4704977353
 20
71.5873059046
 10
176.9491223584
 20
70.9574548804
 10
176.4401133626
 20
70.2206090856
 10
175.9514979334
 20
69.3883888345
 10
175.490981946
 20
68.4739188259
 10
175.0658280108
 20
67.4916207675
 10
174.6827409456
 20
66.4569861048
 10
174.3477623012
 20
65.3863315109
 10
174.0661750301
 20
64.296542188
 10
173.8424197445
 20
63.2048043958
 10
173.6800254636
 20
62.1283356222
 10
173.5815531095
 20
61.0841125627
 10
173.5485552305
 20
60.0886026971
 10
173.5815531095
 20
59.1575067146
 10
173.6800254636
 20
58.3055077278
 10
173.8424197445
 20
57.5460425474
 10
174.0661750301
 20
56.8910887917
 10
174.3477623012
 20
56.350975087
 10
174.3697848409
 20
56.3173152652
  0
LINE
  5
352
330
1F
100
AcDbEntity
  8
0
  6
SLD-Durchgehend
 62
     7
370
    15
100
AcDbLine
 10
191.9239921745
 20
57.8367873232
 30
0.0
 11
190.3353043014
 21
58.2685586457
 31
0.0
  0
LINE
  5
353
330
1F
100
AcDbEntity
  8
0
  6
SLD-Durchgehend
 62
     7
370
    15
100
AcDbLine
 10
190.3353043014
 20
58.2685586457
 30
0.0
 11
190.3353043014
 21
58.5495585207
 31
0.0
  0
SPLINE
  5
354
330
1F
100
AcDbEntity
  8
0
  6
SLD-Durchgehend
 62
     7
370
    15
100
AcDbSpline
210
0.0
220
0.0
230
1.0
 70
     8
 71
     3
 72
    15
 73
    11
 74
     0
 42
0.000000001
 43
0.00000001
 40
0.0
 40
0.0
 40
0.0
 40
0.0
 40
0.0892047702332469
 40
0.1898334556643503
 40
0.2992325919749821
 40
0.4192609378429081
 40
0.5492073901909383
 40
0.6890743636843499
 40
0.839579197948318
 40
1.0
 40
1.0
 40
1.0
 40
1.0
 10
191.7362000509009
 20
58.65707797399973
 30
0.0
 10
191.7283701201956
 20
58.66143967565982
 30
0.0
 10
191.7117075269338
 20
58.6707216557215
 30
0.0
 10
191.6855084553198
 20
58.68554809499626
 30
0.0
 10
191.6565162345143
 20
58.70162706172598
 30
0.0
 10
191.6252291935126
 20
58.71994250004757
 30
0.0
 10
191.5911565368474
 20
58.73943087010238
 30
0.0
 10
191.5543265607593
 20
58.76017624516957
 30
0.0
 10
191.5151069683901
 20
58.78321879940583
 30
0.0
 10
191.4879546417856
 20
58.79882768085678
 30
0.0
 10
191.4739455106535
 20
58.80688101898342
 30
0.0
  0
LINE
  5
355
330
1F
100
AcDbEntity
  8
0
  6
SLD-Durchgehend
 62
     7
370
    15
100
AcDbLine
 10
191.4739454651
 20
58.8068810149
 30
0.0
 11
190.3353043014
 21
59.4705159268
 31
0.0
  0
LINE
  5
356
330
1F
100
AcDbEntity
  8
0
  6
SLD-Durchgehend
 62
     7
370
    15
100
AcDbLine
 10
190.3353043014
 20
59.4705159268
 30
0.0
 11
190.3353043014
 21
59.7294176809
 31
0.0
  0
LINE
  5
357
330
1F
100
AcDbEntity
  8
0
  6
SLD-Durchgehend
 62
     7
370
    15
100
AcDbLine
 10
191.9239921745
 20
59.1496451355
 30
0.0
 11
190.5892910772
 21
59.5123882945
 31
0.0
  0
LINE
  5
358
330
1F
100
AcDbEntity
  8
0
  6
SLD-Durchgehend
 62
     7
370
    15
100
AcDbLine
 10
191.9239921745
 20
58.4679022264
 30
0.0
 11
190.5892910772
 21
58.4251778834
 31
0.0
  0
LINE
  5
359
330
1F
100
AcDbEntity
  8
0
  6
SLD-Durchgehend
 62
     7
370
    15
100
AcDbLine
 10
190.5892910772
 20
59.5123882945
 30
0.0
 11
190.5270651311
 21
59.4516538635
 31
0.0
  0
LINE
  5
35A
330
1F
100
AcDbEntity
  8
0
  6
SLD-Durchgehend
 62
     7
370
    15
100
AcDbLine
 10
190.3353043014
 20
59.4705159268
 30
0.0
 11
190.2730783553
 21
59.4097814957
 31
0.0
  0
LINE
  5
35B
330
1F
100
AcDbEntity
  8
0
  6
SLD-Durchgehend
 62
     7
370
    15
100
AcDbLine
 10
191.7362000517
 20
58.657077938
 30
0.0
 11
191.6739741056
 21
58.596343507
 31
0.0
  0
LINE
  5
35C
330
1F
100
AcDbEntity
  8
0
  6
SLD-Durchgehend
 62
     7
370
    15
100
AcDbLine
 10
190.5892910772
 20
58.4251778834
 30
0.0
 11
190.5270651311
 21
58.3644434524
 31
0.0
  0
LINE
  5
35D
330
1F
100
AcDbEntity
  8
0
  6
SLD-Durchgehend
 62
     7
370
    15
100
AcDbLine
 10
190.3353043014
 20
58.2685586457
 30
0.0
 11
190.2730783553
 21
58.2078242146
 31
0.0
  0
LINE
  5
35E
330
1F
100
AcDbEntity
  8
0
  6
SLD-Durchgehend
 62
     7
370
    15
100
AcDbLine
 10
191.9239921745
 20
56.0110942181
 30
0.0
 11
190.3353043014
 21
56.4428655406
 31
0.0
  0
LINE
  5
35F
330
1F
100
AcDbEntity
  8
0
  6
SLD-Durchgehend
 62
     7
370
    15
100
AcDbLine
 10
190.3353043014
 20
56.4428655406
 30
0.0
 11
190.3353043014
 21
56.7238654676
 31
0.0
  0
SPLINE
  5
360
330
1F
100
AcDbEntity
  8
0
  6
SLD-Durchgehend
 62
     7
370
    15
100
AcDbSpline
210
0.0
220
0.0
230
1.0
 70
     8
 71
     3
 72
    15
 73
    11
 74
     0
 42
0.000000001
 43
0.00000001
 40
0.0
 40
0.0
 40
0.0
 40
0.0
 40
0.0892047702332446
 40
0.1898334556643483
 40
0.2992325919749799
 40
0.4192609378429059
 40
0.5492073901909375
 40
0.6890743636843486
 40
0.8395791979483176
 40
1.0
 40
1.0
 40
1.0
 40
1.0
 10
191.7362000509009
 20
56.83138488566664
 30
0.0
 10
191.7283701201956
 20
56.83574658732673
 30
0.0
 10
191.7117075269338
 20
56.8450285673884
 30
0.0
 10
191.6855084553198
 20
56.85985500666317
 30
0.0
 10
191.6565162345143
 20
56.87593397339288
 30
0.0
 10
191.6252291935126
 20
56.89424941171447
 30
0.0
 10
191.5911565368474
 20
56.91373778176929
 30
0.0
 10
191.5543265607593
 20
56.93448315683649
 30
0.0
 10
191.5151069683901
 20
56.95752571107274
 30
0.0
 10
191.4879546417856
 20
56.97313459252369
 30
0.0
 10
191.4739455106535
 20
56.98118793065032
 30
0.0
  0
LINE
  5
361
330
1F
100
AcDbEntity
  8
0
  6
SLD-Durchgehend
 62
     7
370
    15
100
AcDbLine
 10
191.4739454651
 20
56.9811878765
 30
0.0
 11
190.3353043014
 21
57.6448228882
 31
0.0
  0
LINE
  5
362
330
1F
100
AcDbEntity
  8
0
  6
SLD-Durchgehend
 62
     7
370
    15
100
AcDbLine
 10
190.3353043014
 20
57.6448228882
 30
0.0
 11
190.3353043014
 21
57.9037247089
 31
0.0
  0
LINE
  5
363
330
1F
100
AcDbEntity
  8
0
  6
SLD-Durchgehend
 62
     7
370
    15
100
AcDbLine
 10
191.9239921745
 20
57.3239521634
 30
0.0
 11
190.5892910772
 21
57.6866953225
 31
0.0
  0
LINE
  5
364
330
1F
100
AcDbEntity
  8
0
  6
SLD-Durchgehend
 62
     7
370
    15
100
AcDbLine
 10
191.9239921745
 20
56.6422091878
 30
0.0
 11
190.5892910772
 21
56.5994848448
 31
0.0
  0
LINE
  5
365
330
1F
100
AcDbEntity
  8
0
  6
SLD-Durchgehend
 62
     7
370
    15
100
AcDbLine
 10
190.5892910772
 20
57.6866953225
 30
0.0
 11
190.5270651311
 21
57.6259608914
 31
0.0
  0
LINE
  5
366
330
1F
100
AcDbEntity
  8
0
  6
SLD-Durchgehend
 62
     7
370
    15
100
AcDbLine
 10
190.3353043014
 20
57.6448228882
 30
0.0
 11
190.2730783553
 21
57.5840884571
 31
0.0
  0
LINE
  5
367
330
1F
100
AcDbEntity
  8
0
  6
SLD-Durchgehend
 62
     7
370
    15
100
AcDbLine
 10
191.7362000517
 20
56.8313847997
 30
0.0
 11
191.6739741056
 21
56.7706503686
 31
0.0
  0
LINE
  5
368
330
1F
100
AcDbEntity
  8
0
  6
SLD-Durchgehend
 62
     7
370
    15
100
AcDbLine
 10
190.5892910772
 20
56.5994848448
 30
0.0
 11
190.5270651311
 21
56.5387504138
 31
0.0
  0
LINE
  5
369
330
1F
100
AcDbEntity
  8
0
  6
SLD-Durchgehend
 62
     7
370
    15
100
AcDbLine
 10
190.3353043014
 20
56.4428655406
 30
0.0
 11
190.2730783553
 21
56.3821311095
 31
0.0
  0
LINE
  5
36A
330
1F
100
AcDbEntity
  8
0
  6
SLD-Durchgehend
 62
     7
370
    15
100
AcDbLine
 10
191.5255365718
 20
54.9296084168
 30
0.0
 11
191.5069906253
 21
55.0948263562
 31
0.0
  0
SPLINE
  5
36B
330
1F
100
AcDbEntity
  8
0
  6
SLD-Durchgehend
 62
     7
370
    15
100
AcDbSpline
210
0.0
220
0.0
230
1.0
 70
     8
 71
     3
 72
    10
 73
     6
 74
     0
 42
0.000000001
 43
0.00000001
 40
0.0
 40
0.0
 40
0.0
 40
0.0
 40
0.1632709330848873
 40
0.5813243038813543
 40
1.0
 40
1.0
 40
1.0
 40
1.0
 10
191.7771011835261
 20
55.17595352546756
 30
0.0
 10
191.781802598536
 20
55.17973345347066
 30
0.0
 10
191.7985419333109
 20
55.19319184421786
 30
0.0
 10
191.8132580936154
 20
55.22991238333771
 30
0.0
 10
191.8156811931246
 20
55.26388556876112
 30
0.0
 10
191.816893643981
 20
55.28088479541517
 30
0.0
  0
SPLINE
  5
36C
330
1F
100
AcDbEntity
  8
0
  6
SLD-Durchgehend
 62
     7
370
    15
100
AcDbSpline
210
0.0
220
0.0
230
1.0
 70
     8
 71
     3
 72
    23
 73
    19
 74
     0
 42
0.000000001
 43
0.00000001
 40
0.0
 40
0.0
 40
0.0
 40
0.0
 40
0.0735942393366706
 40
0.1438030845726419
 40
0.2113146183744807
 40
0.2791715203726297
 40
0.3469047428464689
 40
0.4137163819362349
 40
0.4817116873952845
 40
0.5518807121997042
 40
0.5909583408062428
 40
0.6345771578211139
 40
0.6828680236044947
 40
0.7359272416396799
 40
0.7945945955668134
 40
0.8581034315720175
 40
0.9265716693605601
 40
1.0
 40
1.0
 40
1.0
 40
1.0
 10
191.8168937555924
 20
55.28088483505449
 30
0.0
 10
191.8165122244212
 20
55.29203812556239
 30
0.0
 10
191.8157667128189
 20
55.31383164625948
 30
0.0
 10
191.8081046032071
 20
55.34688365724404
 30
0.0
 10
191.7966087582243
 20
55.37886419074032
 30
0.0
 10
191.7798231189205
 20
55.40935282084052
 30
0.0
 10
191.7593982744464
 20
55.4380192561057
 30
0.0
 10
191.7352956812593
 20
55.46423235149783
 30
0.0
 10
191.7074407713968
 20
55.48678032138354
 30
0.0
 10
191.6817230855987
 20
55.50320304171872
 30
0.0
 10
191.6588331054519
 20
55.51521044984124
 30
0.0
 10
191.638948097259
 20
55.52440166379679
 30
0.0
 10
191.6167642259755
 20
55.5336233135022
 30
0.0
 10
191.5921424546722
 20
55.54272637497581
 30
0.0
 10
191.5651542197661
 20
55.55250933425679
 30
0.0
 10
191.5356815484616
 20
55.56149739015314
 30
0.0
 10
191.5039390931871
 20
55.57126426861495
 30
0.0
 10
191.4819943236752
 20
55.57731373541066
 30
0.0
 10
191.4706383916088
 20
55.58044420045988
 30
0.0
  0
LINE
  5
36D
330
1F
100
AcDbEntity
  8
0
  6
SLD-Durchgehend
 62
     7
370
    15
100
AcDbLine
 10
191.4706383956
 20
55.580444107
 30
0.0
 11
190.3353043014
 21
55.8890035866
 31
0.0
  0
LINE
  5
36E
330
1F
100
AcDbEntity
  8
0
  6
SLD-Durchgehend
 62
     7
370
    15
100
AcDbLine
 10
190.3353043014
 20
55.8890035866
 30
0.0
 11
190.3353043014
 21
56.0370048096
 31
0.0
  0
SPLINE
  5
36F
330
1F
100
AcDbEntity
  8
0
  6
SLD-Durchgehend
 62
     7
370
    15
100
AcDbSpline
210
0.0
220
0.0
230
1.0
 70
     8
 71
     3
 72
    10
 73
     6
 74
     0
 42
0.000000001
 43
0.00000001
 40
0.0
 40
0.0
 40
0.0
 40
0.0
 40
0.2530232980077484
 40
0.6258538341913843
 40
0.9999999999999999
 40
0.9999999999999999
 40
0.9999999999999999
 40
0.9999999999999999
 10
191.9104272867808
 20
54.97786024590751
 30
0.0
 10
191.889229598069
 20
54.95345163313557
 30
0.0
 10
191.8367970558456
 20
54.89307686128298
 30
0.0
 10
191.6872350672092
 20
54.89151363445833
 30
0.0
 10
191.5794993209427
 20
54.91689525468669
 30
0.0
 10
191.5255365717985
 20
54.92960841677745
 30
0.0
  0
LINE
  5
370
330
1F
100
AcDbEntity
  8
0
  6
SLD-Durchgehend
 62
     7
370
    15
100
AcDbLine
 10
191.816893644
 20
55.2808847954
 30
0.0
 11
191.7546676978
 21
55.2201503643
 31
0.0
  0
LINE
  5
371
330
1F
100
AcDbEntity
  8
0
  6
SLD-Durchgehend
 62
     7
370
    15
100
AcDbLine
 10
191.5255365718
 20
54.9296084168
 30
0.0
 11
191.4633106256
 21
54.8688739857
 31
0.0
  0
LINE
  5
372
330
1F
100
AcDbEntity
  8
0
  6
SLD-Durchgehend
 62
     7
370
    15
100
AcDbLine
 10
190.3353043014
 20
55.8890035866
 30
0.0
 11
190.2730783553
 21
55.8282691555
 31
0.0
  0
ARC
  5
373
330
1F
100
AcDbEntity
  8
0
  6
SLD-Durchgehend
 62
     7
370
    15
100
AcDbCircle
 10
193.8299418827
 20
67.1778302191
 30
0.0
 40
0.4867238691174548
100
AcDbArc
 50
53.4765176345
 51
126.9431819805
  0
LINE
  5
374
330
1F
100
AcDbEntity
  8
0
  6
SLD-Durchgehend
 62
     7
370
    15
100
AcDbLine
 10
191.5255365718
 20
53.8218845088
 30
0.0
 11
191.5069906253
 21
53.9871025813
 31
0.0
  0
SPLINE
  5
375
330
1F
100
AcDbEntity
  8
0
  6
SLD-Durchgehend
 62
     7
370
    15
100
AcDbSpline
210
0.0
220
0.0
230
1.0
 70
     8
 71
     3
 72
    10
 73
     6
 74
     0
 42
0.000000001
 43
0.00000001
 40
0.0
 40
0.0
 40
0.0
 40
0.0
 40
0.1632693138680049
 40
0.5813237236431958
 40
1.0
 40
1.0
 40
1.0
 40
1.0
 10
191.7771011835261
 20
54.06822975054981
 30
0.0
 10
191.7818026026126
 20
54.07200958542753
 30
0.0
 10
191.7985421012056
 20
54.08546776463961
 30
0.0
 10
191.8132580401489
 20
54.12218850811147
 30
0.0
 10
191.8156811757375
 20
54.15616172227507
 30
0.0
 10
191.816893643981
 20
54.17316095397248
 30
0.0
  0
SPLINE
  5
376
330
1F
100
AcDbEntity
  8
0
  6
SLD-Durchgehend
 62
     7
370
    15
100
AcDbSpline
210
0.0
220
0.0
230
1.0
 70
     8
 71
     3
 72
    23
 73
    19
 74
     0
 42
0.000000001
 43
0.00000001
 40
0.0
 40
0.0
 40
0.0
 40
0.0
 40
0.0735942393366713
 40
0.143803084572642
 40
0.211314618374481
 40
0.2791715203726298
 40
0.3469047428464695
 40
0.4137163819362348
 40
0.4817116873952855
 40
0.5518807121997042
 40
0.590958340806243
 40
0.6345771578211149
 40
0.6828680236044956
 40
0.7359272416396799
 40
0.7945945955668134
 40
0.8581034315720175
 40
0.9265716693605601
 40
1.0
 40
1.0
 40
1.0
 40
1.0
 10
191.8168937555924
 20
54.17316093876249
 30
0.0
 10
191.8165122244212
 20
54.18431422927039
 30
0.0
 10
191.8157667128189
 20
54.20610774996749
 30
0.0
 10
191.8081046032071
 20
54.23915976095206
 30
0.0
 10
191.7966087582243
 20
54.27114029444834
 30
0.0
 10
191.7798231189205
 20
54.30162892454853
 30
0.0
 10
191.7593982744464
 20
54.3302953598137
 30
0.0
 10
191.7352956812593
 20
54.35650845520584
 30
0.0
 10
191.7074407713968
 20
54.37905642509156
 30
0.0
 10
191.6817230855987
 20
54.39547914542673
 30
0.0
 10
191.658833105452
 20
54.40748655354925
 30
0.0
 10
191.638948097259
 20
54.41667776750481
 30
0.0
 10
191.6167642259755
 20
54.42589941721021
 30
0.0
 10
191.5921424546722
 20
54.43500247868383
 30
0.0
 10
191.5651542197661
 20
54.4447854379648
 30
0.0
 10
191.5356815484616
 20
54.45377349386115
 30
0.0
 10
191.5039390931871
 20
54.46354037232295
 30
0.0
 10
191.4819943236752
 20
54.46958983911867
 30
0.0
 10
191.4706383916088
 20
54.47272030416789
 30
0.0
  0
LINE
  5
377
330
1F
100
AcDbEntity
  8
0
  6
SLD-Durchgehend
 62
     7
370
    15
100
AcDbLine
 10
191.4706383956
 20
54.4727202656
 30
0.0
 11
190.3353043014
 21
54.7812797451
 31
0.0
  0
LINE
  5
378
330
1F
100
AcDbEntity
  8
0
  6
SLD-Durchgehend
 62
     7
370
    15
100
AcDbLine
 10
190.3353043014
 20
54.7812797451
 30
0.0
 11
190.3353043014
 21
54.9292809682
 31
0.0
  0
SPLINE
  5
379
330
1F
100
AcDbEntity
  8
0
  6
SLD-Durchgehend
 62
     7
370
    15
100
AcDbSpline
210
0.0
220
0.0
230
1.0
 70
     8
 71
     3
 72
    10
 73
     6
 74
     0
 42
0.000000001
 43
0.00000001
 40
0.0
 40
0.0
 40
0.0
 40
0.0
 40
0.2530229068441893
 40
0.6258536955545111
 40
1.0
 40
1.0
 40
1.0
 40
1.0
 10
191.9104272867808
 20
53.87013620489
 30
0.0
 10
191.8892295782859
 20
53.84572770953717
 30
0.0
 10
191.8367969176851
 20
53.78535314815841
 30
0.0
 10
191.6872351127037
 20
53.78378966641765
 30
0.0
 10
191.57949933062
 20
53.80917132796822
 30
0.0
 10
191.5255365717985
 20
53.82188450880983
 30
0.0
  0
LINE
  5
37A
330
1F
100
AcDbEntity
  8
0
  6
SLD-Durchgehend
 62
     7
370
    15
100
AcDbLine
 10
191.816893644
 20
54.173160954
 30
0.0
 11
191.7546676978
 21
54.1124265229
 31
0.0
  0
LINE
  5
37B
330
1F
100
AcDbEntity
  8
0
  6
SLD-Durchgehend
 62
     7
370
    15
100
AcDbLine
 10
191.5255365718
 20
53.8218845088
 30
0.0
 11
191.4633106256
 21
53.7611500777
 31
0.0
  0
LINE
  5
37C
330
1F
100
AcDbEntity
  8
0
  6
SLD-Durchgehend
 62
     7
370
    15
100
AcDbLine
 10
190.3353043014
 20
54.7812797451
 30
0.0
 11
190.2730783553
 21
54.7205453141
 31
0.0
  0
LWPOLYLINE
  5
37D
330
1F
100
AcDbEntity
  8
0
  6
SLD-Durchgehend
 62
     7
370
    15
100
AcDbPolyline
 90
       29
 70
   128
 43
0.0
 10
180.5458696557
 20
72.8386851385
 10
180.4601833677
 20
72.8887688845
 10
180.0255463708
 20
73.0445387428
 10
179.5547585877
 20
73.0603992248
 10
179.0552447512
 20
72.9361005352
 10
178.5348822759
 20
72.6736021443
 10
178.0018777828
 20
72.2770443434
 10
177.4646369238
 20
71.7526807951
 10
176.9316324307
 20
71.1087811455
 10
176.4112699554
 20
70.3555000797
 10
175.9117561189
 20
69.5047171338
 10
175.4409683358
 20
68.5698500339
 10
175.0063313389
 20
67.5656421089
 10
174.6146997531
 20
66.5079300635
 10
174.2722492895
 20
65.4133946186
 10
173.9843814132
 20
64.2992976924
 10
173.755635256
 20
63.1832088241
 10
173.5896189422
 20
62.0827297898
 10
173.4889498976
 20
61.01521528
 10
173.4552163113
 20
59.9975010505
 10
173.4889498976
 20
59.0456368498
 10
173.5896189422
 20
58.1746344874
 10
173.755635256
 20
57.3982294767
 10
173.9843814132
 20
56.7286671323
 10
174.2722492895
 20
56.1765059506
 10
174.6146997531
 20
55.7504548073
 10
175.0063313389
 20
55.4572316294
 10
175.4409683358
 20
55.3014617711
 10
175.7726431066
 20
55.2757608186
  0
LWPOLYLINE
  5
37E
330
1F
100
AcDbEntity
  8
0
  6
SLD-Durchgehend
 62
     7
370
    15
100
AcDbPolyline
 90
       27
 70
   128
 43
0.0
 10
154.8429967623
 20
79.8932597234
 10
154.7311882279
 20
79.9190032935
 10
154.2604004448
 20
79.9348637755
 10
153.7608866083
 20
79.8105650859
 10
153.240524133
 20
79.548066695
 10
152.7075196399
 20
79.1515088941
 10
152.1702787809
 20
78.6271453459
 10
151.6372742878
 20
77.9832456963
 10
151.1169118125
 20
77.2299646304
 10
150.617397976
 20
76.3791816846
 10
150.1466101929
 20
75.4443145846
 10
149.711973196
 20
74.4401066596
 10
149.3203416102
 20
73.3823946142
 10
148.9778911466
 20
72.2878591693
 10
148.6900232703
 20
71.1737622431
 10
148.4612771131
 20
70.0576733748
 10
148.2952607993
 20
68.9571943405
 10
148.1945917547
 20
67.8896798308
 10
148.1608581684
 20
66.8719656012
 10
148.1945917547
 20
65.9201014005
 10
148.2952607993
 20
65.0490990381
 10
148.4612771131
 20
64.2726940274
 10
148.6900232703
 20
63.603131683
 10
148.9778911466
 20
63.0509705013
 10
149.3203416102
 20
62.624919358
 10
149.711973196
 20
62.3316961801
 10
150.0348016585
 20
62.2016698919
  0
LINE
  5
37F
330
1F
100
AcDbEntity
  8
0
  6
SLD-Durchgehend
 62
     7
370
    15
100
AcDbLine
 10
167.6090996932
 20
76.3492319216
 30
0.0
 11
169.3343899882
 21
75.8803349879
 31
0.0
  0
LINE
  5
380
330
1F
100
AcDbEntity
  8
0
  6
SLD-Durchgehend
 62
     7
370
    15
100
AcDbLine
 10
171.7426372069
 20
75.2258249964
 30
0.0
 11
174.40883639
 21
74.5012091882
 31
0.0
  0
SPLINE
  5
381
330
1F
100
AcDbEntity
  8
0
  6
SLD-Durchgehend
 62
     7
370
    15
100
AcDbSpline
210
0.0
220
0.0
230
1.0
 70
     8
 71
     3
 72
    29
 73
    25
 74
     0
 42
0.000000001
 43
0.00000001
 40
0.0
 40
0.0
 40
0.0
 40
0.0
 40
0.1250000000000003
 40
0.1250000000000003
 40
0.1875000000000005
 40
0.1875000000000005
 40
0.2500000000000007
 40
0.2500000000000007
 40
0.375000000000001
 40
0.375000000000001
 40
0.4375000000000009
 40
0.4375000000000009
 40
0.5000000000000009
 40
0.5625000000000009
 40
0.5625000000000009
 40
0.6250000000000009
 40
0.6250000000000009
 40
0.7500000000000009
 40
0.7500000000000009
 40
0.8125000000000007
 40
0.8125000000000007
 40
0.8750000000000003
 40
0.8750000000000003
 40
1.0
 40
1.0
 40
1.0
 40
1.0
 10
167.6090991836344
 20
76.34923225826371
 30
0.0
 10
167.240530013519
 20
76.41179092594756
 30
0.0
 10
166.8869248812401
 20
76.45353435994109
 30
0.0
 10
166.3759777761547
 20
76.47666520496071
 30
0.0
 10
166.2089493016722
 20
76.47776598383517
 30
0.0
 10
165.8814602034463
 20
76.4648063975746
 30
0.0
 10
165.7213137969603
 20
76.45062688640012
 30
0.0
 10
165.2627118004127
 20
76.38418397809893
 30
0.0
 10
164.981718702832
 20
76.30817546045176
 30
0.0
 10
164.5990740285378
 20
76.1392235399737
 30
0.0
 10
164.4772415888139
 20
76.0730562542355
 30
0.0
 10
164.2534316797629
 20
75.92443758529258
 30
0.0
 10
164.0486059722177
 20
75.75958600417172
 30
0.0
 10
163.8809740958187
 20
75.56269758323708
 30
0.0
 10
163.7321788744168
 20
75.34969656519412
 30
0.0
 10
163.6669297080545
 20
75.23430684255253
 30
0.0
 10
163.5043779478581
 20
74.87277520110871
 30
0.0
 10
163.4382106090069
 20
74.61010518138636
 30
0.0
 10
163.3988910573875
 20
74.18873050288325
 30
0.0
 10
163.3960228399493
 20
74.04393568547184
 30
0.0
 10
163.40998024359
 20
73.7524473932027
 30
0.0
 10
163.4267120704475
 20
73.60498312852684
 30
0.0
 10
163.5052350506029
 20
73.15891961526873
 30
0.0
 10
163.5958959436538
 20
72.85489377647292
 30
0.0
 10
163.723083490661
 20
72.55636181060353
 30
0.0
  0
LINE
  5
382
330
1F
100
AcDbEntity
  8
0
  6
SLD-Durchgehend
 62
     7
370
    15
100
AcDbLine
 10
170.5228207212
 20
70.7083387641
 30
0.0
 11
163.7230840243
 21
72.5563614976
 31
0.0
  0
SPLINE
  5
383
330
1F
100
AcDbEntity
  8
0
  6
SLD-Durchgehend
 62
     7
370
    15
100
AcDbSpline
210
0.0
220
0.0
230
1.0
 70
     8
 71
     3
 72
    29
 73
    25
 74
     0
 42
0.000000001
 43
0.00000001
 40
0.0
 40
0.0
 40
0.0
 40
0.0
 40
0.1250000000000003
 40
0.1250000000000003
 40
0.1875000000000004
 40
0.1875000000000004
 40
0.2500000000000006
 40
0.2500000000000006
 40
0.3750000000000008
 40
0.3750000000000008
 40
0.4375000000000007
 40
0.4375000000000007
 40
0.5000000000000007
 40
0.5625000000000007
 40
0.5625000000000007
 40
0.6250000000000006
 40
0.6250000000000006
 40
0.7500000000000008
 40
0.7500000000000008
 40
0.8125000000000006
 40
0.8125000000000006
 40
0.8750000000000003
 40
0.8750000000000003
 40
1.0
 40
1.0
 40
1.0
 40
1.0
 10
170.5228217227317
 20
70.7083386598926
 30
0.0
 10
170.8913908928471
 20
70.87189885884271
 30
0.0
 10
171.244996025126
 20
71.05102912552024
 30
0.0
 10
171.7559431302114
 20
71.3354334613919
 30
0.0
 10
171.9229716046939
 20
71.43291038258671
 30
0.0
 10
172.2504607029198
 20
71.63249472378367
 30
0.0
 10
172.4106071094058
 20
71.73447540626115
 30
0.0
 10
172.8692091059534
 20
72.03860471118975
 30
0.0
 10
173.1502022035341
 20
72.24134202559723
 30
0.0
 10
173.5328468778282
 20
72.54170997887444
 30
0.0
 10
173.6546793175522
 20
72.64197156962783
 30
0.0
 10
173.8784892266032
 20
72.83578408740493
 30
0.0
 10
174.0833149341483
 20
73.023411346726
 30
0.0
 10
174.2509468105473
 20
73.19868557888927
 30
0.0
 10
174.3997420319493
 20
73.36781673797222
 30
0.0
 10
174.4649911983116
 20
73.44977701593803
 30
0.0
 10
174.627542958508
 20
73.68091601017477
 30
0.0
 10
174.6937102973592
 20
73.81690356368702
 30
0.0
 10
174.7330298489786
 20
73.99937869191004
 30
0.0
 10
174.7358980664168
 20
74.05643676890296
 30
0.0
 10
174.7219406627761
 20
74.16218948193695
 30
0.0
 10
174.7052088359186
 20
74.21122515835611
 30
0.0
 10
174.6266858557632
 20
74.34909712335438
 30
0.0
 10
174.5360249627123
 20
74.42899810705633
 30
0.0
 10
174.4088374157051
 20
74.50120910755278
 30
0.0
  0
LWPOLYLINE
  5
384
330
1F
100
AcDbEntity
  8
0
  6
SLD-Durchgehend
 62
     7
370
    15
100
AcDbPolyline
 90
        3
 70
   128
 43
0.0
 10
174.715874024
 20
73.7530420499
 10
174.6464366951
 20
74.0358810423
 10
174.40883639
 20
74.5012091882
  0
LWPOLYLINE
  5
385
330
1F
100
AcDbEntity
  8
0
  6
SLD-Durchgehend
 62
     7
370
    15
100
AcDbPolyline
 90
        9
 70
   128
 43
0.0
 10
167.6090996932
 20
76.3492319216
 10
166.7291680688
 20
76.1876250084
 10
165.9127490718
 20
75.9537538407
 10
165.182028431
 20
75.6539760589
 10
164.5568665691
 20
75.2964388331
 10
164.0542583435
 20
74.8908585216
 10
163.6878579979
 20
74.4482598269
 10
163.4676296961
 20
73.9806703362
 10
163.4127426542
 20
73.7297433226
  0
LWPOLYLINE
  5
386
330
1F
100
AcDbEntity
  8
0
  6
SLD-Durchgehend
 62
     7
370
    15
100
AcDbPolyline
 90
       14
 70
   128
 43
0.0
 10
171.8633399158
 20
73.8269810281
 10
171.6835328383
 20
74.118017189
 10
171.3633276636
 20
74.4032355
 10
170.9279243078
 20
74.6446049551
 10
170.3991533057
 20
74.8300226779
 10
169.8035305868
 20
74.9501910756
 10
169.1709237648
 20
74.9990839022
 10
168.5330545902
 20
74.9742496703
 10
167.9219059458
 20
74.8769341891
 10
167.368123712
 20
74.7120172042
 10
166.8994798453
 20
74.4877675936
 10
166.5394722835
 20
74.2154306244
 10
166.3061530741
 20
73.9086624757
 10
166.2685805952
 20
73.8269814422
  0
LWPOLYLINE
  5
387
330
1F
100
AcDbEntity
  8
0
  6
SLD-Durchgehend
 62
     8
370
     0
100
AcDbPolyline
 90
       17
 70
   128
 43
0.0
 10
172.6659611452
 20
73.9859412933
 10
172.6351829325
 20
73.7440108626
 10
172.4675646578
 20
73.378918868
 10
172.1606831415
 20
73.0386787653
 10
171.7271047101
 20
72.7372193298
 10
171.1845773126
 20
72.486883101
 10
170.5553135957
 20
72.2979184959
 10
169.8650764458
 20
72.1780614264
 10
169.1421226203
 20
72.1322195951
 10
168.4160508058
 20
72.162269068
 10
167.7165879453
 20
72.2669797098
 10
167.0723658788
 20
72.4420654635
 10
166.5097642852
 20
72.6803568975
 10
166.0518124438
 20
72.9720996838
 10
165.7172596405
 20
73.3053491571
 10
165.5198041269
 20
73.6664620716
 10
165.4659614657
 20
73.9859411585
  0
ARC
  5
388
330
1F
100
AcDbEntity
  8
0
  6
SLD-Durchgehend
 62
     8
370
     0
100
AcDbCircle
 10
166.6620792727
 20
74.0912807504
 30
0.0
 40
1.060482037227194
100
AcDbArc
 50
135.2235597992
 51
186.6231689491
  0
LWPOLYLINE
  5
389
330
1F
100
AcDbEntity
  8
0
  6
SLD-Durchgehend
 62
     8
370
     0
100
AcDbPolyline
 90
        7
 70
   128
 43
0.0
 10
172.5101534364
 20
73.8972524053
 10
172.5236871734
 20
74.2283679353
 10
172.4028276699
 20
74.5842292189
 10
172.1453534997
 20
74.9202763819
 10
171.7618089173
 20
75.2227505671
 10
171.2678986261
 20
75.4792679872
 10
170.6838375599
 20
75.6793281982
  0
LWPOLYLINE
  5
38A
330
1F
100
AcDbEntity
  8
0
  6
SLD-Durchgehend
 62
     8
370
     0
100
AcDbPolyline
 90
        7
 70
   128
 43
0.0
 10
170.4423880639
 20
75.4436660882
 10
170.9883058162
 20
75.2522356184
 10
171.437830711
 20
75.0030381425
 10
171.7684185446
 20
74.7085708058
 10
171.9634936229
 20
74.3835986653
 10
172.0132763647
 20
74.0444166544
 10
171.940157192
 20
73.7596033839
  0
ARC
  5
38B
330
1F
100
AcDbEntity
  8
0
  6
SLD-Durchgehend
 62
     8
370
     0
100
AcDbCircle
 10
166.9473267881
 20
74.0988015457
 30
0.0
 40
0.8293705649496362
100
AcDbArc
 50
160.6966252039
 51
211.1732227943
  0
ARC
  5
38C
330
1F
100
AcDbEntity
  8
0
  6
SLD-Durchgehend
 62
     8
370
     0
100
AcDbCircle
 10
169.4393121059
 20
71.7977348133
 30
0.0
 40
3.606425936771213
100
AcDbArc
 50
62.8705412518
 51
77.5147077399
  0
ARC
  5
38D
330
1F
100
AcDbEntity
  8
0
  6
SLD-Durchgehend
 62
     8
370
     0
100
AcDbCircle
 10
192.6147501821
 20
61.7596949632
 30
0.0
 40
13.46148286059081
100
AcDbArc
 50
145.4099601918
 51
151.455932577
  0
LINE
  5
38E
330
1F
100
AcDbEntity
  8
0
  6
SLD-Durchgehend
 62
     8
370
     0
100
AcDbLine
 10
180.9431732327
 20
69.5620314081
 30
0.0
 11
181.5327854105
 21
69.4017874521
 31
0.0
  0
ARC
  5
38F
330
1F
100
AcDbEntity
  8
0
  6
SLD-Durchgehend
 62
     8
370
     0
100
AcDbCircle
 10
192.0251380043
 20
61.9199389193
 30
0.0
 40
13.46148286059801
100
AcDbArc
 50
145.4099601918
 51
151.455932577
  0
LINE
  5
390
330
1F
100
AcDbEntity
  8
0
  6
SLD-Durchgehend
 62
     8
370
     0
100
AcDbLine
 10
179.3381589772
 20
68.5865031598
 30
0.0
 11
180.1999002748
 21
68.35230034
 31
0.0
  0
ARC
  5
391
330
1F
100
AcDbEntity
  8
0
  6
SLD-Durchgehend
 62
     8
370
     0
100
AcDbCircle
 10
190.8770531888
 20
62.324328671
 30
0.0
 40
13.12862936318448
100
AcDbArc
 50
144.4323803903
 51
151.5112524145
  0
LINE
  5
392
330
1F
100
AcDbEntity
  8
0
  6
SLD-Durchgehend
 62
     8
370
     0
100
AcDbLine
 10
179.6082250862
 20
70.1210152665
 30
0.0
 11
180.197837264
 21
69.9607713105
 31
0.0
  0
ARC
  5
393
330
1F
100
AcDbEntity
  8
0
  6
SLD-Durchgehend
 62
     8
370
     0
100
AcDbCircle
 10
191.0678668096
 20
61.9825465929
 30
0.0
 40
14.05553488058357
100
AcDbArc
 50
144.6181915299
 51
154.0489493312
  0
LINE
  5
394
330
1F
100
AcDbEntity
  8
0
  6
SLD-Durchgehend
 62
     8
370
     0
100
AcDbLine
 10
181.9672494481
 20
67.1718288142
 30
0.0
 11
178.4295763815
 21
68.1332925505
 31
0.0
  0
ARC
  5
395
330
1F
100
AcDbEntity
  8
0
  6
SLD-Durchgehend
 62
     8
370
     0
100
AcDbCircle
 10
196.7868470176
 20
59.855917958
 30
0.0
 40
16.52703917152234
100
AcDbArc
 50
151.3288763738
 51
153.7260769693
  0
LINE
  5
396
330
1F
100
AcDbEntity
  8
0
  6
SLD-Durchgehend
 62
     8
370
     0
100
AcDbLine
 10
180.7895124525
 20
68.1920563839
 30
0.0
 11
182.286219866
 21
67.7852833795
 31
0.0
  0
SPLINE
  5
397
330
1F
100
AcDbEntity
  8
0
  6
SLD-Durchgehend
 62
     8
370
     0
100
AcDbSpline
210
0.0
220
0.0
230
1.0
 70
     8
 71
     3
 72
    13
 73
     9
 74
     0
 42
0.000000001
 43
0.00000001
 40
0.0
 40
0.0
 40
0.0
 40
0.0
 40
0.1250211373070127
 40
0.2498672336050452
 40
0.3747867942223598
 40
0.4996608060601835
 40
0.7494597136545124
 40
1.0
 40
1.0
 40
1.0
 40
1.0
 10
179.9567591685349
 20
59.94605274032413
 30
0.0
 10
179.9401235705843
 20
59.8416285819975
 30
0.0
 10
179.9068756660394
 20
59.63292646870178
 30
0.0
 10
179.7600390800266
 20
59.37604846425081
 30
0.0
 10
179.5469316270057
 20
59.1930866036296
 30
0.0
 10
179.1908603672249
 20
59.06868420186668
 30
0.0
 10
178.6847039712685
 20
59.09920316284692
 30
0.0
 10
178.2818743261531
 20
59.19739863787788
 30
0.0
 10
178.0801610567189
 20
59.24656912607882
 30
0.0
  0
SPLINE
  5
398
330
1F
100
AcDbEntity
  8
0
  6
SLD-Durchgehend
 62
     8
370
     0
100
AcDbSpline
210
0.0
220
0.0
230
1.0
 70
     8
 71
     3
 72
    10
 73
     6
 74
     0
 42
0.000000001
 43
0.00000001
 40
0.0
 40
0.0
 40
0.0
 40
0.0
 40
0.2506026533531204
 40
0.5011001009410828
 40
1.0
 40
1.0
 40
1.0
 40
1.0
 10
179.7037610945366
 20
60.90395327351202
 30
0.0
 10
179.7520886871365
 20
60.83306961936413
 30
0.0
 10
179.8487235838788
 20
60.69133206881024
 30
0.0
 10
179.9663076991279
 20
60.36102707393587
 30
0.0
 10
179.9605753757446
 20
60.11190318489022
 30
0.0
 10
179.9567591685349
 20
59.94605274032413
 30
0.0
  0
SPLINE
  5
399
330
1F
100
AcDbEntity
  8
0
  6
SLD-Durchgehend
 62
     8
370
     0
100
AcDbSpline
210
0.0
220
0.0
230
1.0
 70
     8
 71
     3
 72
    10
 73
     6
 74
     0
 42
0.000000001
 43
0.00000001
 40
0.0
 40
0.0
 40
0.0
 40
0.0
 40
0.5002372331609336
 40
0.7504068654799356
 40
1.0
 40
1.0
 40
1.0
 40
1.0
 10
178.3318398139167
 20
61.6718545029992
 30
0.0
 10
178.5797101511792
 20
61.59351289886897
 30
0.0
 10
178.9515409356557
 20
61.47599250315481
 30
0.0
 10
179.4198633955893
 20
61.20912153347783
 30
0.0
 10
179.6092013313656
 20
61.00559776903511
 30
0.0
 10
179.7037610945366
 20
60.90395327351202
 30
0.0
  0
SPLINE
  5
39A
330
1F
100
AcDbEntity
  8
0
  6
SLD-Durchgehend
 62
     8
370
     0
100
AcDbSpline
210
0.0
220
0.0
230
1.0
 70
     8
 71
     3
 72
    10
 73
     6
 74
     0
 42
0.000000001
 43
0.00000001
 40
0.0
 40
0.0
 40
0.0
 40
0.0
 40
0.2495518402482707
 40
0.4996964024649462
 40
1.0
 40
1.0
 40
1.0
 40
1.0
 10
176.844021960374
 20
61.68434805581386
 30
0.0
 10
176.9604100051198
 20
61.72811223538265
 30
0.0
 10
177.1934625331699
 20
61.81574454082107
 30
0.0
 10
177.7045222716302
 20
61.81602036389113
 30
0.0
 10
178.0809113451983
 20
61.72952118099966
 30
0.0
 10
178.3318398139167
 20
61.6718545029992
 30
0.0
  0
SPLINE
  5
39B
330
1F
100
AcDbEntity
  8
0
  6
SLD-Durchgehend
 62
     8
370
     0
100
AcDbSpline
210
0.0
220
0.0
230
1.0
 70
     8
 71
     3
 72
    11
 73
     7
 74
     0
 42
0.000000001
 43
0.00000001
 40
0.0
 40
0.0
 40
0.0
 40
0.0
 40
0.498650745368217
 40
0.7490346820073372
 40
0.874490656639499
 40
1.0
 40
1.0
 40
1.0
 40
1.0
 10
176.373731065611
 20
60.91984300369352
 30
0.0
 10
176.4048185357089
 20
61.07978109222461
 30
0.0
 10
176.4515157350925
 20
61.32002775062535
 30
0.0
 10
176.627190075596
 20
61.52998632709753
 30
0.0
 10
176.7448783720304
 20
61.62735537637323
 30
0.0
 10
176.8109694127558
 20
61.66534780292237
 30
0.0
 10
176.844021960374
 20
61.68434805581386
 30
0.0
  0
SPLINE
  5
39C
330
1F
100
AcDbEntity
  8
0
  6
SLD-Durchgehend
 62
     8
370
     0
100
AcDbSpline
210
0.0
220
0.0
230
1.0
 70
     8
 71
     3
 72
    10
 73
     6
 74
     0
 42
0.000000001
 43
0.00000001
 40
0.0
 40
0.0
 40
0.0
 40
0.0
 40
0.250620035320188
 40
0.5011192551894141
 40
1.0
 40
1.0
 40
1.0
 40
1.0
 10
176.6684662596653
 20
59.98694350337925
 30
0.0
 10
176.6150622968859
 20
60.05479137141805
 30
0.0
 10
176.5082801155733
 20
60.19045440033094
 30
0.0
 10
176.3713032380889
 20
60.50893070051479
 30
0.0
 10
176.3727607583721
 20
60.75561750632501
 30
0.0
 10
176.373731065611
 20
60.91984300369352
 30
0.0
  0
SPLINE
  5
39D
330
1F
100
AcDbEntity
  8
0
  6
SLD-Durchgehend
 62
     8
370
     0
100
AcDbSpline
210
0.0
220
0.0
230
1.0
 70
     8
 71
     3
 72
    10
 73
     6
 74
     0
 42
0.000000001
 43
0.00000001
 40
0.0
 40
0.0
 40
0.0
 40
0.0
 40
0.500212237405215
 40
0.7503949891803954
 40
1.0
 40
1.0
 40
1.0
 40
1.0
 10
178.0801610567189
 20
59.24656912607882
 30
0.0
 10
177.8315832303441
 20
59.3238918618689
 30
0.0
 10
177.4586784083818
 20
59.43988781148335
 30
0.0
 10
176.9741304153775
 20
59.69595432120349
 30
0.0
 10
176.7702757614384
 20
59.89002188825018
 30
0.0
 10
176.6684662596653
 20
59.98694350337925
 30
0.0
  0
SPLINE
  5
39E
330
1F
100
AcDbEntity
  8
0
  6
SLD-Durchgehend
 62
     8
370
     0
100
AcDbSpline
210
0.0
220
0.0
230
1.0
 70
     8
 71
     3
 72
    14
 73
    10
 74
     0
 42
0.000000001
 43
0.00000001
 40
0.0
 40
0.0
 40
0.0
 40
0.0
 40
0.5001352293556007
 40
0.5006638124684226
 40
0.5045977429086883
 40
0.5153243388226507
 40
0.6367913339957767
 40
0.7505034101729764
 40
1.0
 40
1.0
 40
1.0
 40
1.0
 10
178.14048175729
 20
58.43488209423541
 30
0.0
 10
178.3148420049887
 20
58.23748462228225
 30
0.0
 10
178.4893865306127
 20
58.0398785248133
 30
0.0
 10
178.6565146044575
 20
57.83730541754039
 30
0.0
 10
178.6615973441888
 20
57.83124021288594
 30
0.0
 10
178.7071254103142
 20
57.77687027334382
 30
0.0
 10
178.7899416216201
 20
57.67932768066673
 30
0.0
 10
178.9547650483392
 20
57.48799593208694
 30
0.0
 10
179.1006825515119
 20
57.36254294251733
 30
0.0
 10
179.2009167222386
 20
57.27636632832592
 30
0.0
  0
SPLINE
  5
39F
330
1F
100
AcDbEntity
  8
0
  6
SLD-Durchgehend
 62
     8
370
     0
100
AcDbSpline
210
0.0
220
0.0
230
1.0
 70
     8
 71
     3
 72
     9
 73
     5
 74
     0
 42
0.000000001
 43
0.00000001
 40
0.0
 40
0.0
 40
0.0
 40
0.0
 40
0.4990789487146965
 40
0.9999999999999999
 40
0.9999999999999999
 40
0.9999999999999999
 40
0.9999999999999999
 10
177.2493586090557
 20
59.00456741979332
 30
0.0
 10
177.4118014381785
 20
58.94257495726945
 30
0.0
 10
177.7372866736129
 20
58.81836121777287
 30
0.0
 10
178.0059184469709
 20
58.56286535194496
 30
0.0
 10
178.14048175729
 20
58.43488209423541
 30
0.0
  0
SPLINE
  5
3A0
330
1F
100
AcDbEntity
  8
0
  6
SLD-Durchgehend
 62
     8
370
     0
100
AcDbSpline
210
0.0
220
0.0
230
1.0
 70
     8
 71
     3
 72
    15
 73
    11
 74
     0
 42
0.000000001
 43
0.00000001
 40
0.0
 40
0.0
 40
0.0
 40
0.0
 40
0.2496576941054357
 40
0.3747085808241146
 40
0.4997184196497802
 40
0.6249461667350743
 40
0.7497705700422311
 40
0.8747773574203715
 40
0.9373789884824862
 40
0.9999999999999999
 40
0.9999999999999999
 40
0.9999999999999999
 40
0.9999999999999999
 10
176.3256127928265
 20
58.25478549598009
 30
0.0
 10
176.3252274460091
 20
58.37529472277456
 30
0.0
 10
176.3246490830647
 20
58.55616574103086
 30
0.0
 10
176.4170428081922
 20
58.76532786690051
 30
0.0
 10
176.5288511772247
 20
58.89287309206271
 30
0.0
 10
176.6748026367424
 20
58.9875201094706
 30
0.0
 10
176.8494852069801
 20
59.0426811134712
 30
0.0
 10
177.0130069082168
 20
59.0462163968331
 30
0.0
 10
177.147347349485
 20
59.03032040190991
 30
0.0
 10
177.215351347585
 20
59.01315263283917
 30
0.0
 10
177.2493586090557
 20
59.00456741979332
 30
0.0
  0
SPLINE
  5
3A1
330
1F
100
AcDbEntity
  8
0
  6
SLD-Durchgehend
 62
     8
370
     0
100
AcDbSpline
210
0.0
220
0.0
230
1.0
 70
     8
 71
     3
 72
    13
 73
     9
 74
     0
 42
0.000000001
 43
0.00000001
 40
0.0
 40
0.0
 40
0.0
 40
0.0
 40
0.2500155788149448
 40
0.3751420315867208
 40
0.500157040176803
 40
0.625271091109798
 40
0.7504082918052606
 40
1.0
 40
1.0
 40
1.0
 40
1.0
 10
177.5152170472502
 20
57.00656286767764
 30
0.0
 10
177.3674940641758
 20
57.06325278587295
 30
0.0
 10
177.1458394767088
 20
57.1483145695549
 30
0.0
 10
176.8643839473408
 20
57.32269241260116
 30
0.0
 10
176.6769879488666
 20
57.48371410446311
 30
0.0
 10
176.529514288094
 20
57.66703111527386
 30
0.0
 10
176.3807664046955
 20
57.92562846917183
 30
0.0
 10
176.3476621755039
 20
58.12319467175107
 30
0.0
 10
176.3256127928265
 20
58.25478549598009
 30
0.0
  0
LINE
  5
3A2
330
1F
100
AcDbEntity
  8
0
  6
SLD-Durchgehend
 62
     8
370
     0
100
AcDbLine
 10
177.4986365169
 20
57.548463186
 30
0.0
 11
177.5152170473
 21
57.0065628677
 31
0.0
  0
SPLINE
  5
3A3
330
1F
100
AcDbEntity
  8
0
  6
SLD-Durchgehend
 62
     8
370
     0
100
AcDbSpline
210
0.0
220
0.0
230
1.0
 70
     8
 71
     3
 72
    12
 73
     8
 74
     0
 42
0.000000001
 43
0.00000001
 40
0.0
 40
0.0
 40
0.0
 40
0.0
 40
0.2491163676291163
 40
0.3744738237796962
 40
0.4995077460267981
 40
0.7492350227538354
 40
1.0
 40
1.0
 40
1.0
 40
1.0
 10
176.9162379807586
 20
58.08192013139098
 30
0.0
 10
176.9274587900664
 20
58.02134706831773
 30
0.0
 10
176.9443260052051
 20
57.93029312929732
 30
0.0
 10
177.0279199308904
 20
57.81292668941179
 30
0.0
 10
177.1356455464134
 20
57.71013538911009
 30
0.0
 10
177.3003180126287
 20
57.61741321802469
 30
0.0
 10
177.4324390373319
 20
57.57147827658823
 30
0.0
 10
177.4986365168941
 20
57.54846318603953
 30
0.0
  0
SPLINE
  5
3A4
330
1F
100
AcDbEntity
  8
0
  6
SLD-Durchgehend
 62
     8
370
     0
100
AcDbSpline
210
0.0
220
0.0
230
1.0
 70
     8
 71
     3
 72
    13
 73
     9
 74
     0
 42
0.000000001
 43
0.00000001
 40
0.0
 40
0.0
 40
0.0
 40
0.0
 40
0.2501083924690185
 40
0.3778760485918065
 40
0.5004078937431122
 40
0.6254632891989452
 40
0.750526403127607
 40
1.0
 40
1.0
 40
1.0
 40
1.0
 10
177.355968430927
 20
58.33597673118123
 30
0.0
 10
177.2966002404664
 20
58.34943522960945
 30
0.0
 10
177.2069038612213
 20
58.36976899032746
 30
0.0
 10
177.0975166594533
 20
58.36050143293841
 30
0.0
 10
177.0253288619903
 20
58.33554970392806
 30
0.0
 10
176.9691741956291
 20
58.291809297242
 30
0.0
 10
176.9167573645806
 20
58.21262773226977
 30
0.0
 10
176.9164456256462
 20
58.13417583122287
 30
0.0
 10
176.9162379807586
 20
58.08192013139098
 30
0.0
  0
SPLINE
  5
3A5
330
1F
100
AcDbEntity
  8
0
  6
SLD-Durchgehend
 62
     8
370
     0
100
AcDbSpline
210
0.0
220
0.0
230
1.0
 70
     8
 71
     3
 72
     9
 73
     5
 74
     0
 42
0.000000001
 43
0.00000001
 40
0.0
 40
0.0
 40
0.0
 40
0.0
 40
0.5005539967678097
 40
1.0
 40
1.0
 40
1.0
 40
1.0
 10
177.7714660817171
 20
58.10135100146741
 30
0.0
 10
177.7063228371165
 20
58.15296649757932
 30
0.0
 10
177.5761805447341
 20
58.25608323712231
 30
0.0
 10
177.4293182280302
 20
58.30936524520176
 30
0.0
 10
177.355968430927
 20
58.33597673118123
 30
0.0
  0
LINE
  5
3A6
330
1F
100
AcDbEntity
  8
0
  6
SLD-Durchgehend
 62
     8
370
     0
100
AcDbLine
 10
178.3810907121
 20
57.4637611665
 30
0.0
 11
177.7714660817
 21
58.1013510015
 31
0.0
  0
SPLINE
  5
3A7
330
1F
100
AcDbEntity
  8
0
  6
SLD-Durchgehend
 62
     8
370
     0
100
AcDbSpline
210
0.0
220
0.0
230
1.0
 70
     8
 71
     3
 72
    10
 73
     6
 74
     0
 42
0.000000001
 43
0.00000001
 40
0.0
 40
0.0
 40
0.0
 40
0.0
 40
0.249718943193224
 40
0.4995025504729124
 40
0.9999999999999999
 40
0.9999999999999999
 40
0.9999999999999999
 40
0.9999999999999999
 10
179.9989483782612
 20
56.26370438855278
 30
0.0
 10
179.8446093628727
 20
56.32653191593573
 30
0.0
 10
179.5358913663995
 20
56.45220323973034
 30
0.0
 10
178.9640167948294
 20
56.85279632742041
 30
0.0
 10
178.6143478525098
 20
57.21928435290661
 30
0.0
 10
178.3810907121061
 20
57.46376116646061
 30
0.0
  0
ARC
  5
3A8
330
1F
100
AcDbEntity
  8
0
  6
SLD-Durchgehend
 62
     8
370
     0
100
AcDbCircle
 10
190.8062873269
 20
58.2145220168
 30
0.0
 40
10.98199729416459
100
AcDbArc
 50
179.5297451103
 51
190.2321973492
  0
LINE
  5
3A9
330
1F
100
AcDbEntity
  8
0
  6
SLD-Durchgehend
 62
     8
370
     0
100
AcDbLine
 10
179.1443376703
 20
58.4895527154
 30
0.0
 11
179.8246599208
 21
58.3046557053
 31
0.0
  0
ARC
  5
3AA
330
1F
100
AcDbEntity
  8
0
  6
SLD-Durchgehend
 62
     8
370
     0
100
AcDbCircle
 10
191.5732112865
 20
58.4612822749
 30
0.0
 40
12.42890576779115
100
AcDbArc
 50
179.8696765141
 51
185.4706301949
  0
SPLINE
  5
3AB
330
1F
100
AcDbEntity
  8
0
  6
SLD-Durchgehend
 62
     8
370
     0
100
AcDbSpline
210
0.0
220
0.0
230
1.0
 70
     8
 71
     3
 72
    12
 73
     8
 74
     0
 42
0.000000001
 43
0.00000001
 40
0.0
 40
0.0
 40
0.0
 40
0.0
 40
0.1003612417424928
 40
0.3255723492943471
 40
0.5503198167113255
 40
0.7748559762691112
 40
0.9999999999999999
 40
0.9999999999999999
 40
0.9999999999999999
 40
0.9999999999999999
 10
179.612644564837
 20
54.24026938112588
 30
0.0
 10
179.6039603234084
 20
54.23975130532934
 30
0.0
 10
179.5757886025863
 20
54.23807066496199
 30
0.0
 10
179.5978930421899
 20
54.25037935638417
 30
0.0
 10
179.7289417309845
 20
54.23242054838268
 30
0.0
 10
179.972368079756
 20
54.18347563060867
 30
0.0
 10
180.1857334546053
 20
54.12691810145514
 30
0.0
 10
180.2925603524844
 20
54.09860111049331
 30
0.0
  0
LINE
  5
3AC
330
1F
100
AcDbEntity
  8
0
  6
SLD-Durchgehend
 62
     8
370
     0
100
AcDbLine
 10
179.1803756457
 20
54.3496512692
 30
0.0
 11
179.1126517839
 21
54.3680874052
 31
0.0
  0
LINE
  5
3AD
330
1F
100
AcDbEntity
  8
0
  6
SLD-Durchgehend
 62
     8
370
     0
100
AcDbLine
 10
178.8475634717
 20
54.4760612315
 30
0.0
 11
179.1803756457
 21
54.3496512692
 31
0.0
  0
SPLINE
  5
3AE
330
1F
100
AcDbEntity
  8
0
  6
SLD-Durchgehend
 62
     8
370
     0
100
AcDbSpline
210
0.0
220
0.0
230
1.0
 70
     8
 71
     3
 72
    14
 73
    10
 74
     0
 42
0.000000001
 43
0.00000001
 40
0.0
 40
0.0
 40
0.0
 40
0.0
 40
0.0642704897793212
 40
0.2513779147966277
 40
0.4384368357688113
 40
0.6254922275593263
 40
0.8125423522386427
 40
0.906255273220945
 40
1.0
 40
1.0
 40
1.0
 40
1.0
 10
178.1939824045416
 20
54.61853598620736
 30
0.0
 10
178.1900228371909
 20
54.61938505638028
 30
0.0
 10
178.174535981753
 20
54.62270598158744
 30
0.0
 10
178.1974158124077
 20
54.62236592209798
 30
0.0
 10
178.2818477629712
 20
54.60917305226724
 30
0.0
 10
178.4254651342588
 20
54.5810162175595
 30
0.0
 10
178.5869387891619
 20
54.54341558071667
 30
0.0
 10
178.731954173718
 20
54.50672582374799
 30
0.0
 10
178.8090226802994
 20
54.48628391837653
 30
0.0
 10
178.8475634716675
 20
54.47606123150952
 30
0.0
  0
SPLINE
  5
3AF
330
1F
100
AcDbEntity
  8
0
  6
SLD-Durchgehend
 62
     8
370
     0
100
AcDbSpline
210
0.0
220
0.0
230
1.0
 70
     8
 71
     3
 72
    11
 73
     7
 74
     0
 42
0.000000001
 43
0.00000001
 40
0.0
 40
0.0
 40
0.0
 40
0.0
 40
0.3966797658856909
 40
0.592916661962304
 40
0.7949184844571625
 40
1.0
 40
1.0
 40
1.0
 40
1.0
 10
180.5834306649975
 20
53.97013626443618
 30
0.0
 10
180.5402463503034
 20
53.98175744888687
 30
0.0
 10
180.4756988187187
 20
53.99912761617325
 30
0.0
 10
180.4167240149704
 20
54.01443635991819
 30
0.0
 10
180.3806182846744
 20
54.0234062926864
 30
0.0
 10
180.3802803101701
 20
54.02400403451362
 30
0.0
 10
180.3801100444847
 20
54.02430516646469
 30
0.0
  0
SPLINE
  5
3B0
330
1F
100
AcDbEntity
  8
0
  6
SLD-Durchgehend
 62
     8
370
     0
100
AcDbSpline
210
0.0
220
0.0
230
1.0
 70
     8
 71
     3
 72
    11
 73
     7
 74
     0
 42
0.000000001
 43
0.00000001
 40
0.0
 40
0.0
 40
0.0
 40
0.0
 40
0.0353020756598539
 40
0.3572613932295657
 40
0.6786125480288764
 40
1.0
 40
1.0
 40
1.0
 40
1.0
 10
180.976498076068
 20
53.86152999395171
 30
0.0
 10
180.9723632962027
 20
53.86263257878595
 30
0.0
 10
180.9305188100706
 20
53.87379087434431
 30
0.0
 10
180.8402254164507
 20
53.89910096952481
 30
0.0
 10
180.7081146745198
 20
53.93598173739662
 30
0.0
 10
180.6249935661955
 20
53.95875099347602
 30
0.0
 10
180.5834306649975
 20
53.97013626443618
 30
0.0
  0
SPLINE
  5
3B1
330
1F
100
AcDbEntity
  8
0
  6
SLD-Durchgehend
 62
     8
370
     0
100
AcDbSpline
210
0.0
220
0.0
230
1.0
 70
     8
 71
     3
 72
    12
 73
     8
 74
     0
 42
0.000000001
 43
0.00000001
 40
0.0
 40
0.0
 40
0.0
 40
0.0
 40
0.1757664466891257
 40
0.3515529537709522
 40
0.5273044354327355
 40
0.7030018709129288
 40
1.0
 40
1.0
 40
1.0
 40
1.0
 10
180.2925603524844
 20
54.09860111049331
 30
0.0
 10
180.3783488695846
 20
54.07459603289574
 30
0.0
 10
180.5499356949106
 20
54.02658313797815
 30
0.0
 10
180.8237002324035
 20
53.94118702529238
 30
0.0
 10
181.0892632489894
 20
53.85551937925035
 30
0.0
 10
181.3959982607706
 20
53.75366308430358
 30
0.0
 10
181.5555820477105
 20
53.70770580377006
 30
0.0
 10
181.6558497246396
 20
53.67883050355673
 30
0.0
  0
ARC
  5
3B2
330
1F
100
AcDbEntity
  8
0
  6
SLD-Durchgehend
 62
     8
370
     0
100
AcDbCircle
 10
188.0951591443
 20
69.1116787588
 30
0.0
 40
1.620094483867911
100
AcDbArc
 50
90.1412694163
 51
92.6472256611
  0
LINE
  5
3B3
330
1F
100
AcDbEntity
  8
0
  6
SLD-Durchgehend
 62
     8
370
     0
100
AcDbLine
 10
188.1715152215
 20
70.6889562182
 30
0.0
 11
188.0203328653
 21
70.7300443432
 31
0.0
  0
ARC
  5
3B4
330
1F
100
AcDbEntity
  8
0
  6
SLD-Durchgehend
 62
     8
370
     0
100
AcDbCircle
 10
188.2463415006
 20
69.0705906338
 30
0.0
 40
1.620094483883926
100
AcDbArc
 50
90.1412694163
 51
92.6472256611
  0
LINE
  5
3B5
330
1F
100
AcDbEntity
  8
0
  6
SLD-Durchgehend
 62
     8
370
     0
100
AcDbLine
 10
188.0911646168
 20
70.7317683182
 30
0.0
 11
188.242346973
 21
70.6906801932
 31
0.0
  0
ARC
  5
3B6
330
1F
100
AcDbEntity
  8
0
  6
SLD-Durchgehend
 62
     8
370
     0
100
AcDbCircle
 10
188.1136067971
 20
68.9139812465
 30
0.0
 40
1.818768279099694
100
AcDbArc
 50
97.4855741756
 51
99.8050472821
  0
LINE
  5
3B7
330
1F
100
AcDbEntity
  8
0
  6
SLD-Durchgehend
 62
     8
370
     0
100
AcDbLine
 10
187.9550596362
 20
70.6650944717
 30
0.0
 11
187.8038772799
 21
70.7061825966
 31
0.0
  0
ARC
  5
3B8
330
1F
100
AcDbEntity
  8
0
  6
SLD-Durchgehend
 62
     8
370
     0
100
AcDbCircle
 10
188.2647891533
 20
68.8728931216
 30
0.0
 40
1.818768279086997
100
AcDbArc
 50
97.4855741756
 51
99.8050472821
  0
LINE
  5
3B9
330
1F
100
AcDbEntity
  8
0
  6
SLD-Durchgehend
 62
     8
370
     0
100
AcDbLine
 10
187.8766639151
 20
70.7172494251
 30
0.0
 11
188.0278462713
 21
70.6761613001
 31
0.0
  0
ARC
  5
3BA
330
1F
100
AcDbEntity
  8
0
  6
SLD-Durchgehend
 62
     8
370
     0
100
AcDbCircle
 10
188.0674900977
 20
68.2971434284
 30
0.0
 40
2.530062117781897
100
AcDbArc
 50
108.1398213483
 51
115.9523973298
  0
LINE
  5
3BB
330
1F
100
AcDbEntity
  8
0
  6
SLD-Durchgehend
 62
     8
370
     0
100
AcDbLine
 10
187.241400212
 20
70.7121031826
 30
0.0
 11
187.279788209
 21
70.7014603905
 31
0.0
  0
SPLINE
  5
3BC
330
1F
100
AcDbEntity
  8
0
  6
SLD-Durchgehend
 62
     8
370
     0
100
AcDbSpline
210
0.0
220
0.0
230
1.0
 70
     8
 71
     3
 72
    13
 73
     9
 74
     0
 42
0.000000001
 43
0.00000001
 40
0.0
 40
0.0
 40
0.0
 40
0.0
 40
0.2490686684436525
 40
0.3734186562384401
 40
0.4994409663353674
 40
0.6211647828972235
 40
0.7498502338670674
 40
1.0
 40
1.0
 40
1.0
 40
1.0
 10
186.6018859411465
 20
70.76036274796287
 30
0.0
 10
186.6354017975684
 20
70.77047742143422
 30
0.0
 10
186.6856507756754
 20
70.78564194533664
 30
0.0
 10
186.7925596726356
 20
70.7873419373478
 30
0.0
 10
186.8798914032592
 20
70.78231955454916
 30
0.0
 10
186.9731739242177
 20
70.7709076996752
 30
0.0
 10
187.0974767675458
 20
70.7489172964696
 30
0.0
 10
187.1841613002244
 20
70.72674429841508
 30
0.0
 10
187.2414002120203
 20
70.71210318262807
 30
0.0
  0
SPLINE
  5
3BD
330
1F
100
AcDbEntity
  8
0
  6
SLD-Durchgehend
 62
     8
370
     0
100
AcDbSpline
210
0.0
220
0.0
230
1.0
 70
     8
 71
     3
 72
    13
 73
     9
 74
     0
 42
0.000000001
 43
0.00000001
 40
0.0
 40
0.0
 40
0.0
 40
0.0
 40
0.2501182927043131
 40
0.3783619074892322
 40
0.5005583264310811
 40
0.6268361849183073
 40
0.7509119075710328
 40
1.0
 40
1.0
 40
1.0
 40
1.0
 10
186.852557547973
 20
70.54158552648656
 30
0.0
 10
186.7972121523622
 20
70.55791587314995
 30
0.0
 10
186.7134894097044
 20
70.58261930865928
 30
0.0
 10
186.6272650731232
 20
70.62237072428485
 30
0.0
 10
186.5794537145878
 20
70.65405114593969
 30
0.0
 10
186.5521180901569
 20
70.68533491542367
 30
0.0
 10
186.543110494996
 20
70.72528351203135
 30
0.0
 10
186.5783580682921
 20
70.74632049295879
 30
0.0
 10
186.6018859411465
 20
70.76036274796287
 30
0.0
  0
SPLINE
  5
3BE
330
1F
100
AcDbEntity
  8
0
  6
SLD-Durchgehend
 62
     8
370
     0
100
AcDbSpline
210
0.0
220
0.0
230
1.0
 70
     8
 71
     3
 72
    13
 73
     9
 74
     0
 42
0.000000001
 43
0.00000001
 40
0.0
 40
0.0
 40
0.0
 40
0.0
 40
0.2494549208587626
 40
0.3742793506955589
 40
0.499728886579038
 40
0.6215136198468536
 40
0.7500370964403152
 40
1.0
 40
1.0
 40
1.0
 40
1.0
 10
187.4979200877993
 20
70.51965240906924
 30
0.0
 10
187.4647350588306
 20
70.50841251620196
 30
0.0
 10
187.4149446155213
 20
70.49154830767174
 30
0.0
 10
187.3098990142426
 20
70.48183793684176
 30
0.0
 10
187.2217124133439
 20
70.48122656082269
 30
0.0
 10
187.1267975035173
 20
70.4876828031222
 30
0.0
 10
186.9993218399572
 20
70.50507574158469
 30
0.0
 10
186.9109323914393
 20
70.527063922152
 30
0.0
 10
186.852557547973
 20
70.54158552648656
 30
0.0
  0
SPLINE
  5
3BF
330
1F
100
AcDbEntity
  8
0
  6
SLD-Durchgehend
 62
     8
370
     0
100
AcDbSpline
210
0.0
220
0.0
230
1.0
 70
     8
 71
     3
 72
    11
 73
     7
 74
     0
 42
0.000000001
 43
0.00000001
 40
0.0
 40
0.0
 40
0.0
 40
0.0
 40
0.2499433786970924
 40
0.4995423416256141
 40
0.749431381118889
 40
1.0
 40
1.0
 40
1.0
 40
1.0
 10
187.4289741847919
 20
70.65972252996725
 30
0.0
 10
187.4601936294221
 20
70.64684954112185
 30
0.0
 10
187.5225894990631
 20
70.62112130208996
 30
0.0
 10
187.5632389533295
 20
70.58163656766003
 30
0.0
 10
187.5537942055582
 20
70.54694802039191
 30
0.0
 10
187.516561646613
 20
70.52875917914875
 30
0.0
 10
187.4979200877993
 20
70.51965240906924
 30
0.0
  0
LINE
  5
3C0
330
1F
100
AcDbEntity
  8
0
  6
SLD-Durchgehend
 62
     8
370
     0
100
AcDbLine
 10
187.3399468087
 20
70.6383651282
 30
0.0
 11
187.4289741848
 21
70.65972253
 31
0.0
  0
SPLINE
  5
3C1
330
1F
100
AcDbEntity
  8
0
  6
SLD-Durchgehend
 62
     8
370
     0
100
AcDbSpline
210
0.0
220
0.0
230
1.0
 70
     8
 71
     3
 72
    12
 73
     8
 74
     0
 42
0.000000001
 43
0.00000001
 40
0.0
 40
0.0
 40
0.0
 40
0.0
 40
0.2503112301396763
 40
0.5000974247919288
 40
0.7494317072778677
 40
0.8746713191040419
 40
1.0
 40
1.0
 40
1.0
 40
1.0
 10
187.3630491746501
 20
70.55713307099975
 30
0.0
 10
187.3736511617554
 20
70.56233839111844
 30
0.0
 10
187.3948328979725
 20
70.5727381130371
 30
0.0
 10
187.4037331265812
 20
70.59262068608663
 30
0.0
 10
187.3877606427707
 20
70.61164224926665
 30
0.0
 10
187.3632689318371
 20
70.62699122302008
 30
0.0
 10
187.3477226917875
 20
70.63457292810033
 30
0.0
 10
187.3399468086654
 20
70.63836512816813
 30
0.0
  0
SPLINE
  5
3C2
330
1F
100
AcDbEntity
  8
0
  6
SLD-Durchgehend
 62
     8
370
     0
100
AcDbSpline
210
0.0
220
0.0
230
1.0
 70
     8
 71
     3
 72
    13
 73
     9
 74
     0
 42
0.000000001
 43
0.00000001
 40
0.0
 40
0.0
 40
0.0
 40
0.0
 40
0.2501079143089135
 40
0.3789460139240361
 40
0.5004625329426853
 40
0.6260579426549714
 40
0.7507876654280864
 40
1.0
 40
1.0
 40
1.0
 40
1.0
 10
186.9602735444849
 20
70.57206888298884
 30
0.0
 10
186.9971443908769
 20
70.563590004876
 30
0.0
 10
187.0530085178033
 20
70.55074340195145
 30
0.0
 10
187.1317739236917
 20
70.54027657199285
 30
0.0
 10
187.1901928907969
 20
70.5360355750698
 30
0.0
 10
187.2444479196306
 20
70.53584292168607
 30
0.0
 10
187.3105157635234
 20
70.54039901639082
 30
0.0
 10
187.3420399766091
 20
70.55044077632921
 30
0.0
 10
187.3630491746501
 20
70.55713307099975
 30
0.0
  0
ARC
  5
3C3
330
1F
100
AcDbEntity
  8
0
  6
SLD-Durchgehend
 62
     8
370
     0
100
AcDbCircle
 10
186.3664823733
 20
69.7227573412
 30
0.0
 40
1.480384644359497
100
AcDbArc
 50
79.5319418747
 51
83.1083726121
  0
LINE
  5
3C4
330
1F
100
AcDbEntity
  8
0
  6
SLD-Durchgehend
 62
     8
370
     0
100
AcDbLine
 10
186.6354495238
 20
71.1785029808
 30
0.0
 11
186.1229964544
 21
71.3213095241
 31
0.0
  0
SPLINE
  5
3C5
330
1F
100
AcDbEntity
  8
0
  6
SLD-Durchgehend
 62
     8
370
     0
100
AcDbSpline
210
0.0
220
0.0
230
1.0
 70
     8
 71
     3
 72
     9
 73
     5
 74
     0
 42
0.000000001
 43
0.00000001
 40
0.0
 40
0.0
 40
0.0
 40
0.0
 40
0.4999999889069712
 40
1.0
 40
1.0
 40
1.0
 40
1.0
 10
186.1229964543966
 20
71.32130952409815
 30
0.0
 10
186.0987449341595
 20
71.32801431914378
 30
0.0
 10
186.0502418926093
 20
71.34142390953252
 30
0.0
 10
186.0047549434623
 20
71.35404526728952
 30
0.0
 10
185.9820114683842
 20
71.36035594630802
 30
0.0
  0
LINE
  5
3C6
330
1F
100
AcDbEntity
  8
0
  6
SLD-Durchgehend
 62
     8
370
     0
100
AcDbLine
 10
185.9820114684
 20
71.3603559463
 30
0.0
 11
185.8695383348
 21
71.3916647834
 31
0.0
  0
LINE
  5
3C7
330
1F
100
AcDbEntity
  8
0
  6
SLD-Durchgehend
 62
     8
370
     0
100
AcDbLine
 10
185.8695383348
 20
71.3916647834
 30
0.0
 11
185.8355070916
 21
71.400854949
 31
0.0
  0
LINE
  5
3C8
330
1F
100
AcDbEntity
  8
0
  6
SLD-Durchgehend
 62
     8
370
     0
100
AcDbLine
 10
185.6448753456
 20
71.4522944491
 30
0.0
 11
185.6975287931
 21
71.4381643278
 31
0.0
  0
ARC
  5
3C9
330
1F
100
AcDbEntity
  8
0
  6
SLD-Durchgehend
 62
     8
370
     0
100
AcDbCircle
 10
185.3970753603
 20
70.2216327419
 30
0.0
 40
1.253084739622899
100
AcDbArc
 50
76.1269725685
 51
76.2234923988
  0
LINE
  5
3CA
330
1F
100
AcDbEntity
  8
0
  6
SLD-Durchgehend
 62
     8
370
     0
100
AcDbLine
 10
185.6954790122
 20
71.4386687419
 30
0.0
 11
185.4576204682
 21
71.5037454376
 31
0.0
  0
ARC
  5
3CB
330
1F
100
AcDbEntity
  8
0
  6
SLD-Durchgehend
 62
     8
370
     0
100
AcDbCircle
 10
185.0841660241
 20
70.0941793884
 30
0.0
 40
1.458199118433519
100
AcDbArc
 50
75.1608326668
 51
78.5632066319
  0
LINE
  5
3CC
330
1F
100
AcDbEntity
  8
0
  6
SLD-Durchgehend
 62
     8
370
     0
100
AcDbLine
 10
185.373307655
 20
71.523424569
 30
0.0
 11
186.5441163416
 21
71.1924460391
 31
0.0
  0
ARC
  5
3CD
330
1F
100
AcDbEntity
  8
0
  6
SLD-Durchgehend
 62
     8
370
     0
100
AcDbCircle
 10
186.4349391184
 20
69.1199986947
 30
0.0
 40
2.090591361528402
100
AcDbArc
 50
103.8186937433
 51
106.4441540014
  0
LINE
  5
3CE
330
1F
100
AcDbEntity
  8
0
  6
SLD-Durchgehend
 62
     8
370
     0
100
AcDbLine
 10
185.9356007564
 20
71.1500808214
 30
0.0
 11
185.7176007407
 21
71.2211912115
 31
0.0
  0
ARC
  5
3CF
330
1F
100
AcDbEntity
  8
0
  6
SLD-Durchgehend
 62
     8
370
     0
100
AcDbCircle
 10
186.0728777948
 20
69.6985814323
 30
0.0
 40
1.563509617801873
100
AcDbArc
 50
103.0415998609
 51
103.1340736571
  0
SPLINE
  5
3D0
330
1F
100
AcDbEntity
  8
0
  6
SLD-Durchgehend
 62
     8
370
     0
100
AcDbSpline
210
0.0
220
0.0
230
1.0
 70
     8
 71
     3
 72
    10
 73
     6
 74
     0
 42
0.000000001
 43
0.00000001
 40
0.0
 40
0.0
 40
0.0
 40
0.0
 40
0.2500017518712617
 40
0.5001728907713634
 40
0.9999999999999999
 40
0.9999999999999999
 40
0.9999999999999999
 40
0.9999999999999999
 10
185.7200586522228
 20
71.22176263540685
 30
0.0
 10
185.7411934648903
 20
71.2175119973861
 30
0.0
 10
185.7834774099774
 20
71.209007841353
 30
0.0
 10
185.8683439451445
 20
71.19690327875414
 30
0.0
 10
185.9257397112818
 20
71.19174347779769
 30
0.0
 10
185.9639904137894
 20
71.18830479190385
 30
0.0
  0
SPLINE
  5
3D1
330
1F
100
AcDbEntity
  8
0
  6
SLD-Durchgehend
 62
     8
370
     0
100
AcDbSpline
210
0.0
220
0.0
230
1.0
 70
     8
 71
     3
 72
     9
 73
     5
 74
     0
 42
0.000000001
 43
0.00000001
 40
0.0
 40
0.0
 40
0.0
 40
0.0
 40
0.4992295377077808
 40
1.0
 40
1.0
 40
1.0
 40
1.0
 10
185.9639904137894
 20
71.18830479190385
 30
0.0
 10
186.011401004647
 20
71.18513722102452
 30
0.0
 10
186.1063685241476
 20
71.17879230222448
 30
0.0
 10
186.1612474394439
 20
71.18343507973857
 30
0.0
 10
186.1887291792269
 20
71.18576004558062
 30
0.0
  0
SPLINE
  5
3D2
330
1F
100
AcDbEntity
  8
0
  6
SLD-Durchgehend
 62
     8
370
     0
100
AcDbSpline
210
0.0
220
0.0
230
1.0
 70
     8
 71
     3
 72
    12
 73
     8
 74
     0
 42
0.000000001
 43
0.00000001
 40
0.0
 40
0.0
 40
0.0
 40
0.0
 40
0.2500875999483065
 40
0.4999132980065273
 40
0.7496735662229896
 40
0.8748057744990926
 40
1.0
 40
1.0
 40
1.0
 40
1.0
 10
186.1887291792269
 20
71.18576004558062
 30
0.0
 10
186.2076231863037
 20
71.18910239429954
 30
0.0
 10
186.2453914138858
 20
71.19578359149406
 30
0.0
 10
186.2627874686593
 20
71.21190716756449
 30
0.0
 10
186.2421704181602
 20
71.2309777331589
 30
0.0
 10
186.2076650942734
 20
71.2488412724701
 30
0.0
 10
186.1831255875049
 20
71.25884622357705
 30
0.0
 10
186.1708527943456
 20
71.26384993847087
 30
0.0
  0
SPLINE
  5
3D3
330
1F
100
AcDbEntity
  8
0
  6
SLD-Durchgehend
 62
     8
370
     0
100
AcDbSpline
210
0.0
220
0.0
230
1.0
 70
     8
 71
     3
 72
     9
 73
     5
 74
     0
 42
0.000000001
 43
0.00000001
 40
0.0
 40
0.0
 40
0.0
 40
0.0
 40
0.499767658205811
 40
1.0
 40
1.0
 40
1.0
 40
1.0
 10
186.1708527943456
 20
71.26384993847087
 30
0.0
 10
186.1114320416891
 20
71.28537708221464
 30
0.0
 10
185.9925352870054
 20
71.32845138562402
 30
0.0
 10
185.805066695918
 20
71.3802792016944
 30
0.0
 10
185.7112888435855
 20
71.40620515149736
 30
0.0
  0
SPLINE
  5
3D4
330
1F
100
AcDbEntity
  8
0
  6
SLD-Durchgehend
 62
     8
370
     0
100
AcDbSpline
210
0.0
220
0.0
230
1.0
 70
     8
 71
     3
 72
     9
 73
     5
 74
     0
 42
0.000000001
 43
0.00000001
 40
0.0
 40
0.0
 40
0.0
 40
0.0
 40
0.500953182317121
 40
1.0
 40
1.0
 40
1.0
 40
1.0
 10
185.7112888435855
 20
71.40620515149736
 30
0.0
 10
185.6385163723521
 20
71.42578430935748
 30
0.0
 10
185.4932483636796
 20
71.46486811708888
 30
0.0
 10
185.336910087957
 20
71.4998928643504
 30
0.0
 10
185.2588899689756
 20
71.51737185301141
 30
0.0
  0
SPLINE
  5
3D5
330
1F
100
AcDbEntity
  8
0
  6
SLD-Durchgehend
 62
     8
370
     0
100
AcDbSpline
210
0.0
220
0.0
230
1.0
 70
     8
 71
     3
 72
    10
 73
     6
 74
     0
 42
0.000000001
 43
0.00000001
 40
0.0
 40
0.0
 40
0.0
 40
0.0
 40
0.2501715206288619
 40
0.5004984154714524
 40
1.0
 40
1.0
 40
1.0
 40
1.0
 10
185.2588899689756
 20
71.51737185301141
 30
0.0
 10
185.2231170303249
 20
71.52444280608235
 30
0.0
 10
185.1515489354977
 20
71.53858910378635
 30
0.0
 10
185.0309695986692
 20
71.55590861308137
 30
0.0
 10
184.9741232001261
 20
71.55556525736684
 30
0.0
 10
184.9362547182957
 20
71.55533652942681
 30
0.0
  0
SPLINE
  5
3D6
330
1F
100
AcDbEntity
  8
0
  6
SLD-Durchgehend
 62
     8
370
     0
100
AcDbSpline
210
0.0
220
0.0
230
1.0
 70
     8
 71
     3
 72
    12
 73
     8
 74
     0
 42
0.000000001
 43
0.00000001
 40
0.0
 40
0.0
 40
0.0
 40
0.0
 40
0.2500392006883302
 40
0.4998329687745803
 40
0.749677345997467
 40
0.8748079742272046
 40
1.0
 40
1.0
 40
1.0
 40
1.0
 10
184.9362547182957
 20
71.55533652942681
 30
0.0
 10
184.9211131787664
 20
71.55335738076404
 30
0.0
 10
184.8908449622872
 20
71.5494010261243
 30
0.0
 10
184.8787010546821
 20
71.53321762125208
 30
0.0
 10
184.8926499929267
 20
71.51408750077061
 30
0.0
 10
184.9178232808623
 20
71.49620530306544
 30
0.0
 10
184.935054749661
 20
71.48655485400823
 30
0.0
 10
184.9436725972727
 20
71.48172844597936
 30
0.0
  0
LINE
  5
3D7
330
1F
100
AcDbEntity
  8
0
  6
SLD-Durchgehend
 62
     8
370
     0
100
AcDbLine
 10
184.9436725973
 20
71.481728446
 30
0.0
 11
184.9360543717
 21
71.4824780519
 31
0.0
  0
LINE
  5
3D8
330
1F
100
AcDbEntity
  8
0
  6
SLD-Durchgehend
 62
     8
370
     0
100
AcDbLine
 10
184.9360543717
 20
71.4824780519
 30
0.0
 11
184.3565059509
 21
71.6675352375
 31
0.0
  0
ARC
  5
3D9
330
1F
100
AcDbEntity
  8
0
  6
SLD-Durchgehend
 62
     8
370
     0
100
AcDbCircle
 10
184.6139161239
 20
69.8362053195
 30
0.0
 40
1.849332113476631
100
AcDbArc
 50
98.0010289487
 51
101.1007200606
  0
LINE
  5
3DA
330
1F
100
AcDbEntity
  8
0
  6
SLD-Durchgehend
 62
     8
370
     0
100
AcDbLine
 10
184.2578562621
 20
71.6509368811
 30
0.0
 11
185.8431331534
 21
71.1250767332
 31
0.0
  0
ARC
  5
3DB
330
1F
100
AcDbEntity
  8
0
  6
SLD-Durchgehend
 62
     8
370
     0
100
AcDbCircle
 10
184.6930821009
 20
69.5067844217
 30
0.0
 40
2.188329463947341
100
AcDbArc
 50
105.6018285487
 51
108.2848345463
  0
LINE
  5
3DC
330
1F
100
AcDbEntity
  8
0
  6
SLD-Durchgehend
 62
     8
370
     0
100
AcDbLine
 10
184.0065131107
 20
71.584621967
 30
0.0
 11
184.2318285422
 21
71.5080425516
 31
0.0
  0
ARC
  5
3DD
330
1F
100
AcDbEntity
  8
0
  6
SLD-Durchgehend
 62
     8
370
     0
100
AcDbCircle
 10
184.9555680879
 20
69.4002588429
 30
0.0
 40
2.228576023495571
100
AcDbArc
 50
106.300338259
 51
108.9506872575
  0
LINE
  5
3DE
330
1F
100
AcDbEntity
  8
0
  6
SLD-Durchgehend
 62
     8
370
     0
100
AcDbLine
 10
184.3300683617
 20
71.5392542111
 30
0.0
 11
184.1045296682
 21
71.6144826631
 31
0.0
  0
ARC
  5
3DF
330
1F
100
AcDbEntity
  8
0
  6
SLD-Durchgehend
 62
     8
370
     0
100
AcDbCircle
 10
186.566567991
 20
68.7293605086
 30
0.0
 40
2.50300090656976
100
AcDbArc
 50
110.4387354609
 51
112.9987335464
  0
LINE
  5
3E0
330
1F
100
AcDbEntity
  8
0
  6
SLD-Durchgehend
 62
     8
370
     0
100
AcDbLine
 10
185.6925059882
 20
71.0747877945
 30
0.0
 11
184.5363513225
 21
71.4685886624
 31
0.0
  0
ARC
  5
3E1
330
1F
100
AcDbEntity
  8
0
  6
SLD-Durchgehend
 62
     8
370
     0
100
AcDbCircle
 10
185.2014843388
 20
69.293948633
 30
0.0
 40
2.274084692087142
100
AcDbArc
 50
107.006718381
 51
109.7305735254
  0
LINE
  5
3E2
330
1F
100
AcDbEntity
  8
0
  6
SLD-Durchgehend
 62
     8
370
     0
100
AcDbLine
 10
184.4337588335
 20
71.4345230268
 30
0.0
 11
185.5886185501
 21
71.0334066082
 31
0.0
  0
ARC
  5
3E3
330
1F
100
AcDbEntity
  8
0
  6
SLD-Durchgehend
 62
     8
370
     0
100
AcDbCircle
 10
184.8112147502
 20
69.1762514685
 30
0.0
 40
2.539424716728535
100
AcDbArc
 50
110.6936184012
 51
113.6697715951
  0
LINE
  5
3E4
330
1F
100
AcDbEntity
  8
0
  6
SLD-Durchgehend
 62
     8
370
     0
100
AcDbLine
 10
183.791725544
 20
71.5020458812
 30
0.0
 11
184.920779302
 21
70.8582797386
 31
0.0
  0
LINE
  5
3E5
330
1F
100
AcDbEntity
  8
0
  6
SLD-Durchgehend
 62
     8
370
     0
100
AcDbLine
 10
184.920779302
 20
70.8582797386
 30
0.0
 11
184.9183585525
 21
70.8567440509
 31
0.0
  0
LINE
  5
3E6
330
1F
100
AcDbEntity
  8
0
  6
SLD-Durchgehend
 62
     8
370
     0
100
AcDbLine
 10
184.9183585525
 20
70.8567440509
 30
0.0
 11
183.2815402568
 21
71.216970799
 31
0.0
  0
ARC
  5
3E7
330
1F
100
AcDbEntity
  8
0
  6
SLD-Durchgehend
 62
     8
370
     0
100
AcDbCircle
 10
185.5728387697
 20
67.8309895073
 30
0.0
 40
4.088388213291099
100
AcDbArc
 50
124.0862697463
 51
126.1567933334
  0
LINE
  5
3E8
330
1F
100
AcDbEntity
  8
0
  6
SLD-Durchgehend
 62
     8
370
     0
100
AcDbLine
 10
183.160702103
 20
71.1319764634
 30
0.0
 11
185.0571044149
 21
70.7407800536
 31
0.0
  0
ARC
  5
3E9
330
1F
100
AcDbEntity
  8
0
  6
SLD-Durchgehend
 62
     8
370
     0
100
AcDbCircle
 10
187.1259293111
 20
67.6703940912
 30
0.0
 40
3.702337965327569
100
AcDbArc
 50
121.5269042393
 51
123.9720747862
  0
LINE
  5
3EA
330
1F
100
AcDbEntity
  8
0
  6
SLD-Durchgehend
 62
     8
370
     0
100
AcDbLine
 10
185.1899809384
 20
70.8262474318
 30
0.0
 11
183.9138565825
 21
71.5518411239
 31
0.0
  0
SPLINE
  5
3EB
330
1F
100
AcDbEntity
  8
0
  6
SLD-Durchgehend
 62
     8
370
     0
100
AcDbSpline
210
0.0
220
0.0
230
1.0
 70
     8
 71
     3
 72
    10
 73
     6
 74
     0
 42
0.000000001
 43
0.00000001
 40
0.0
 40
0.0
 40
0.0
 40
0.0
 40
0.4995741134530547
 40
0.7498745017164506
 40
0.9999999999999999
 40
0.9999999999999999
 40
0.9999999999999999
 40
0.9999999999999999
 10
183.777615883232
 20
71.95982369119851
 30
0.0
 10
183.684493835587
 20
71.98506067599233
 30
0.0
 10
183.5447150776487
 20
72.02294208515161
 30
0.0
 10
183.3447642093111
 20
72.07585900306535
 30
0.0
 10
183.2518430064114
 20
72.09890350829994
 30
0.0
 10
183.2053986421185
 20
72.11042173409412
 30
0.0
  0
SPLINE
  5
3EC
330
1F
100
AcDbEntity
  8
0
  6
SLD-Durchgehend
 62
     8
370
     0
100
AcDbSpline
210
0.0
220
0.0
230
1.0
 70
     8
 71
     3
 72
     9
 73
     5
 74
     0
 42
0.000000001
 43
0.00000001
 40
0.0
 40
0.0
 40
0.0
 40
0.0
 40
0.4993796398856546
 40
1.0
 40
1.0
 40
1.0
 40
1.0
 10
183.2053986421185
 20
72.11042173409413
 30
0.0
 10
183.1239357949708
 20
72.12930503865208
 30
0.0
 10
182.9608077043537
 20
72.16711856377351
 30
0.0
 10
182.8707340615522
 20
72.17466783711335
 30
0.0
 10
182.825641362056
 20
72.17844715705132
 30
0.0
  0
SPLINE
  5
3ED
330
1F
100
AcDbEntity
  8
0
  6
SLD-Durchgehend
 62
     8
370
     0
100
AcDbSpline
210
0.0
220
0.0
230
1.0
 70
     8
 71
     3
 72
    11
 73
     7
 74
     0
 42
0.000000001
 43
0.00000001
 40
0.0
 40
0.0
 40
0.0
 40
0.0
 40
0.4988341800638438
 40
0.7491791833711156
 40
0.874562080714427
 40
1.0
 40
1.0
 40
1.0
 40
1.0
 10
182.825641362056
 20
72.17844715705134
 30
0.0
 10
182.7811809535359
 20
72.17600745346154
 30
0.0
 10
182.7144076371138
 20
72.17234335982859
 30
0.0
 10
182.7304352562678
 20
72.13671951236816
 30
0.0
 10
182.7601693946214
 20
72.11177917088742
 30
0.0
 10
182.7844095211145
 20
72.09742878692819
 30
0.0
 10
182.7965322431094
 20
72.09025202094448
 30
0.0
  0
SPLINE
  5
3EE
330
1F
100
AcDbEntity
  8
0
  6
SLD-Durchgehend
 62
     8
370
     0
100
AcDbSpline
210
0.0
220
0.0
230
1.0
 70
     8
 71
     3
 72
     9
 73
     5
 74
     0
 42
0.000000001
 43
0.00000001
 40
0.0
 40
0.0
 40
0.0
 40
0.0
 40
0.4993121066493884
 40
1.0
 40
1.0
 40
1.0
 40
1.0
 10
182.7965322431094
 20
72.09025202094448
 30
0.0
 10
182.8617899791317
 20
72.05758378093269
 30
0.0
 10
182.9924852600055
 20
71.99215728801026
 30
0.0
 10
183.2287866259975
 20
71.92379753281887
 30
0.0
 10
183.3470998591319
 20
71.88957063100213
 30
0.0
  0
SPLINE
  5
3EF
330
1F
100
AcDbEntity
  8
0
  6
SLD-Durchgehend
 62
     8
370
     0
100
AcDbSpline
210
0.0
220
0.0
230
1.0
 70
     8
 71
     3
 72
    10
 73
     6
 74
     0
 42
0.000000001
 43
0.00000001
 40
0.0
 40
0.0
 40
0.0
 40
0.0
 40
0.4995269488340182
 40
0.7498328159534434
 40
1.0
 40
1.0
 40
1.0
 40
1.0
 10
183.3470998591319
 20
71.88957063100213
 30
0.0
 10
183.4413745397322
 20
71.86559080404993
 30
0.0
 10
183.5828889252775
 20
71.82959502602111
 30
0.0
 10
183.7878993549482
 20
71.79268680111586
 30
0.0
 10
183.8823569429779
 20
71.78070854574165
 30
0.0
 10
183.9295726497061
 20
71.77472107766563
 30
0.0
  0
SPLINE
  5
3F0
330
1F
100
AcDbEntity
  8
0
  6
SLD-Durchgehend
 62
     8
370
     0
100
AcDbSpline
210
0.0
220
0.0
230
1.0
 70
     8
 71
     3
 72
     9
 73
     5
 74
     0
 42
0.000000001
 43
0.00000001
 40
0.0
 40
0.0
 40
0.0
 40
0.0
 40
0.4991389888803967
 40
0.9999999999999999
 40
0.9999999999999999
 40
0.9999999999999999
 40
0.9999999999999999
 10
183.9295726497061
 20
71.77472107766563
 30
0.0
 10
184.0158116451843
 20
71.76610856807751
 30
0.0
 10
184.1885871594187
 20
71.74885383586867
 30
0.0
 10
184.2824242435869
 20
71.74936958102523
 30
0.0
 10
184.329423580444
 20
71.74962789766583
 30
0.0
  0
SPLINE
  5
3F1
330
1F
100
AcDbEntity
  8
0
  6
SLD-Durchgehend
 62
     8
370
     0
100
AcDbSpline
210
0.0
220
0.0
230
1.0
 70
     8
 71
     3
 72
     9
 73
     5
 74
     0
 42
0.000000001
 43
0.00000001
 40
0.0
 40
0.0
 40
0.0
 40
0.0
 40
0.5002929575620311
 40
0.9999999999999999
 40
0.9999999999999999
 40
0.9999999999999999
 40
0.9999999999999999
 10
184.329423580444
 20
71.74962789766583
 30
0.0
 10
184.3639843110493
 20
71.75036220917681
 30
0.0
 10
184.4330652966655
 20
71.75182997221424
 30
0.0
 10
184.4324572476827
 20
71.76273884382783
 30
0.0
 10
184.4321534013239
 20
71.7681900837982
 30
0.0
  0
SPLINE
  5
3F2
330
1F
100
AcDbEntity
  8
0
  6
SLD-Durchgehend
 62
     8
370
     0
100
AcDbSpline
210
0.0
220
0.0
230
1.0
 70
     8
 71
     3
 72
    10
 73
     6
 74
     0
 42
0.000000001
 43
0.00000001
 40
0.0
 40
0.0
 40
0.0
 40
0.0
 40
0.2502551276035883
 40
0.5005291346552028
 40
1.0
 40
1.0
 40
1.0
 40
1.0
 10
184.4321534013239
 20
71.7681900837982
 30
0.0
 10
184.4253225828508
 20
71.77207172066257
 30
0.0
 10
184.4116604305822
 20
71.77983528722511
 30
0.0
 10
184.3388382333913
 20
71.80415502607717
 30
0.0
 10
184.2465028006996
 20
71.83039948317263
 30
0.0
 10
184.1849900646124
 20
71.84788321954561
 30
0.0
  0
ARC
  5
3F3
330
1F
100
AcDbEntity
  8
0
  6
SLD-Durchgehend
 62
     8
370
     0
100
AcDbCircle
 10
183.8659181397
 20
70.3975447595
 30
0.0
 40
1.485021394433497
100
AcDbArc
 50
77.5926770436
 51
85.7818778134
  0
SPLINE
  5
3F4
330
1F
100
AcDbEntity
  8
0
  6
SLD-Durchgehend
 62
     8
370
     0
100
AcDbSpline
210
0.0
220
0.0
230
1.0
 70
     8
 71
     3
 72
    10
 73
     6
 74
     0
 42
0.000000001
 43
0.00000001
 40
0.0
 40
0.0
 40
0.0
 40
0.0
 40
0.4989256765434468
 40
0.7493402428035149
 40
1.0
 40
1.0
 40
1.0
 40
1.0
 10
183.9751468626093
 20
71.87854362109559
 30
0.0
 10
183.9951028801747
 20
71.87227408479197
 30
0.0
 10
184.0250749737167
 20
71.86285782085348
 30
0.0
 10
184.048210996176
 20
71.85324157104323
 30
0.0
 10
184.0536941727371
 20
71.84961854580231
 30
0.0
 10
184.0564371025604
 20
71.84780614675351
 30
0.0
  0
SPLINE
  5
3F5
330
1F
100
AcDbEntity
  8
0
  6
SLD-Durchgehend
 62
     8
370
     0
100
AcDbSpline
210
0.0
220
0.0
230
1.0
 70
     8
 71
     3
 72
    10
 73
     6
 74
     0
 42
0.000000001
 43
0.00000001
 40
0.0
 40
0.0
 40
0.0
 40
0.0
 40
0.4985367018810168
 40
0.7491905275116144
 40
1.0
 40
1.0
 40
1.0
 40
1.0
 10
184.0564371025604
 20
71.84780614675351
 30
0.0
 10
184.0579896550556
 20
71.84425304588643
 30
0.0
 10
184.0603227984702
 20
71.83891352022486
 30
0.0
 10
184.0390936857504
 20
71.8368433283646
 30
0.0
 10
184.0246129597773
 20
71.83656286299899
 30
0.0
 10
184.0173703494881
 20
71.83642258679002
 30
0.0
  0
SPLINE
  5
3F6
330
1F
100
AcDbEntity
  8
0
  6
SLD-Durchgehend
 62
     8
370
     0
100
AcDbSpline
210
0.0
220
0.0
230
1.0
 70
     8
 71
     3
 72
    14
 73
    10
 74
     0
 42
0.000000001
 43
0.00000001
 40
0.0
 40
0.0
 40
0.0
 40
0.0
 40
0.2496369296371974
 40
0.3771023088508586
 40
0.4995519024105613
 40
0.6198137469009118
 40
0.749561468345863
 40
0.8747252209782641
 40
1.0
 40
1.0
 40
1.0
 40
1.0
 10
184.0173703494881
 20
71.83642258679002
 30
0.0
 10
183.999600839412
 20
71.8367029126367
 30
0.0
 10
183.9727581631838
 20
71.83712637371741
 30
0.0
 10
183.9160869007816
 20
71.84327584885239
 30
0.0
 10
183.8669537849156
 20
71.85046446672331
 30
0.0
 10
183.8125963104485
 20
71.86024751159458
 30
0.0
 10
183.7566155189759
 20
71.8719058146179
 30
0.0
 10
183.7008186810407
 20
71.88478431040481
 30
0.0
 10
183.6655261952242
 20
71.89368076522682
 30
0.0
 10
183.6478721292441
 20
71.89813096466115
 30
0.0
  0
LINE
  5
3F7
330
1F
100
AcDbEntity
  8
0
  6
SLD-Durchgehend
 62
     8
370
     0
100
AcDbLine
 10
183.6478721292
 20
71.8981309647
 30
0.0
 11
183.5470216227
 21
71.9264528855
 31
0.0
  0
ARC
  5
3F8
330
1F
100
AcDbEntity
  8
0
  6
SLD-Durchgehend
 62
     8
370
     0
100
AcDbCircle
 10
183.6777638901
 20
70.3965165652
 30
0.0
 40
1.535512515276742
100
AcDbArc
 50
76.8306717641
 51
94.8844024686
  0
SPLINE
  5
3F9
330
1F
100
AcDbEntity
  8
0
  6
SLD-Durchgehend
 62
     8
370
     0
100
AcDbSpline
210
0.0
220
0.0
230
1.0
 70
     8
 71
     3
 72
     9
 73
     5
 74
     0
 42
0.000000001
 43
0.00000001
 40
0.0
 40
0.0
 40
0.0
 40
0.0
 40
0.4999959616034611
 40
1.0
 40
1.0
 40
1.0
 40
1.0
 10
184.0275991813078
 20
71.8916466443547
 30
0.0
 10
183.9870838263775
 20
71.90273043469354
 30
0.0
 10
183.9060524620434
 20
71.92489819441563
 30
0.0
 10
183.820428306692
 20
71.94818179625194
 30
0.0
 10
183.777615883232
 20
71.95982369119851
 30
0.0
  0
ARC
  5
3FA
330
1F
100
AcDbEntity
  8
0
  6
SLD-Durchgehend
 62
     8
370
     0
100
AcDbCircle
 10
185.1876847993
 20
68.0382539334
 30
0.0
 40
3.932451100310804
100
AcDbArc
 50
121.8977474911
 51
126.5021159815
  0
LINE
  5
3FB
330
1F
100
AcDbEntity
  8
0
  6
SLD-Durchgehend
 62
     8
370
     0
100
AcDbLine
 10
183.1097581404
 20
71.3768752741
 30
0.0
 11
181.889458871
 21
71.821155123
 31
0.0
  0
ARC
  5
3FC
330
1F
100
AcDbEntity
  8
0
  6
SLD-Durchgehend
 62
     8
370
     0
100
AcDbCircle
 10
182.9769384754
 20
69.8812232487
 30
0.0
 40
2.223948643032671
100
AcDbArc
 50
119.191240953
 51
119.2739517298
  0
LINE
  5
3FD
330
1F
100
AcDbEntity
  8
0
  6
SLD-Durchgehend
 62
     8
370
     0
100
AcDbLine
 10
181.8922604411
 20
71.8227229599
 30
0.0
 11
183.4779056237
 21
71.5737541847
 31
0.0
  0
ARC
  5
3FE
330
1F
100
AcDbEntity
  8
0
  6
SLD-Durchgehend
 62
     8
370
     0
100
AcDbCircle
 10
184.478220955
 20
69.3481026272
 30
0.0
 40
2.440113853352276
100
AcDbArc
 50
107.4911752793
 51
114.2014534022
  0
LINE
  5
3FF
330
1F
100
AcDbEntity
  8
0
  6
SLD-Durchgehend
 62
     8
370
     0
100
AcDbLine
 10
183.7448230096
 20
71.6753935568
 30
0.0
 11
181.8849428901
 21
72.2890209692
 31
0.0
  0
ARC
  5
400
330
1F
100
AcDbEntity
  8
0
  6
SLD-Durchgehend
 62
     8
370
     0
100
AcDbCircle
 10
182.3064266474
 20
70.2402429701
 30
0.0
 40
2.091683495917867
100
AcDbArc
 50
101.6249552608
 51
108.6223444946
  0
LINE
  5
401
330
1F
100
AcDbEntity
  8
0
  6
SLD-Durchgehend
 62
     8
370
     0
100
AcDbLine
 10
181.6384916564
 20
72.2224141774
 30
0.0
 11
182.8679755516
 21
71.8091496904
 31
0.0
  0
LINE
  5
402
330
1F
100
AcDbEntity
  8
0
  6
SLD-Durchgehend
 62
     8
370
     0
100
AcDbLine
 10
182.8679755516
 20
71.8091496904
 30
0.0
 11
182.8646027145
 21
71.8078050161
 31
0.0
  0
LINE
  5
403
330
1F
100
AcDbEntity
  8
0
  6
SLD-Durchgehend
 62
     8
370
     0
100
AcDbLine
 10
182.8646027145
 20
71.8078050161
 30
0.0
 11
181.2758077924
 21
72.06806814
 31
0.0
  0
ARC
  5
404
330
1F
100
AcDbEntity
  8
0
  6
SLD-Durchgehend
 62
     8
370
     0
100
AcDbCircle
 10
182.8003817179
 20
69.1125669628
 30
0.0
 40
3.325554519606687
100
AcDbArc
 50
117.2866193906
 51
122.7581317888
  0
LINE
  5
405
330
1F
100
AcDbEntity
  8
0
  6
SLD-Durchgehend
 62
     8
370
     0
100
AcDbLine
 10
181.0009446805
 20
71.9092326939
 30
0.0
 11
182.8484565355
 21
71.1992953419
 31
0.0
  0
ARC
  5
406
330
1F
100
AcDbEntity
  8
0
  6
SLD-Durchgehend
 62
     8
370
     0
100
AcDbCircle
 10
187.8090842264
 20
67.6995965788
 30
0.0
 40
3.398136914845426
100
AcDbArc
 50
118.6723180452
 51
122.4957848956
  0
LINE
  5
407
330
1F
100
AcDbEntity
  8
0
  6
SLD-Durchgehend
 62
     8
370
     0
100
AcDbLine
 10
186.0425941948
 20
70.718026992
 30
0.0
 11
186.1786593039
 21
70.6810474109
 31
0.0
  0
ARC
  5
408
330
1F
100
AcDbEntity
  8
0
  6
SLD-Durchgehend
 62
     8
370
     0
100
AcDbCircle
 10
187.8682148231
 20
67.4100846896
 30
0.0
 40
3.778276452903137
100
AcDbArc
 50
118.893871411
 51
127.5895101455
  0
LINE
  5
409
330
1F
100
AcDbEntity
  8
0
  6
SLD-Durchgehend
 62
     8
370
     0
100
AcDbLine
 10
185.6995309207
 20
70.3670164212
 30
0.0
 11
185.5634658116
 21
70.4039960023
 31
0.0
  0
ARC
  5
40A
330
1F
100
AcDbEntity
  8
0
  6
SLD-Durchgehend
 62
     8
370
     0
100
AcDbCircle
 10
188.2469070815
 20
67.032727469
 30
0.0
 40
4.196022893357102
100
AcDbArc
 50
124.0574919775
 51
127.3796040415
  0
LINE
  5
40B
330
1F
100
AcDbEntity
  8
0
  6
SLD-Durchgehend
 62
     8
370
     0
100
AcDbLine
 10
186.9401907124
 20
70.2255236001
 30
0.0
 11
185.897031466
 21
70.5090319311
 31
0.0
  0
ARC
  5
40C
330
1F
100
AcDbEntity
  8
0
  6
SLD-Durchgehend
 62
     8
370
     0
100
AcDbCircle
 10
189.0543606022
 20
67.0941361454
 30
0.0
 40
3.778267025209953
100
AcDbArc
 50
122.457980912
 51
124.0254253777
  0
LINE
  5
40D
330
1F
100
AcDbEntity
  8
0
  6
SLD-Durchgehend
 62
     8
370
     0
100
AcDbLine
 10
185.9834774392
 20
70.5656904975
 30
0.0
 11
187.0266366857
 21
70.2821821665
 31
0.0
  0
ARC
  5
40E
330
1F
100
AcDbEntity
  8
0
  6
SLD-Durchgehend
 62
     8
370
     0
100
AcDbCircle
 10
187.1364640027
 20
68.9506650339
 30
0.0
 40
2.066860479451202
100
AcDbArc
 50
103.5921334117
 51
105.7226074464
  0
LINE
  5
40F
330
1F
100
AcDbEntity
  8
0
  6
SLD-Durchgehend
 62
     8
370
     0
100
AcDbLine
 10
187.7556099301
 20
70.6197058086
 30
0.0
 11
186.5763855746
 21
70.9401937207
 31
0.0
  0
ARC
  5
410
330
1F
100
AcDbEntity
  8
0
  6
SLD-Durchgehend
 62
     8
370
     0
100
AcDbCircle
 10
188.3156883582
 20
68.6301771217
 30
0.0
 40
2.066860479520577
100
AcDbArc
 50
103.5921334117
 51
105.7226074463
  0
LINE
  5
411
330
1F
100
AcDbEntity
  8
0
  6
SLD-Durchgehend
 62
     8
370
     0
100
AcDbLine
 10
186.6507338854
 20
70.9596395222
 30
0.0
 11
187.8299582409
 21
70.6391516101
 31
0.0
  0
ARC
  5
412
330
1F
100
AcDbEntity
  8
0
  6
SLD-Durchgehend
 62
     8
370
     0
100
AcDbCircle
 10
187.3846013012
 20
69.3047931552
 30
0.0
 40
1.620094483895226
100
AcDbArc
 50
90.1412694163
 51
92.6472256611
  0
LINE
  5
413
330
1F
100
AcDbEntity
  8
0
  6
SLD-Durchgehend
 62
     8
370
     0
100
AcDbLine
 10
187.4609573784
 20
70.8820706146
 30
0.0
 11
187.3097750221
 21
70.9231587395
 31
0.0
  0
ARC
  5
414
330
1F
100
AcDbEntity
  8
0
  6
SLD-Durchgehend
 62
     8
370
     0
100
AcDbCircle
 10
187.5357836574
 20
69.2637050302
 30
0.0
 40
1.620094483868437
100
AcDbArc
 50
90.1412694163
 51
92.6472256611
  0
LINE
  5
415
330
1F
100
AcDbEntity
  8
0
  6
SLD-Durchgehend
 62
     8
370
     0
100
AcDbLine
 10
187.3806067736
 20
70.9248827146
 30
0.0
 11
187.5317891299
 21
70.8837945896
 31
0.0
  0
ARC
  5
416
330
1F
100
AcDbEntity
  8
0
  6
SLD-Durchgehend
 62
     8
370
     0
100
AcDbCircle
 10
187.6072289848
 20
69.4082399774
 30
0.0
 40
1.458416680914314
100
AcDbArc
 50
74.7971080926
 51
78.0715876993
  0
LINE
  5
417
330
1F
100
AcDbEntity
  8
0
  6
SLD-Durchgehend
 62
     8
370
     0
100
AcDbLine
 10
188.0447322513
 20
70.7981852164
 30
0.0
 11
187.9086682405
 21
70.835164499
 31
0.0
  0
ARC
  5
418
330
1F
100
AcDbEntity
  8
0
  6
SLD-Durchgehend
 62
     8
370
     0
100
AcDbCircle
 10
187.7432929956
 20
69.3712606948
 30
0.0
 40
1.458416680934276
100
AcDbArc
 50
74.7971080926
 51
78.0715876992
  0
SPLINE
  5
419
330
1F
100
AcDbEntity
  8
0
  6
SLD-Durchgehend
 62
     8
370
     0
100
AcDbSpline
210
0.0
220
0.0
230
1.0
 70
     8
 71
     3
 72
    10
 73
     6
 74
     0
 42
0.000000001
 43
0.00000001
 40
0.0
 40
0.0
 40
0.0
 40
0.0
 40
0.4994231843317382
 40
0.7498294618013627
 40
1.0
 40
1.0
 40
1.0
 40
1.0
 10
177.9628918404103
 20
55.29454284924236
 30
0.0
 10
177.7986724839039
 20
55.43051785033169
 30
0.0
 10
177.5521150240787
 20
55.63466948983093
 30
0.0
 10
177.1343446403812
 20
55.92170038446542
 30
0.0
 10
176.8990625665795
 20
56.03821178684444
 30
0.0
 10
176.7814769309905
 20
56.09644005337037
 30
0.0
  0
LINE
  5
41A
330
1F
100
AcDbEntity
  8
0
  6
SLD-Durchgehend
 62
     8
370
     0
100
AcDbLine
 10
178.6432129926
 20
55.1096461376
 30
0.0
 11
177.9628918404
 21
55.2945428492
 31
0.0
  0
SPLINE
  5
41B
330
1F
100
AcDbEntity
  8
0
  6
SLD-Durchgehend
 62
     8
370
     0
100
AcDbSpline
210
0.0
220
0.0
230
1.0
 70
     8
 71
     3
 72
     9
 73
     5
 74
     0
 42
0.000000001
 43
0.00000001
 40
0.0
 40
0.0
 40
0.0
 40
0.0
 40
0.5000146214111018
 40
1.0
 40
1.0
 40
1.0
 40
1.0
 10
177.8343403645412
 20
55.73767977357772
 30
0.0
 10
177.9867982499902
 20
55.62981402945833
 30
0.0
 10
178.2917051045515
 20
55.41408884963262
 30
0.0
 10
178.5260459808629
 20
55.2111250631926
 30
0.0
 10
178.6432129926243
 20
55.10964613758954
 30
0.0
  0
LINE
  5
41C
330
1F
100
AcDbEntity
  8
0
  6
SLD-Durchgehend
 62
     8
370
     0
100
AcDbLine
 10
180.3529473317
 20
55.0531763671
 30
0.0
 11
177.8343403645
 21
55.7376797736
 31
0.0
  0
ARC
  5
41D
330
1F
100
AcDbEntity
  8
0
  6
SLD-Durchgehend
 62
     8
370
     0
100
AcDbCircle
 10
184.9114983943
 20
56.9792991086
 30
0.0
 40
4.948771221819126
100
AcDbArc
 50
197.5483139025
 51
202.9054966935
  0
LINE
  5
41E
330
1F
100
AcDbEntity
  8
0
  6
SLD-Durchgehend
 62
     8
370
     0
100
AcDbLine
 10
176.6553548469
 20
56.4486593207
 30
0.0
 11
180.1930279134
 21
55.4871955844
 31
0.0
  0
ARC
  5
41F
330
1F
100
AcDbEntity
  8
0
  6
SLD-Durchgehend
 62
     8
370
     0
100
AcDbCircle
 10
181.4917739555
 20
57.9817857324
 30
0.0
 40
5.073600929136921
100
AcDbArc
 50
197.588416518
 51
201.8142734736
  0
LINE
  5
420
330
1F
100
AcDbEntity
  8
0
  6
SLD-Durchgehend
 62
     8
370
     0
100
AcDbLine
 10
181.3108846348
 20
65.6831883469
 30
0.0
 11
178.5051228135
 21
64.834161831
 31
0.0
  0
ARC
  5
421
330
1F
100
AcDbEntity
  8
0
  6
SLD-Durchgehend
 62
     8
370
     0
100
AcDbCircle
 10
200.016570191
 20
58.3445261291
 30
0.0
 40
20.09374617326875
100
AcDbArc
 50
156.3144942384
 51
158.5788032476
  0
LINE
  5
422
330
1F
100
AcDbEntity
  8
0
  6
SLD-Durchgehend
 62
     8
370
     0
100
AcDbLine
 10
178.0777628179
 20
67.3779717477
 30
0.0
 11
181.6154358845
 21
66.4165080114
 31
0.0
  0
ARC
  5
423
330
1F
100
AcDbEntity
  8
0
  6
SLD-Durchgehend
 62
     8
370
     0
100
AcDbCircle
 10
196.4321370311
 20
59.3257966168
 30
0.0
 40
20.04296827061491
100
AcDbArc
 50
156.312647641
 51
158.4205385249
  0
LINE
  5
424
330
1F
100
AcDbEntity
  8
0
  6
SLD-Durchgehend
 62
     8
370
     0
100
AcDbLine
 10
180.1184457414
 20
66.0656936284
 30
0.0
 11
177.7940127584
 21
66.6974247066
 31
0.0
  0
LINE
  5
425
330
1F
100
AcDbEntity
  8
0
  6
SLD-Durchgehend
 62
     8
370
     0
100
AcDbLine
 10
177.26669895
 20
65.2062849817
 30
0.0
 11
180.1184457414
 21
66.0656936284
 31
0.0
  0
ARC
  5
426
330
1F
100
AcDbEntity
  8
0
  6
SLD-Durchgehend
 62
     8
370
     0
100
AcDbCircle
 10
198.8873136967
 20
58.4247403101
 30
0.0
 40
22.65922174652946
100
AcDbArc
 50
162.585390712
 51
164.6147081942
  0
LINE
  5
427
330
1F
100
AcDbEntity
  8
0
  6
SLD-Durchgehend
 62
     8
370
     0
100
AcDbLine
 10
180.5777912555
 20
63.474963409
 30
0.0
 11
177.0401181889
 21
64.4364271453
 31
0.0
  0
ARC
  5
428
330
1F
100
AcDbEntity
  8
0
  6
SLD-Durchgehend
 62
     8
370
     0
100
AcDbCircle
 10
202.430897433
 20
57.4615816834
 30
0.0
 40
22.66537026791641
100
AcDbArc
 50
162.6725480899
 51
164.614541353
  0
LINE
  5
429
330
1F
100
AcDbEntity
  8
0
  6
SLD-Durchgehend
 62
     8
370
     0
100
AcDbLine
 10
178.5051228135
 20
64.834161831
 30
0.0
 11
180.7941222429
 21
64.2120608334
 31
0.0
  0
LINE
  5
42A
330
1F
100
AcDbEntity
  8
0
  6
SLD-Durchgehend
 62
     8
370
     0
100
AcDbLine
 10
186.4112193196
 20
69.0874924621
 30
0.0
 11
186.4088641289
 21
69.1994787777
 31
0.0
  0
LINE
  5
42B
330
1F
100
AcDbEntity
  8
0
  6
SLD-Durchgehend
 62
     8
370
     0
100
AcDbLine
 10
186.8804073775
 20
69.6761042703
 30
0.0
 11
186.8804073775
 21
69.5617372577
 31
0.0
  0
SPLINE
  5
42C
330
1F
100
AcDbEntity
  8
0
  6
SLD-Durchgehend
 62
     8
370
     0
100
AcDbSpline
210
0.0
220
0.0
230
1.0
 70
     8
 71
     3
 72
    11
 73
     7
 74
     0
 42
0.000000001
 43
0.00000001
 40
0.0
 40
0.0
 40
0.0
 40
0.0
 40
0.2499164977707236
 40
0.4994471925444773
 40
0.7491684417357095
 40
1.0
 40
1.0
 40
1.0
 40
1.0
 10
176.9633432433743
 20
60.75959904763822
 30
0.0
 10
176.9630285440807
 20
60.70793153297681
 30
0.0
 10
176.9623996313037
 20
60.60467626422273
 30
0.0
 10
177.0266824361712
 20
60.45039083495755
 30
0.0
 10
177.1405297811404
 20
60.33134124894803
 30
0.0
 10
177.2289581984896
 20
60.27507580763506
 30
0.0
 10
177.2732704816056
 20
60.2468806839423
 30
0.0
  0
LINE
  5
42D
330
1F
100
AcDbEntity
  8
0
  6
SLD-Durchgehend
 62
     8
370
     0
100
AcDbLine
 10
177.2732704816
 20
60.2468806839
 30
0.0
 11
178.1234425275
 21
59.9357724721
 31
0.0
  0
SPLINE
  5
42E
330
1F
100
AcDbEntity
  8
0
  6
SLD-Durchgehend
 62
     8
370
     0
100
AcDbSpline
210
0.0
220
0.0
230
1.0
 70
     8
 71
     3
 72
    13
 73
     9
 74
     0
 42
0.000000001
 43
0.00000001
 40
0.0
 40
0.0
 40
0.0
 40
0.0
 40
0.500635781032942
 40
0.6257771118347619
 40
0.7507902090803813
 40
0.8132261867794185
 40
0.8756971714869214
 40
1.0
 40
1.0
 40
1.0
 40
1.0
 10
178.1234425274578
 20
59.93577247205738
 30
0.0
 10
178.363867261386
 20
59.868608755282
 30
0.0
 10
178.6643897196505
 20
59.78465647241267
 30
0.0
 10
179.0196666986152
 20
59.77974403051527
 30
0.0
 10
179.1625018142147
 20
59.80690289503607
 30
0.0
 10
179.2610398939091
 20
59.86328499235677
 30
0.0
 10
179.3342941888888
 20
59.95376118616464
 30
0.0
 10
179.3540193699517
 20
60.04534517246329
 30
0.0
 10
179.3671469907716
 20
60.10629669637945
 30
0.0
  0
SPLINE
  5
42F
330
1F
100
AcDbEntity
  8
0
  6
SLD-Durchgehend
 62
     8
370
     0
100
AcDbSpline
210
0.0
220
0.0
230
1.0
 70
     8
 71
     3
 72
    11
 73
     7
 74
     0
 42
0.000000001
 43
0.00000001
 40
0.0
 40
0.0
 40
0.0
 40
0.0
 40
0.2499384495798322
 40
0.499411482602339
 40
0.7491417451296393
 40
0.9999999999999999
 40
0.9999999999999999
 40
0.9999999999999999
 40
0.9999999999999999
 10
179.3671469907716
 20
60.10629669637945
 30
0.0
 10
179.3677684174104
 20
60.15812874076229
 30
0.0
 10
179.369010113514
 20
60.26169631179856
 30
0.0
 10
179.3082644895663
 20
60.41815190034612
 30
0.0
 10
179.1979828517617
 20
60.5393412331914
 30
0.0
 10
179.1110691919803
 20
60.59652523225351
 30
0.0
 10
179.0675144394052
 20
60.62518165906449
 30
0.0
  0
LINE
  5
430
330
1F
100
AcDbEntity
  8
0
  6
SLD-Durchgehend
 62
     8
370
     0
100
AcDbLine
 10
179.0675144394
 20
60.6251816591
 30
0.0
 11
178.2244453786
 21
60.9380754118
 31
0.0
  0
SPLINE
  5
431
330
1F
100
AcDbEntity
  8
0
  6
SLD-Durchgehend
 62
     8
370
     0
100
AcDbSpline
210
0.0
220
0.0
230
1.0
 70
     8
 71
     3
 72
    13
 73
     9
 74
     0
 42
0.000000001
 43
0.00000001
 40
0.0
 40
0.0
 40
0.0
 40
0.0
 40
0.5006606501749863
 40
0.6257938630174377
 40
0.7507604051931098
 40
0.8132388241009963
 40
0.875707906941008
 40
1.0
 40
1.0
 40
1.0
 40
1.0
 10
178.2244453785956
 20
60.93807541184871
 30
0.0
 10
177.9836355550333
 20
61.00590155157322
 30
0.0
 10
177.6826386428796
 20
61.09067989789808
 30
0.0
 10
177.3226192114304
 20
61.09065145580988
 30
0.0
 10
177.1761911379024
 20
61.06288566509689
 30
0.0
 10
177.0750847012033
 20
61.00411398925728
 30
0.0
 10
176.997479101925
 20
60.91304370694505
 30
0.0
 10
176.9769834064301
 20
60.82091316897138
 30
0.0
 10
176.9633432433743
 20
60.75959904763821
 30
0.0
  0
LINE
  5
432
330
1F
100
AcDbEntity
  8
0
  6
SLD-Durchgehend
 62
     8
370
     0
100
AcDbLine
 10
186.4300367007
 20
69.4953356913
 30
0.0
 11
186.4300367007
 21
69.6096244706
 31
0.0
  0
LINE
  5
433
330
1F
100
AcDbEntity
  8
0
  6
SLD-Durchgehend
 62
     8
370
     0
100
AcDbLine
 10
178.1754673103
 20
71.8530395569
 30
0.0
 11
178.1754673103
 21
71.7387507776
 31
0.0
  0
ARC
  5
434
330
1F
100
AcDbEntity
  8
0
  6
SLD-Durchgehend
 62
     8
370
     0
100
AcDbCircle
 10
187.9604540526
 20
68.2677796433
 30
0.0
 40
2.602420008392297
100
AcDbArc
 50
110.0405049372
 51
115.8878319654
  0
SPLINE
  5
435
330
1F
100
AcDbEntity
  8
0
  6
SLD-Durchgehend
 62
     8
370
     0
100
AcDbSpline
210
0.0
220
0.0
230
1.0
 70
     8
 71
     3
 72
    10
 73
     6
 74
     0
 42
0.000000001
 43
0.00000001
 40
0.0
 40
0.0
 40
0.0
 40
0.0
 40
0.4999070011357331
 40
0.7522032441656844
 40
0.9999999999999999
 40
0.9999999999999999
 40
0.9999999999999999
 40
0.9999999999999999
 10
187.0686453958014
 20
70.71262467315937
 30
0.0
 10
187.0414669004461
 20
70.71879565769962
 30
0.0
 10
187.0005717892927
 20
70.72808105394397
 30
0.0
 10
186.9429949409254
 20
70.73689434809893
 30
0.0
 10
186.9152187130273
 20
70.73911162880849
 30
0.0
 10
186.9014555546186
 20
70.74021029439237
 30
0.0
  0
SPLINE
  5
436
330
1F
100
AcDbEntity
  8
0
  6
SLD-Durchgehend
 62
     8
370
     0
100
AcDbSpline
210
0.0
220
0.0
230
1.0
 70
     8
 71
     3
 72
    10
 73
     6
 74
     0
 42
0.000000001
 43
0.00000001
 40
0.0
 40
0.0
 40
0.0
 40
0.0
 40
0.2504395318801436
 40
0.5009111652933786
 40
1.0
 40
1.0
 40
1.0
 40
1.0
 10
186.9014555546186
 20
70.74021029439237
 30
0.0
 10
186.8838920345148
 20
70.74093703372166
 30
0.0
 10
186.8487627430015
 20
70.7423906055343
 30
0.0
 10
186.7871508769245
 20
70.73898082102362
 30
0.0
 10
186.7574008004013
 20
70.72952718374566
 30
0.0
 10
186.7375919502072
 20
70.72323255507528
 30
0.0
  0
SPLINE
  5
437
330
1F
100
AcDbEntity
  8
0
  6
SLD-Durchgehend
 62
     8
370
     0
100
AcDbSpline
210
0.0
220
0.0
230
1.0
 70
     8
 71
     3
 72
    12
 73
     8
 74
     0
 42
0.000000001
 43
0.00000001
 40
0.0
 40
0.0
 40
0.0
 40
0.0
 40
0.2501104439777408
 40
0.499739752925032
 40
0.6267048629592256
 40
0.7503761925628797
 40
1.0
 40
1.0
 40
1.0
 40
1.0
 10
186.7375919502072
 20
70.72323255507528
 30
0.0
 10
186.7245727574093
 20
70.71610459309495
 30
0.0
 10
186.698559416708
 20
70.70186238112544
 30
0.0
 10
186.7016096570056
 20
70.67586164299365
 30
0.0
 10
186.7222137488916
 20
70.65425257412576
 30
0.0
 10
186.7558513388661
 20
70.63236391102683
 30
0.0
 10
186.7968161898002
 20
70.61839154037965
 30
0.0
 10
186.8242095336898
 20
70.6090481656239
 30
0.0
  0
SPLINE
  5
438
330
1F
100
AcDbEntity
  8
0
  6
SLD-Durchgehend
 62
     8
370
     0
100
AcDbSpline
210
0.0
220
0.0
230
1.0
 70
     8
 71
     3
 72
    10
 73
     6
 74
     0
 42
0.000000001
 43
0.00000001
 40
0.0
 40
0.0
 40
0.0
 40
0.0
 40
0.4991150995393203
 40
0.7494741002342994
 40
1.0
 40
1.0
 40
1.0
 40
1.0
 10
185.071017358985
 20
71.47813447451263
 30
0.0
 10
185.0695501545592
 20
71.48530262626566
 30
0.0
 10
185.0673469919662
 20
71.49606636410974
 30
0.0
 10
185.0917463147607
 20
71.50326171755228
 30
0.0
 10
185.1091640645016
 20
71.50507090482513
 30
0.0
 10
185.1178758412426
 20
71.50597579987978
 30
0.0
  0
LINE
  5
439
330
1F
100
AcDbEntity
  8
0
  6
SLD-Durchgehend
 62
     8
370
     0
100
AcDbLine
 10
185.1539624758
 20
71.4227878095
 30
0.0
 11
185.071017359
 21
71.4781344745
 31
0.0
  0
SPLINE
  5
43A
330
1F
100
AcDbEntity
  8
0
  6
SLD-Durchgehend
 62
     8
370
     0
100
AcDbSpline
210
0.0
220
0.0
230
1.0
 70
     8
 71
     3
 72
     9
 73
     5
 74
     0
 42
0.000000001
 43
0.00000001
 40
0.0
 40
0.0
 40
0.0
 40
0.0
 40
0.4997963864610781
 40
1.0
 40
1.0
 40
1.0
 40
1.0
 10
185.5239756708016
 20
71.29515397779923
 30
0.0
 10
185.4514791878756
 20
71.31625905957347
 30
0.0
 10
185.3064271529074
 20
71.35848641924622
 30
0.0
 10
185.2047978302221
 20
71.40134819460903
 30
0.0
 10
185.1539624757734
 20
71.42278780952822
 30
0.0
  0
SPLINE
  5
43B
330
1F
100
AcDbEntity
  8
0
  6
SLD-Durchgehend
 62
     8
370
     0
100
AcDbSpline
210
0.0
220
0.0
230
1.0
 70
     8
 71
     3
 72
    10
 73
     6
 74
     0
 42
0.000000001
 43
0.00000001
 40
0.0
 40
0.0
 40
0.0
 40
0.0
 40
0.2504065189886532
 40
0.5008599531964757
 40
1.0
 40
1.0
 40
1.0
 40
1.0
 10
185.8029348301727
 20
71.24122395551532
 30
0.0
 10
185.7802123614012
 20
71.24397167693044
 30
0.0
 10
185.7347631666622
 20
71.2494676345634
 30
0.0
 10
185.6369740764237
 20
71.26652927570883
 30
0.0
 10
185.5691430569689
 20
71.28371219712874
 30
0.0
 10
185.5239756708016
 20
71.29515397779923
 30
0.0
  0
SPLINE
  5
43C
330
1F
100
AcDbEntity
  8
0
  6
SLD-Durchgehend
 62
     8
370
     0
100
AcDbSpline
210
0.0
220
0.0
230
1.0
 70
     8
 71
     3
 72
    10
 73
     6
 74
     0
 42
0.000000001
 43
0.00000001
 40
0.0
 40
0.0
 40
0.0
 40
0.0
 40
0.4994451714400137
 40
0.7497501780224763
 40
1.0
 40
1.0
 40
1.0
 40
1.0
 10
186.00710805628
 20
71.23512077512765
 30
0.0
 10
185.9827937077267
 20
71.23326048129141
 30
0.0
 10
185.946293831066
 20
71.23046787118193
 30
0.0
 10
185.8702568296536
 20
71.23400119291956
 30
0.0
 10
185.8253738472635
 20
71.23881654494258
 30
0.0
 10
185.8029348301727
 20
71.24122395551532
 30
0.0
  0
SPLINE
  5
43D
330
1F
100
AcDbEntity
  8
0
  6
SLD-Durchgehend
 62
     8
370
     0
100
AcDbSpline
210
0.0
220
0.0
230
1.0
 70
     8
 71
     3
 72
    10
 73
     6
 74
     0
 42
0.000000001
 43
0.00000001
 40
0.0
 40
0.0
 40
0.0
 40
0.0
 40
0.499193126574009
 40
0.7495019885251385
 40
1.0
 40
1.0
 40
1.0
 40
1.0
 10
186.0427106561857
 20
71.25965804537503
 30
0.0
 10
186.0454014674928
 20
71.25396938588362
 30
0.0
 10
186.0494415239721
 20
71.24542827949834
 30
0.0
 10
186.0304760735698
 20
71.23846309521002
 30
0.0
 10
186.0148993564311
 20
71.23623516231078
 30
0.0
 10
186.00710805628
 20
71.23512077512765
 30
0.0
  0
LINE
  5
43E
330
1F
100
AcDbEntity
  8
0
  6
SLD-Durchgehend
 62
     8
370
     0
100
AcDbLine
 10
185.9589042013
 20
71.3028095986
 30
0.0
 11
186.0427106562
 21
71.2596580454
 31
0.0
  0
SPLINE
  5
43F
330
1F
100
AcDbEntity
  8
0
  6
SLD-Durchgehend
 62
     8
370
     0
100
AcDbSpline
210
0.0
220
0.0
230
1.0
 70
     8
 71
     3
 72
     9
 73
     5
 74
     0
 42
0.000000001
 43
0.00000001
 40
0.0
 40
0.0
 40
0.0
 40
0.0
 40
0.4997595098449884
 40
1.0
 40
1.0
 40
1.0
 40
1.0
 10
185.6175057551714
 20
71.41025195490977
 30
0.0
 10
185.6845270949795
 20
71.39141503864347
 30
0.0
 10
185.8186342775101
 20
71.35372307701948
 30
0.0
 10
185.9121325697517
 20
71.31978619908283
 30
0.0
 10
185.9589042012913
 20
71.30280959862948
 30
0.0
  0
SPLINE
  5
440
330
1F
100
AcDbEntity
  8
0
  6
SLD-Durchgehend
 62
     8
370
     0
100
AcDbSpline
210
0.0
220
0.0
230
1.0
 70
     8
 71
     3
 72
     9
 73
     5
 74
     0
 42
0.000000001
 43
0.00000001
 40
0.0
 40
0.0
 40
0.0
 40
0.0
 40
0.4993249872272895
 40
1.0
 40
1.0
 40
1.0
 40
1.0
 10
185.3258740808038
 20
71.48095104623984
 30
0.0
 10
185.3763731555977
 20
71.46988719460856
 30
0.0
 10
185.4775078395926
 20
71.44772957799756
 30
0.0
 10
185.5707978020343
 20
71.42275573438133
 30
0.0
 10
185.6175057551714
 20
71.41025195490977
 30
0.0
  0
SPLINE
  5
441
330
1F
100
AcDbEntity
  8
0
  6
SLD-Durchgehend
 62
     8
370
     0
100
AcDbSpline
210
0.0
220
0.0
230
1.0
 70
     8
 71
     3
 72
    12
 73
     8
 74
     0
 42
0.000000001
 43
0.00000001
 40
0.0
 40
0.0
 40
0.0
 40
0.0
 40
0.2501550270485443
 40
0.5000116085022878
 40
0.7496472739662075
 40
0.8747912315646552
 40
1.0
 40
1.0
 40
1.0
 40
1.0
 10
185.1178758412426
 20
71.50597579987978
 30
0.0
 10
185.1290046750075
 20
71.5062736584972
 30
0.0
 10
185.1512490653651
 20
71.50686902037403
 30
0.0
 10
185.1993335055777
 20
71.50267336880339
 30
0.0
 10
185.2485838217458
 20
71.49549244222366
 30
0.0
 10
185.2919387583096
 20
71.48772679770084
 30
0.0
 10
185.3145603545605
 20
71.48321001982514
 30
0.0
 10
185.3258740808038
 20
71.48095104623984
 30
0.0
  0
SPLINE
  5
442
330
1F
100
AcDbEntity
  8
0
  6
SLD-Durchgehend
 62
     8
370
     0
100
AcDbSpline
210
0.0
220
0.0
230
1.0
 70
     8
 71
     3
 72
    11
 73
     7
 74
     0
 42
0.000000001
 43
0.00000001
 40
0.0
 40
0.0
 40
0.0
 40
0.0
 40
0.2501815669489472
 40
0.5001216351440596
 40
0.7499694171462513
 40
0.9999999999999999
 40
0.9999999999999999
 40
0.9999999999999999
 40
0.9999999999999999
 10
183.138152997499
 20
72.0919508688983
 30
0.0
 10
183.1476524695642
 20
72.09130000648592
 30
0.0
 10
183.1666422439116
 20
72.0899989099347
 30
0.0
 10
183.2076234707949
 20
72.08388742281767
 30
0.0
 10
183.2582048502944
 20
72.07432231480398
 30
0.0
 10
183.2966709053254
 20
72.06568821778392
 30
0.0
 10
183.3159109661796
 20
72.06136959056956
 30
0.0
  0
SPLINE
  5
443
330
1F
100
AcDbEntity
  8
0
  6
SLD-Durchgehend
 62
     8
370
     0
100
AcDbSpline
210
0.0
220
0.0
230
1.0
 70
     8
 71
     3
 72
    13
 73
     9
 74
     0
 42
0.000000001
 43
0.00000001
 40
0.0
 40
0.0
 40
0.0
 40
0.0
 40
0.2501777671190049
 40
0.4994583682678755
 40
0.6224884453491566
 40
0.7495685037128573
 40
0.874719701096252
 40
1.0
 40
1.0
 40
1.0
 40
1.0
 10
183.2929086217451
 20
72.00035629742202
 30
0.0
 10
183.2555115643646
 20
72.01240136060699
 30
0.0
 10
183.1808515597111
 20
72.03644829200834
 30
0.0
 10
183.1176539711062
 20
72.06353285467351
 30
0.0
 10
183.0966890824353
 20
72.07932267758726
 30
0.0
 10
183.0972419401157
 20
72.08733372958265
 30
0.0
 10
183.1109722628366
 20
72.09179084244437
 30
0.0
 10
183.1290896393438
 20
72.09189750841763
 30
0.0
 10
183.138152997499
 20
72.0919508688983
 30
0.0
  0
ARC
  5
444
330
1F
100
AcDbEntity
  8
0
  6
SLD-Durchgehend
 62
     8
370
     0
100
AcDbCircle
 10
183.4100555772
 20
70.422576274
 30
0.0
 40
1.582123007719322
100
AcDbArc
 50
84.3623829844
 51
94.2463035008
  0
SPLINE
  5
445
330
1F
100
AcDbEntity
  8
0
  6
SLD-Durchgehend
 62
     8
370
     0
100
AcDbSpline
210
0.0
220
0.0
230
1.0
 70
     8
 71
     3
 72
    10
 73
     6
 74
     0
 42
0.000000001
 43
0.00000001
 40
0.0
 40
0.0
 40
0.0
 40
0.0
 40
0.4985389530971368
 40
0.7491709111790267
 40
1.0
 40
1.0
 40
1.0
 40
1.0
 10
183.3159109661796
 20
72.06136959056956
 30
0.0
 10
183.3597690499041
 20
72.05080904511007
 30
0.0
 10
183.4256760373968
 20
72.03493936548873
 30
0.0
 10
183.5079139850107
 20
72.01299606821775
 30
0.0
 10
183.5462846107178
 20
72.00236457582163
 30
0.0
 10
183.5654774655627
 20
71.99704673993585
 30
0.0
  0
LWPOLYLINE
  5
446
330
1F
100
AcDbEntity
  8
0
  6
SLD-Durchgehend
 62
     8
370
     0
100
AcDbPolyline
 90
        7
 70
   128
 43
0.0
 10
123.3182128101
 20
75.9530515701
 10
123.3510992753
 20
75.2562100768
 10
123.4488614212
 20
74.6425728753
 10
123.6088328518
 20
74.128878543
 10
123.826649742
 20
73.7291391929
 10
124.0963706538
 20
73.454258615
 10
124.3744354255
 20
73.3207029636
  0
LWPOLYLINE
  5
447
330
1F
100
AcDbEntity
  8
0
  6
SLD-Durchgehend
 62
     8
370
     0
100
AcDbPolyline
 90
       14
 70
   128
 43
0.0
 10
127.0200218811
 20
83.3071135028
 10
126.6980642277
 20
83.3075734404
 10
126.3214014899
 20
83.1774365495
 10
125.928592508
 20
82.9144336538
 10
125.5303520523
 20
82.5257387604
 10
125.1375430704
 20
82.0219544392
 10
124.7608803325
 20
81.4168225716
 10
124.410638369
 20
80.7268496124
 10
124.0963706538
 20
79.9708563472
 10
123.826649742
 20
79.1694640122
 10
123.6088328518
 20
78.3445327376
 10
123.4488614212
 20
77.5185643643
 10
123.3510992753
 20
76.7140894601
 10
123.3182128101
 20
75.9530515701
  0
LINE
  5
448
330
1F
100
AcDbEntity
  8
0
  6
SLD-Durchgehend
 62
     8
370
     0
100
AcDbLine
 10
122.2092332485
 20
77.2206839248
 30
0.0
 11
123.1866256057
 21
76.9550496251
 31
0.0
  0
LINE
  5
449
330
1F
100
AcDbEntity
  8
0
  6
SLD-Durchgehend
 62
     8
370
     0
100
AcDbLine
 10
123.0175733477
 20
80.5811504504
 30
0.0
 11
122.2092332485
 21
77.2206839248
 31
0.0
  0
LINE
  5
44A
330
1F
100
AcDbEntity
  8
0
  6
SLD-Durchgehend
 62
     8
370
     0
100
AcDbLine
 10
124.0249256398
 20
80.3073736824
 30
0.0
 11
123.0175733477
 21
80.5811504504
 31
0.0
  0
ARC
  5
44B
330
1F
100
AcDbEntity
  8
0
  6
SLD-Durchgehend
 62
     8
370
     0
100
AcDbCircle
 10
123.1287056131
 20
81.1997281235
 30
0.0
 40
0.6284812789403468
100
AcDbArc
 50
241.436353197
 51
259.8150221646
  0
ARC
  5
44C
330
1F
100
AcDbEntity
  8
0
  6
SLD-Durchgehend
 62
     8
370
     0
100
AcDbCircle
 10
122.3203565475
 20
77.8392376853
 30
0.0
 40
0.6284561577620055
100
AcDbArc
 50
241.4360371206
 51
259.8154412412
  0
LINE
  5
44D
330
1F
100
AcDbEntity
  8
0
  6
SLD-Durchgehend
 62
     8
370
     0
100
AcDbLine
 10
123.1522967459
 20
80.8555058574
 30
0.0
 11
124.1377941001
 21
80.5876687932
 31
0.0
  0
ARC
  5
44E
330
1F
100
AcDbEntity
  8
0
  6
SLD-Durchgehend
 62
     8
370
     0
100
AcDbCircle
 10
123.6042146809
 20
80.4633336646
 30
0.0
 40
0.5983551192837948
100
AcDbArc
 50
139.048713745
 51
168.6441975317
  0
LINE
  5
44F
330
1F
100
AcDbEntity
  8
0
  6
SLD-Durchgehend
 62
     8
370
     0
100
AcDbLine
 10
124.7689769443
 20
82.4334352926
 30
0.0
 11
123.1522967459
 21
80.8555058574
 31
0.0
  0
LINE
  5
450
330
1F
100
AcDbEntity
  8
0
  6
SLD-Durchgehend
 62
     8
370
     0
100
AcDbLine
 10
125.1704488578
 20
82.324323829
 30
0.0
 11
124.7689769443
 21
82.4334352926
 31
0.0
  0
LINE
  5
451
330
1F
100
AcDbEntity
  8
0
  6
SLD-Durchgehend
 62
     8
370
     0
100
AcDbLine
 10
123.1638788985
 20
76.6755092456
 30
0.0
 11
122.2092332485
 21
76.9349614776
 31
0.0
  0
ARC
  5
452
330
1F
100
AcDbEntity
  8
0
  6
SLD-Durchgehend
 62
     8
370
     0
100
AcDbCircle
 10
122.6760011806
 20
77.0778227012
 30
0.0
 40
0.48814099558996
100
AcDbArc
 50
162.9824956145
 51
197.0175043855
  0
LINE
  5
453
330
1F
100
AcDbEntity
  8
0
  6
SLD-Durchgehend
 62
     8
370
     0
100
AcDbLine
 10
122.2092332485
 20
76.9349614776
 30
0.0
 11
123.0175733477
 21
75.1524243872
 31
0.0
  0
LINE
  5
454
330
1F
100
AcDbEntity
  8
0
  6
SLD-Durchgehend
 62
     8
370
     0
100
AcDbLine
 10
123.0175733477
 20
75.1524243872
 30
0.0
 11
123.2147729779
 21
75.0988297532
 31
0.0
  0
ARC
  5
455
330
1F
100
AcDbEntity
  8
0
  6
SLD-Durchgehend
 62
     8
370
     0
100
AcDbCircle
 10
123.0762000446
 20
80.6329535135
 30
0.0
 40
0.2352025801979263
100
AcDbArc
 50
71.1230461133
 51
131.7868047507
  0
ARC
  5
456
330
1F
100
AcDbEntity
  8
0
  6
SLD-Durchgehend
 62
     8
370
     0
100
AcDbCircle
 10
124.6928802429
 20
82.2108829487
 30
0.0
 40
0.2352025801978449
100
AcDbArc
 50
71.1230461133
 51
131.7868047507
  0
ARC
  5
457
330
1F
100
AcDbEntity
  8
0
  6
SLD-Durchgehend
 62
     8
370
     0
100
AcDbCircle
 10
122.268962267
 20
77.1813827229
 30
0.0
 40
0.2535566717264686
100
AcDbArc
 50
205.6434477758
 51
256.3750837898
  0
ARC
  5
458
330
1F
100
AcDbEntity
  8
0
  6
SLD-Durchgehend
 62
     8
370
     0
100
AcDbCircle
 10
123.0773027875
 20
75.3988462932
 30
0.0
 40
0.2535574130631699
100
AcDbArc
 50
205.6435767323
 51
256.3750264271
  0
ARC
  5
459
330
1F
100
AcDbEntity
  8
0
  6
SLD-Durchgehend
 62
     8
370
     0
100
AcDbCircle
 10
124.8432802535
 20
82.3769988204
 30
0.0
 40
0.0933062546769599
100
AcDbArc
 50
81.9176931756
 51
142.7818092667
  0
ARC
  5
45A
330
1F
100
AcDbEntity
  8
0
  6
SLD-Durchgehend
 62
     8
370
     0
100
AcDbCircle
 10
123.0896878153
 20
75.1772243902
 30
0.0
 40
0.0762596655018629
100
AcDbArc
 50
198.9779781727
 51
251.0118395303
  0
LINE
  5
45B
330
1F
100
AcDbEntity
  8
0
  6
SLD-Durchgehend
 62
     8
370
     0
100
AcDbLine
 10
191.4739454651
 20
58.8068810149
 30
0.0
 11
191.4117195189
 21
58.7461465838
 31
0.0
  0
LINE
  5
45C
330
1F
100
AcDbEntity
  8
0
  6
SLD-Durchgehend
 62
     8
370
     0
100
AcDbLine
 10
191.4739454651
 20
56.9811878765
 30
0.0
 11
191.4117195189
 21
56.9204534455
 31
0.0
  0
LINE
  5
45D
330
1F
100
AcDbEntity
  8
0
  6
SLD-Durchgehend
 62
     8
370
     0
100
AcDbLine
 10
191.4706383956
 20
55.580444107
 30
0.0
 11
191.4084124495
 21
55.519709676
 31
0.0
  0
LINE
  5
45E
330
1F
100
AcDbEntity
  8
0
  6
SLD-Durchgehend
 62
     8
370
     0
100
AcDbLine
 10
191.4706383956
 20
54.4727202656
 30
0.0
 11
191.4084124495
 21
54.4119858345
 31
0.0
  0
ENDSEC
  0
SECTION
  2
OBJECTS
  0
DICTIONARY
  5
C
330
0
100
AcDbDictionary
281
     1
  3
ACAD_GROUP
350
D
  3
ACAD_LAYOUT
350
1A
  3
ACAD_MLINESTYLE
350
17
  3
ACAD_PLOTSETTINGS
350
19
  3
ACAD_PLOTSTYLENAME
350
E
  3
ACAD_SCALELIST
350
47
  0
DICTIONARY
  5
D
102
{ACAD_REACTORS
330
C
102
}
330
C
100
AcDbDictionary
281
     1
  0
DICTIONARY
  5
1A
102
{ACAD_REACTORS
330
C
102
}
330
C
100
AcDbDictionary
281
     1
  3
Layout1
350
1E
  3
Layout2
350
26
  3
Model
350
22
  0
DICTIONARY
  5
17
102
{ACAD_REACTORS
330
C
102
}
330
C
100
AcDbDictionary
281
     1
  3
Standard
350
18
  0
DICTIONARY
  5
19
102
{ACAD_REACTORS
330
C
102
}
330
C
100
AcDbDictionary
281
     1
  0
ACDBDICTIONARYWDFLT
  5
E
102
{ACAD_REACTORS
330
C
102
}
330
C
100
AcDbDictionary
281
     1
  3
Normal
350
F
100
AcDbDictionaryWithDefault
340
F
  0
DICTIONARY
  5
47
102
{ACAD_REACTORS
330
C
102
}
330
C
100
AcDbDictionary
281
     1
  3
A0
350
48
  3
A1
350
49
  3
A2
350
4A
  3
A3
350
4B
  3
A4
350
4C
  3
A5
350
4D
  3
A6
350
4E
  3
A7
350
4F
  3
A8
350
50
  3
A9
350
51
  3
B0
350
52
  3
B1
350
53
  3
B2
350
54
  3
B3
350
55
  3
B4
350
56
  3
B5
350
57
  3
B6
350
58
  3
B7
350
59
  3
B8
350
5A
  3
B9
350
5B
  3
C0
350
5C
  3
C1
350
5D
  3
C2
350
5E
  3
C3
350
5F
  3
C4
350
60
  3
C5
350
61
  3
C6
350
62
  3
C7
350
63
  3
C8
350
64
  3
C9
350
65
  3
D0
350
66
  3
D1
350
67
  3
D2
350
68
  0
LAYOUT
  5
1E
102
{ACAD_REACTORS
330
1A
102
}
330
1A
100
AcDbPlotSettings
  1

  2
none_device
  4

  6

 40
0.0
 41
0.0
 42
0.0
 43
0.0
 44
0.0
 45
0.0
 46
0.0
 47
0.0
 48
0.0
 49
0.0
140
0.0
141
0.0
142
1.0
143
1.0
 70
   688
 72
     1
 73
     0
 74
     5
  7

 75
    16
147
1.0
148
0.0
149
0.0
100
AcDbLayout
  1
Layout1
 70
     1
 71
     1
 10
0.0
 20
0.0
 11
420.0
 21
297.0
 12
0.0
 22
0.0
 32
0.0
 14
1.0000000000E+20
 24
1.0000000000E+20
 34
1.0000000000E+20
 15
-1.0000000000E+20
 25
-1.0000000000E+20
 35
-1.0000000000E+20
146
0.0
 13
0.0
 23
0.0
 33
0.0
 16
1.0
 26
0.0
 36
0.0
 17
0.0
 27
1.0
 37
0.0
 76
     0
330
1B
  0
LAYOUT
  5
26
102
{ACAD_REACTORS
330
1A
102
}
330
1A
100
AcDbPlotSettings
  1

  2
none_device
  4

  6

 40
0.0
 41
0.0
 42
0.0
 43
0.0
 44
0.0
 45
0.0
 46
0.0
 47
0.0
 48
0.0
 49
0.0
140
0.0
141
0.0
142
1.0
143
1.0
 70
   688
 72
     1
 73
     0
 74
     5
  7

 75
    16
147
1.0
148
0.0
149
0.0
100
AcDbLayout
  1
Layout2
 70
     1
 71
     2
 10
0.0
 20
0.0
 11
0.0
 21
0.0
 12
0.0
 22
0.0
 32
0.0
 14
0.0
 24
0.0
 34
0.0
 15
0.0
 25
0.0
 35
0.0
146
0.0
 13
0.0
 23
0.0
 33
0.0
 16
1.0
 26
0.0
 36
0.0
 17
0.0
 27
1.0
 37
0.0
 76
     0
330
23
  0
LAYOUT
  5
22
102
{ACAD_REACTORS
330
1A
102
}
330
1A
100
AcDbPlotSettings
  1

  2
none_device
  4
Letter_(8.50_x_11.00_Inches)
  6

 40
6.35
 41
6.35
 42
6.35000508
 43
6.35000508
 44
215.9
 45
279.4
 46
0.0
 47
0.0
 48
0.0
 49
0.0
140
0.0
141
0.0
142
1.0
143
1.0
 70
  1712
 72
     1
 73
     0
 74
     0
  7

 75
     0
147
1.0
148
0.0
149
0.0
100
AcDbLayout
  1
Model
 70
     1
 71
     0
 10
0.0
 20
0.0
 11
210.0
 21
297.0
 12
0.0
 22
0.0
 32
0.0
 14
0.0
 24
0.0
 34
0.0
 15
210.0
 25
297.0
 35
0.0
146
0.0
 13
0.0
 23
0.0
 33
0.0
 16
1.0
 26
0.0
 36
0.0
 17
0.0
 27
1.0
 37
0.0
 76
     0
330
1F
331
29
  0
MLINESTYLE
  5
18
102
{ACAD_REACTORS
330
17
102
}
330
17
100
AcDbMlineStyle
  2
Standard
 70
     0
  3

 62
   256
 51
90.0
 52
90.0
 71
     2
 49
0.5
 62
   256
  6
BYLAYER
 49
-0.5
 62
   256
  6
BYLAYER
  0
ACDBPLACEHOLDER
  5
F
102
{ACAD_REACTORS
330
E
102
}
330
E
  0
SCALE
  5
48
102
{ACAD_REACTORS
330
47
102
}
330
47
100
AcDbScale
 70
     0
300
1:1
140
1.0
141
1.0
290
     1
  0
SCALE
  5
49
102
{ACAD_REACTORS
330
47
102
}
330
47
100
AcDbScale
 70
     0
300
1:2
140
1.0
141
2.0
290
     0
  0
SCALE
  5
4A
102
{ACAD_REACTORS
330
47
102
}
330
47
100
AcDbScale
 70
     0
300
1:4
140
1.0
141
4.0
290
     0
  0
SCALE
  5
4B
102
{ACAD_REACTORS
330
47
102
}
330
47
100
AcDbScale
 70
     0
300
1:5
140
1.0
141
5.0
290
     0
  0
SCALE
  5
4C
102
{ACAD_REACTORS
330
47
102
}
330
47
100
AcDbScale
 70
     0
300
1:8
140
1.0
141
8.0
290
     0
  0
SCALE
  5
4D
102
{ACAD_REACTORS
330
47
102
}
330
47
100
AcDbScale
 70
     0
300
1:10
140
1.0
141
10.0
290
     0
  0
SCALE
  5
4E
102
{ACAD_REACTORS
330
47
102
}
330
47
100
AcDbScale
 70
     0
300
1:16
140
1.0
141
16.0
290
     0
  0
SCALE
  5
4F
102
{ACAD_REACTORS
330
47
102
}
330
47
100
AcDbScale
 70
     0
300
1:20
140
1.0
141
20.0
290
     0
  0
SCALE
  5
50
102
{ACAD_REACTORS
330
47
102
}
330
47
100
AcDbScale
 70
     0
300
1:30
140
1.0
141
30.0
290
     0
  0
SCALE
  5
51
102
{ACAD_REACTORS
330
47
102
}
330
47
100
AcDbScale
 70
     0
300
1:40
140
1.0
141
40.0
290
     0
  0
SCALE
  5
52
102
{ACAD_REACTORS
330
47
102
}
330
47
100
AcDbScale
 70
     0
300
1:50
140
1.0
141
50.0
290
     0
  0
SCALE
  5
53
102
{ACAD_REACTORS
330
47
102
}
330
47
100
AcDbScale
 70
     0
300
1:100
140
1.0
141
100.0
290
     0
  0
SCALE
  5
54
102
{ACAD_REACTORS
330
47
102
}
330
47
100
AcDbScale
 70
     0
300
2:1
140
2.0
141
1.0
290
     0
  0
SCALE
  5
55
102
{ACAD_REACTORS
330
47
102
}
330
47
100
AcDbScale
 70
     0
300
4:1
140
4.0
141
1.0
290
     0
  0
SCALE
  5
56
102
{ACAD_REACTORS
330
47
102
}
330
47
100
AcDbScale
 70
     0
300
8:1
140
8.0
141
1.0
290
     0
  0
SCALE
  5
57
102
{ACAD_REACTORS
330
47
102
}
330
47
100
AcDbScale
 70
     0
300
10:1
140
10.0
141
1.0
290
     0
  0
SCALE
  5
58
102
{ACAD_REACTORS
330
47
102
}
330
47
100
AcDbScale
 70
     0
300
100:1
140
100.0
141
1.0
290
     0
  0
SCALE
  5
59
102
{ACAD_REACTORS
330
47
102
}
330
47
100
AcDbScale
 70
     0
300
1/128" = 1'-0"
140
0.0078125
141
12.0
290
     0
  0
SCALE
  5
5A
102
{ACAD_REACTORS
330
47
102
}
330
47
100
AcDbScale
 70
     0
300
1/64" = 1'-0"
140
0.015625
141
12.0
290
     0
  0
SCALE
  5
5B
102
{ACAD_REACTORS
330
47
102
}
330
47
100
AcDbScale
 70
     0
300
1/32" = 1'-0"
140
0.03125
141
12.0
290
     0
  0
SCALE
  5
5C
102
{ACAD_REACTORS
330
47
102
}
330
47
100
AcDbScale
 70
     0
300
1/16" = 1'-0"
140
0.0625
141
12.0
290
     0
  0
SCALE
  5
5D
102
{ACAD_REACTORS
330
47
102
}
330
47
100
AcDbScale
 70
     0
300
3/32" = 1'-0"
140
0.09375
141
12.0
290
     0
  0
SCALE
  5
5E
102
{ACAD_REACTORS
330
47
102
}
330
47
100
AcDbScale
 70
     0
300
1/8" = 1'-0"
140
0.125
141
12.0
290
     0
  0
SCALE
  5
5F
102
{ACAD_REACTORS
330
47
102
}
330
47
100
AcDbScale
 70
     0
300
3/16" = 1'-0"
140
0.1875
141
12.0
290
     0
  0
SCALE
  5
60
102
{ACAD_REACTORS
330
47
102
}
330
47
100
AcDbScale
 70
     0
300
1/4" = 1'-0"
140
0.25
141
12.0
290
     0
  0
SCALE
  5
61
102
{ACAD_REACTORS
330
47
102
}
330
47
100
AcDbScale
 70
     0
300
3/8" = 1'-0"
140
0.375
141
12.0
290
     0
  0
SCALE
  5
62
102
{ACAD_REACTORS
330
47
102
}
330
47
100
AcDbScale
 70
     0
300
1/2" = 1'-0"
140
0.5
141
12.0
290
     0
  0
SCALE
  5
63
102
{ACAD_REACTORS
330
47
102
}
330
47
100
AcDbScale
 70
     0
300
3/4" = 1'-0"
140
0.75
141
12.0
290
     0
  0
SCALE
  5
64
102
{ACAD_REACTORS
330
47
102
}
330
47
100
AcDbScale
 70
     0
300
1" = 1'-0"
140
1.0
141
12.0
290
     0
  0
SCALE
  5
65
102
{ACAD_REACTORS
330
47
102
}
330
47
100
AcDbScale
 70
     0
300
1-1/2" = 1'-0"
140
1.5
141
12.0
290
     0
  0
SCALE
  5
66
102
{ACAD_REACTORS
330
47
102
}
330
47
100
AcDbScale
 70
     0
300
3" = 1'-0"
140
3.0
141
12.0
290
     0
  0
SCALE
  5
67
102
{ACAD_REACTORS
330
47
102
}
330
47
100
AcDbScale
 70
     0
300
6" = 1'-0"
140
6.0
141
12.0
290
     0
  0
SCALE
  5
68
102
{ACAD_REACTORS
330
47
102
}
330
47
100
AcDbScale
 70
     0
300
1'-0" = 1'-0"
140
12.0
141
12.0
290
     0
  0
ENDSEC
  0
EOF
