  0
SECTION
  2
HEADER
  9
$ACADVER
  1
AC1015
  9
$ACADMAINTVER
 70
     6
  9
$DWGCODEPAGE
  3
ANSI_1252
  9
$INSBASE
 10
0.0
 20
0.0
 30
0.0
  9
$EXTMIN
 10
0.0
 20
0.0
 30
0.0
  9
$EXTMAX
 10
420.0
 20
297.0
 30
0.0
  9
$LIMMIN
 10
0.0
 20
0.0
  9
$LIMMAX
 10
420.0
 20
297.0
  9
$ORTHOMODE
 70
     0
  9
$REGENMODE
 70
     1
  9
$FILLMODE
 70
     1
  9
$QTEXTMODE
 70
     0
  9
$MIRRTEXT
 70
     1
  9
$LTSCALE
 40
1.0
  9
$ATTMODE
 70
     1
  9
$TEXTSIZE
 40
3.0
  9
$TRACEWID
 40
1.0
  9
$TEXTSTYLE
  7
STANDARD
  9
$CLAYER
  8
0
  9
$CELTYPE
  6
ByLayer
  9
$CECOLOR
 62
   256
  9
$CELTSCALE
 40
1.0
  9
$DISPSILH
 70
     0
  9
$DIMSCALE
 40
1.0
  9
$DIMASZ
 40
3.5
  9
$DIMEXO
 40
1.0
  9
$DIMDLI
 40
3.75
  9
$DIMRND
 40
0.0
  9
$DIMDLE
 40
0.0
  9
$DIMEXE
 40
1.0
  9
$DIMTP
 40
0.0
  9
$DIMTM
 40
0.0
  9
$DIMTXT
 40
3.0
  9
$DIMCEN
 40
2.5
  9
$DIMTSZ
 40
0.0
  9
$DIMTOL
 70
     0
  9
$DIMLIM
 70
     0
  9
$DIMTIH
 70
     1
  9
$DIMTOH
 70
     1
  9
$DIMSE1
 70
     0
  9
$DIMSE2
 70
     0
  9
$DIMTAD
 70
     1
  9
$DIMZIN
 70
     0
  9
$DIMBLK
  1

  9
$DIMASO
 70
     1
  9
$DIMSHO
 70
     1
  9
$DIMPOST
  1

  9
$DIMAPOST
  1

  9
$DIMALT
 70
     0
  9
$DIMALTD
 70
     3
  9
$DIMALTF
 40
0.0393700787
  9
$DIMLFAC
 40
1.0
  9
$DIMTOFL
 70
     1
  9
$DIMTVP
 40
0.0
  9
$DIMTIX
 70
     0
  9
$DIMSOXD
 70
     0
  9
$DIMSAH
 70
     0
  9
$DIMBLK1
  1

  9
$DIMBLK2
  1

  9
$DIMSTYLE
  2
ISO-25
  9
$DIMCLRD
 70
     0
  9
$DIMCLRE
 70
     0
  9
$DIMCLRT
 70
     0
  9
$DIMTFAC
 40
1.0
  9
$DIMGAP
 40
1.524
  9
$DIMJUST
 70
     0
  9
$DIMSD1
 70
     0
  9
$DIMSD2
 70
     0
  9
$DIMTOLJ
 70
     0
  9
$DIMTZIN
 70
     0
  9
$DIMALTZ
 70
     0
  9
$DIMALTTZ
 70
     0
  9
$DIMUPT
 70
     0
  9
$DIMDEC
 70
     3
  9
$DIMTDEC
 70
     3
  9
$DIMALTU
 70
     2
  9
$DIMALTTD
 70
     3
  9
$DIMTXSTY
  7
STANDARD
  9
$DIMAUNIT
 70
     0
  9
$DIMADEC
 70
     3
  9
$DIMALTRND
 40
0.0
  9
$DIMAZIN
 70
     0
  9
$DIMDSEP
 70
    44
  9
$DIMATFIT
 70
     3
  9
$DIMFRAC
 70
     0
  9
$DIMLDRBLK
  1

  9
$DIMLUNIT
 70
     2
  9
$DIMLWD
 70
    -2
  9
$DIMLWE
 70
    -2
  9
$DIMTMOVE
 70
     0
  9
$LUNITS
 70
     2
  9
$LUPREC
 70
     3
  9
$SKETCHINC
 40
1.0
  9
$FILLETRAD
 40
10.0
  9
$AUNITS
 70
     0
  9
$AUPREC
 70
     3
  9
$MENU
  1
.
  9
$ELEVATION
 40
0.0
  9
$PELEVATION
 40
0.0
  9
$THICKNESS
 40
0.0
  9
$LIMCHECK
 70
     0
  9
$CHAMFERA
 40
0.0
  9
$CHAMFERB
 40
0.0
  9
$CHAMFERC
 40
0.0
  9
$CHAMFERD
 40
0.0
  9
$SKPOLY
 70
     0
  9
$TDCREATE
 40
2459166.321296782
  9
$TDUCREATE
 40
2459166.279630116
  9
$TDUPDATE
 40
2459166.321299248
  9
$TDUUPDATE
 40
2459166.279632581
  9
$TDINDWG
 40
0.0000000116
  9
$TDUSRTIMER
 40
0.0000000116
  9
$USRTIMER
 70
     1
  9
$ANGBASE
 50
0.0
  9
$ANGDIR
 70
     0
  9
$PDMODE
 70
     0
  9
$PDSIZE
 40
-1.0
  9
$PLINEWID
 40
0.0
  9
$SPLFRAME
 70
     0
  9
$SPLINETYPE
 70
     6
  9
$SPLINESEGS
 70
     8
  9
$HANDSEED
  5
2F0
  9
$SURFTAB1
 70
     6
  9
$SURFTAB2
 70
     6
  9
$SURFTYPE
 70
     6
  9
$SURFU
 70
     6
  9
$SURFV
 70
     6
  9
$UCSBASE
  2

  9
$UCSNAME
  2

  9
$UCSORG
 10
0.0
 20
0.0
 30
0.0
  9
$UCSXDIR
 10
1.0
 20
0.0
 30
0.0
  9
$UCSYDIR
 10
0.0
 20
1.0
 30
0.0
  9
$UCSORTHOREF
  2

  9
$UCSORTHOVIEW
 70
     0
  9
$UCSORGTOP
 10
0.0
 20
0.0
 30
0.0
  9
$UCSORGBOTTOM
 10
0.0
 20
0.0
 30
0.0
  9
$UCSORGLEFT
 10
0.0
 20
0.0
 30
0.0
  9
$UCSORGRIGHT
 10
0.0
 20
0.0
 30
0.0
  9
$UCSORGFRONT
 10
0.0
 20
0.0
 30
0.0
  9
$UCSORGBACK
 10
0.0
 20
0.0
 30
0.0
  9
$PUCSBASE
  2

  9
$PUCSNAME
  2

  9
$PUCSORG
 10
0.0
 20
0.0
 30
0.0
  9
$PUCSXDIR
 10
1.0
 20
0.0
 30
0.0
  9
$PUCSYDIR
 10
0.0
 20
1.0
 30
0.0
  9
$PUCSORTHOREF
  2

  9
$PUCSORTHOVIEW
 70
     0
  9
$PUCSORGTOP
 10
0.0
 20
0.0
 30
0.0
  9
$PUCSORGBOTTOM
 10
0.0
 20
0.0
 30
0.0
  9
$PUCSORGLEFT
 10
0.0
 20
0.0
 30
0.0
  9
$PUCSORGRIGHT
 10
0.0
 20
0.0
 30
0.0
  9
$PUCSORGFRONT
 10
0.0
 20
0.0
 30
0.0
  9
$PUCSORGBACK
 10
0.0
 20
0.0
 30
0.0
  9
$USERI1
 70
     0
  9
$USERI2
 70
     0
  9
$USERI3
 70
     0
  9
$USERI4
 70
     0
  9
$USERI5
 70
     0
  9
$USERR1
 40
0.0
  9
$USERR2
 40
0.0
  9
$USERR3
 40
0.0
  9
$USERR4
 40
0.0
  9
$USERR5
 40
0.0
  9
$WORLDVIEW
 70
     1
  9
$SHADEDGE
 70
     3
  9
$SHADEDIF
 70
    70
  9
$TILEMODE
 70
     1
  9
$MAXACTVP
 70
    64
  9
$PINSBASE
 10
0.0
 20
0.0
 30
0.0
  9
$PLIMCHECK
 70
     0
  9
$PEXTMIN
 10
1.0000000000E+20
 20
1.0000000000E+20
 30
1.0000000000E+20
  9
$PEXTMAX
 10
-1.0000000000E+20
 20
-1.0000000000E+20
 30
-1.0000000000E+20
  9
$PLIMMIN
 10
0.0
 20
0.0
  9
$PLIMMAX
 10
420.0
 20
297.0
  9
$UNITMODE
 70
     0
  9
$VISRETAIN
 70
     1
  9
$PLINEGEN
 70
     0
  9
$PSLTSCALE
 70
     1
  9
$TREEDEPTH
 70
  3020
  9
$CMLSTYLE
  2
Standard
  9
$CMLJUST
 70
     0
  9
$CMLSCALE
 40
20.0
  9
$PROXYGRAPHICS
 70
     1
  9
$MEASUREMENT
 70
     1
  9
$CELWEIGHT
370
    -1
  9
$ENDCAPS
280
     0
  9
$JOINSTYLE
280
     0
  9
$LWDISPLAY
290
     1
  9
$INSUNITS
 70
     4
  9
$HYPERLINKBASE
  1

  9
$STYLESHEET
  1

  9
$XEDIT
290
     1
  9
$CEPSNTYPE
380
     0
  9
$PSTYLEMODE
290
     1
  9
$FINGERPRINTGUID
  2
{38BA041D-3054-48A2-99CB-E5283F19030C}
  9
$VERSIONGUID
  2
{FAEB1C32-E019-11D5-929B-00C0DF256EC4}
  9
$EXTNAMES
290
     1
  9
$PSVPSCALE
 40
0.0
  9
$OLESTARTUP
290
     0
  0
ENDSEC
  0
SECTION
  2
CLASSES
  0
CLASS
  1
ACDBDICTIONARYWDFLT
  2
AcDbDictionaryWithDefault
  3
ObjectDBX Classes
 90
        0
280
     0
281
     0
  0
CLASS
  1
VISUALSTYLE
  2
AcDbVisualStyle
  3
ObjectDBX Classes
 90
     4095
280
     0
281
     0
  0
CLASS
  1
MATERIAL
  2
AcDbMaterial
  3
ObjectDBX Classes
 90
     1153
280
     0
281
     0
  0
CLASS
  1
SCALE
  2
AcDbScale
  3
ObjectDBX Classes
 90
     1153
280
     0
281
     0
  0
CLASS
  1
TABLESTYLE
  2
AcDbTableStyle
  3
ObjectDBX Classes
 90
     4095
280
     0
281
     0
  0
CLASS
  1
MLEADERSTYLE
  2
AcDbMLeaderStyle
  3
ACDB_MLEADERSTYLE_CLASS
 90
     4095
280
     0
281
     0
  0
CLASS
  1
SUN
  2
AcDbSun
  3
SCENEOE
 90
     1153
280
     0
281
     0
  0
CLASS
  1
ACDBPLACEHOLDER
  2
AcDbPlaceHolder
  3
ObjectDBX Classes
 90
        0
280
     0
281
     0
  0
CLASS
  1
LAYOUT
  2
AcDbLayout
  3
ObjectDBX Classes
 90
        0
280
     0
281
     0
  0
ENDSEC
  0
SECTION
  2
TABLES
  0
TABLE
  2
VPORT
  5
8
330
0
100
AcDbSymbolTable
 70
     1
  0
VPORT
  5
29
330
8
100
AcDbSymbolTableRecord
100
AcDbViewportTableRecord
  2
*Active
 70
     0
 10
0.0
 20
0.0
 11
1.0
 21
1.0
 12
210.0
 22
148.5
 13
0.0
 23
0.0
 14
10.0
 24
10.0
 15
10.0
 25
10.0
 16
0.0
 26
0.0
 36
1.0
 17
0.0
 27
0.0
 37
0.0
 40
297.0
 41
1.4141414141
 42
50.0
 43
0.0
 44
0.0
 50
0.0
 51
0.0
 71
     0
 72
  2000
 73
     1
 74
     3
 75
     0
 76
     0
 77
     0
 78
     0
281
     0
 65
     1
110
0.0
120
0.0
130
0.0
111
1.0
121
0.0
131
0.0
112
0.0
122
1.0
132
0.0
 79
     0
146
0.0
  0
ENDTAB
  0
TABLE
  2
LTYPE
  5
5
330
0
100
AcDbSymbolTable
 70
     8
  0
LTYPE
  5
14
330
5
100
AcDbSymbolTableRecord
100
AcDbLinetypeTableRecord
  2
ByBlock
 70
     0
  3

 72
    65
 73
     0
 40
0.0
  0
LTYPE
  5
15
330
5
100
AcDbSymbolTableRecord
100
AcDbLinetypeTableRecord
  2
ByLayer
 70
     0
  3

 72
    65
 73
     0
 40
0.0
  0
LTYPE
  5
16
330
5
100
AcDbSymbolTableRecord
100
AcDbLinetypeTableRecord
  2
Continuous
 70
     0
  3
Solid line
 72
    65
 73
     0
 40
0.0
  0
LTYPE
  5
6E
330
5
100
AcDbSymbolTableRecord
100
AcDbLinetypeTableRecord
  2
SLD-Durchgehend
 70
     0
  3
SolidWorks Line Style
 72
    65
 73
     0
 40
0.0
  0
LTYPE
  5
6F
330
5
100
AcDbSymbolTableRecord
100
AcDbLinetypeTableRecord
  2
SLD-Gestrichelt
 70
     0
  3
SolidWorks Line Style
 72
    65
 73
     2
 40
1.905
 49
1.27
 74
     0
 49
-0.635
 74
     0
  0
LTYPE
  5
70
330
5
100
AcDbSymbolTableRecord
100
AcDbLinetypeTableRecord
  2
SLD-Phantom
 70
     0
  3
SolidWorks Line Style
 72
    65
 73
     6
 40
12.7
 49
6.35
 74
     0
 49
-1.27
 74
     0
 49
1.27
 74
     0
 49
-1.27
 74
     0
 49
1.27
 74
     0
 49
-1.27
 74
     0
  0
LTYPE
  5
71
330
5
100
AcDbSymbolTableRecord
100
AcDbLinetypeTableRecord
  2
SLD-Kette
 70
     0
  3
SolidWorks Line Style
 72
    65
 73
     4
 40
10.16
 49
6.35
 74
     0
 49
-1.27
 74
     0
 49
1.27
 74
     0
 49
-1.27
 74
     0
  0
LTYPE
  5
72
330
5
100
AcDbSymbolTableRecord
100
AcDbLinetypeTableRecord
  2
SLD-Punktstrich
 70
     0
  3
SolidWorks Line Style
 72
    65
 73
     4
 40
19.05
 49
15.24
 74
     0
 49
-1.27
 74
     0
 49
1.27
 74
     0
 49
-1.27
 74
     0
  0
LTYPE
  5
73
330
5
100
AcDbSymbolTableRecord
100
AcDbLinetypeTableRecord
  2
SLD-Naht
 70
     0
  3
SolidWorks Line Style
 72
    65
 73
     2
 40
0.635
 49
0.0
 74
     0
 49
-0.635
 74
     0
  0
LTYPE
  5
74
330
5
100
AcDbSymbolTableRecord
100
AcDbLinetypeTableRecord
  2
SLD-Dicke-Dünne-Kette
 70
     0
  3
SolidWorks Line Style
 72
    65
 73
     4
 40
10.16
 49
6.35
 74
     0
 49
-1.27
 74
     0
 49
1.27
 74
     0
 49
-1.27
 74
     0
  0
ENDTAB
  0
TABLE
  2
LAYER
  5
2
330
0
100
AcDbSymbolTable
 70
     1
  0
LAYER
  5
10
330
2
100
AcDbSymbolTableRecord
100
AcDbLayerTableRecord
  2
0
 70
     0
 62
     7
  6
Continuous
370
    -3
390
F
  0
ENDTAB
  0
TABLE
  2
STYLE
  5
3
330
0
100
AcDbSymbolTable
 70
     5
  0
STYLE
  5
11
330
3
100
AcDbSymbolTableRecord
100
AcDbTextStyleTableRecord
  2
STANDARD
 70
     0
 40
0.0
 41
1.0
 50
0.0
 71
     0
 42
3.0
  3
ARIAL.TTF
  4

1001
ACAD
1000
ARIAL
1071
       34
  0
STYLE
  5
7B
330
3
100
AcDbSymbolTableRecord
100
AcDbTextStyleTableRecord
  2
SLDTEXTSTYLE0
 70
     0
 40
0.0
 41
0.948
 50
0.0
 71
     0
 42
3.0
  3
ARIAL.TTF
  4

1001
ACAD
1000
Arial
1071
      290
  0
STYLE
  5
113
330
3
100
AcDbSymbolTableRecord
100
AcDbTextStyleTableRecord
  2
SLDTEXTSTYLE1
 70
     0
 40
0.0
 41
1.0
 50
0.0
 71
     0
 42
3.0
  3
HLHI___.TTF
  4

1001
ACAD
1000
Helvetica 65 Medium
1071
 50331938
  0
STYLE
  5
115
330
3
100
AcDbSymbolTableRecord
100
AcDbTextStyleTableRecord
  2
SLDTEXTSTYLE2
 70
     0
 40
0.0
 41
1.0
 50
0.0
 71
     0
 42
3.0
  3
HLR____.TTF
  4

1001
ACAD
1000
Helvetica 55 Roman
1071
 16777506
  0
STYLE
  5
123
330
3
100
AcDbSymbolTableRecord
100
AcDbTextStyleTableRecord
  2
SLDTEXTSTYLE3
 70
     0
 40
0.0
 41
0.948
 50
0.0
 71
     0
 42
3.0
  3
ARIALBD.TTF
  4

1001
ACAD
1000
Arial
1071
 33554722
  0
ENDTAB
  0
TABLE
  2
VIEW
  5
6
330
0
100
AcDbSymbolTable
 70
     0
  0
ENDTAB
  0
TABLE
  2
UCS
  5
7
330
0
100
AcDbSymbolTable
 70
     0
  0
ENDTAB
  0
TABLE
  2
APPID
  5
9
330
0
100
AcDbSymbolTable
 70
     1
  0
APPID
  5
12
330
9
100
AcDbSymbolTableRecord
100
AcDbRegAppTableRecord
  2
ACAD
 70
     0
  0
ENDTAB
  0
TABLE
  2
DIMSTYLE
  5
A
330
0
100
AcDbSymbolTable
 70
     5
100
AcDbDimStyleTable
  0
DIMSTYLE
105
27
330
A
100
AcDbSymbolTableRecord
100
AcDbDimStyleTableRecord
  2
ISO-25
 70
     0
 41
2.5
 42
0.625
 43
3.75
 44
1.25
 73
     0
 74
     0
 77
     1
 78
     8
140
2.5
141
2.5
143
0.0393700787
147
0.625
171
     3
172
     1
178
     0
271
     2
272
     2
274
     3
278
    44
283
     0
284
     8
340
11
  0
DIMSTYLE
105
13C
102
{ACAD_REACTORS
330
13B
330
146
330
150
330
15A
330
232
330
23C
330
246
330
2AA
330
2B5
330
2CD
102
}
330
A
100
AcDbSymbolTableRecord
100
AcDbDimStyleTableRecord
  2
SLDDIMSTYLE0
 70
     0
 41
3.5
 44
0.0
 45
0.000000001
 73
     0
 74
     0
 77
     1
 78
    12
 79
     3
140
3.0
147
0.75
173
     1
178
     0
271
     3
272
     3
276
     2
284
    12
340
7B
  0
DIMSTYLE
105
229
102
{ACAD_REACTORS
330
228
102
}
330
A
100
AcDbSymbolTableRecord
100
AcDbDimStyleTableRecord
  2
SLDDIMSTYLE1
 70
     0
 41
3.5
 44
0.0
 45
0.000000001
 73
     0
 74
     0
 77
     1
 78
    12
 79
     3
140
3.0
141
0.0
147
0.75
172
     1
173
     1
178
     0
271
     3
272
     3
276
     2
284
    12
340
7B
  0
DIMSTYLE
105
2A8
330
A
100
AcDbSymbolTableRecord
100
AcDbDimStyleTableRecord
  2
SLDDIMSTYLE2
 70
     0
 41
3.5
 44
0.0
 45
0.000000001
146
3.5
147
0.0
173
     1
178
     0
271
     0
272
     0
276
     2
340
11
  0
DIMSTYLE
105
2C0
102
{ACAD_REACTORS
330
2BF
102
}
330
A
100
AcDbSymbolTableRecord
100
AcDbDimStyleTableRecord
  2
SLDDIMSTYLE3
 70
     0
 41
3.5
 44
0.0
 45
0.000000001
 73
     0
 74
     0
 77
     1
 78
    12
 79
     3
140
3.0
147
0.75
172
     1
173
     1
178
     0
271
     3
272
     3
276
     2
284
    12
289
     0
340
7B
  0
ENDTAB
  0
TABLE
  2
BLOCK_RECORD
  5
1
330
0
100
AcDbSymbolTable
 70
    20
  0
BLOCK_RECORD
  5
1F
330
1
100
AcDbSymbolTableRecord
100
AcDbBlockTableRecord
  2
*Model_Space
340
22
  0
BLOCK_RECORD
  5
1B
330
1
100
AcDbSymbolTableRecord
100
AcDbBlockTableRecord
  2
*Paper_Space
340
1E
  0
BLOCK_RECORD
  5
23
330
1
100
AcDbSymbolTableRecord
100
AcDbBlockTableRecord
  2
*Paper_Space0
340
26
  0
BLOCK_RECORD
  5
75
330
1
100
AcDbSymbolTableRecord
100
AcDbBlockTableRecord
  2
Text NEG-Kabelverschraubung
340
0
102
{BLKREFS
331
2A7
102
}
  0
BLOCK_RECORD
  5
78
330
1
100
AcDbSymbolTableRecord
100
AcDbBlockTableRecord
  2
SW_NOTE_0
340
0
102
{BLKREFS
331
80
102
}
  0
BLOCK_RECORD
  5
10F
330
1
100
AcDbSymbolTableRecord
100
AcDbBlockTableRecord
  2
SW_NOTE_1
340
0
102
{BLKREFS
331
118
102
}
  0
BLOCK_RECORD
  5
11A
330
1
100
AcDbSymbolTableRecord
100
AcDbBlockTableRecord
  2
SW_NOTE_2
340
0
102
{BLKREFS
331
11F
102
}
  0
BLOCK_RECORD
  5
13D
330
1
100
AcDbSymbolTableRecord
100
AcDbBlockTableRecord
  2
_D
340
0
  0
BLOCK_RECORD
  5
147
330
1
100
AcDbSymbolTableRecord
100
AcDbBlockTableRecord
  2
_D_1
340
0
  0
BLOCK_RECORD
  5
151
330
1
100
AcDbSymbolTableRecord
100
AcDbBlockTableRecord
  2
_D_2
340
0
  0
BLOCK_RECORD
  5
15B
330
1
100
AcDbSymbolTableRecord
100
AcDbBlockTableRecord
  2
_D_3
340
0
  0
BLOCK_RECORD
  5
22A
330
1
100
AcDbSymbolTableRecord
100
AcDbBlockTableRecord
  2
_D_4
340
0
  0
BLOCK_RECORD
  5
233
330
1
100
AcDbSymbolTableRecord
100
AcDbBlockTableRecord
  2
_D_5
340
0
  0
BLOCK_RECORD
  5
23D
330
1
100
AcDbSymbolTableRecord
100
AcDbBlockTableRecord
  2
_D_6
340
0
  0
BLOCK_RECORD
  5
247
330
1
100
AcDbSymbolTableRecord
100
AcDbBlockTableRecord
  2
_D_7
340
0
  0
BLOCK_RECORD
  5
24F
330
1
100
AcDbSymbolTableRecord
100
AcDbBlockTableRecord
  2
SW_CENTERMARKSYMBOL_0
340
0
102
{BLKREFS
331
25A
102
}
  0
BLOCK_RECORD
  5
2AB
330
1
100
AcDbSymbolTableRecord
100
AcDbBlockTableRecord
  2
_D_8
340
0
  0
BLOCK_RECORD
  5
2B6
330
1
100
AcDbSymbolTableRecord
100
AcDbBlockTableRecord
  2
_D_9
340
0
  0
BLOCK_RECORD
  5
2C1
330
1
100
AcDbSymbolTableRecord
100
AcDbBlockTableRecord
  2
_D_10
340
0
  0
BLOCK_RECORD
  5
2CE
330
1
100
AcDbSymbolTableRecord
100
AcDbBlockTableRecord
  2
_D_11
340
0
  0
BLOCK_RECORD
  5
2D6
330
1
100
AcDbSymbolTableRecord
100
AcDbBlockTableRecord
  2
SW_CENTERMARKSYMBOL_1
340
0
102
{BLKREFS
331
2E1
102
}
  0
BLOCK_RECORD
  5
2E2
330
1
100
AcDbSymbolTableRecord
100
AcDbBlockTableRecord
  2
SW_CENTERMARKSYMBOL_2
340
0
102
{BLKREFS
331
2ED
102
}
  0
ENDTAB
  0
ENDSEC
  0
SECTION
  2
BLOCKS
  0
BLOCK
  5
20
330
1F
100
AcDbEntity
  8
0
100
AcDbBlockBegin
  2
*Model_Space
 70
     0
 10
0.0
 20
0.0
 30
0.0
  3
*Model_Space
  1

  0
ENDBLK
  5
21
330
1F
100
AcDbEntity
  8
0
100
AcDbBlockEnd
  0
BLOCK
  5
1C
330
1B
100
AcDbEntity
 67
     1
  8
0
100
AcDbBlockBegin
  2
*Paper_Space
 70
     0
 10
0.0
 20
0.0
 30
0.0
  3
*Paper_Space
  1

  0
ENDBLK
  5
1D
330
1B
100
AcDbEntity
 67
     1
  8
0
100
AcDbBlockEnd
  0
BLOCK
  5
24
330
23
100
AcDbEntity
  8
0
100
AcDbBlockBegin
  2
*Paper_Space0
 70
     0
 10
0.0
 20
0.0
 30
0.0
  3
*Paper_Space0
  1

  0
ENDBLK
  5
25
330
23
100
AcDbEntity
  8
0
100
AcDbBlockEnd
  0
BLOCK
  5
76
330
75
100
AcDbEntity
  8
0
100
AcDbBlockBegin
  2
Text NEG-Kabelverschraubung
 70
     0
 10
0.0
 20
0.0
 30
0.0
  3
Text NEG-Kabelverschraubung
  1

  0
INSERT
  5
80
330
75
100
AcDbEntity
  8
0
  6
SLD-Durchgehend
 62
     7
370
     0
100
AcDbBlockReference
  2
SW_NOTE_0
 10
0.0
 20
5.9289502395
 30
0.0
  0
ENDBLK
  5
77
330
75
100
AcDbEntity
  8
0
100
AcDbBlockEnd
  0
BLOCK
  5
79
330
78
100
AcDbEntity
  8
0
100
AcDbBlockBegin
  2
SW_NOTE_0
 70
     0
 10
0.0
 20
0.0
 30
0.0
  3
SW_NOTE_0
  1

  0
MTEXT
  5
7C
330
78
100
AcDbEntity
  8
0
  6
SLD-Durchgehend
 62
     0
370
     0
100
AcDbMText
 10
0.0
 20
1.9336016097
 30
0.0
 40
1.5
 41
0.0
 71
     1
 72
     1
  1
M12x1,5
  7
SLDTEXTSTYLE0
 73
     1
 44
1.0
  0
MTEXT
  5
7D
330
78
100
AcDbEntity
  8
0
  6
SLD-Durchgehend
 62
     0
370
     0
100
AcDbMText
 10
0.0
 20
-0.0663984853
 30
0.0
 40
1.5
 41
0.0
 71
     1
 72
     1
  1
Kabelverschraubung
  7
SLDTEXTSTYLE0
 73
     1
 44
1.0
  0
MTEXT
  5
7E
330
78
100
AcDbEntity
  8
0
  6
SLD-Durchgehend
 62
     0
370
     0
100
AcDbMText
 10
0.0
 20
-2.0663985803
 30
0.0
 40
1.5
 41
0.0
 71
     1
 72
     1
  1
Gland metric
  7
SLDTEXTSTYLE0
 73
     1
 44
1.0
  0
MTEXT
  5
7F
330
78
100
AcDbEntity
  8
0
  6
SLD-Durchgehend
 62
     0
370
     0
100
AcDbMText
 10
0.0
 20
-4.0663986753
 30
0.0
 40
1.5
 41
0.0
 71
     1
 72
     1
  1
Raccord de câbles
  7
SLDTEXTSTYLE0
 73
     1
 44
1.0
  0
ENDBLK
  5
7A
330
78
100
AcDbEntity
  8
0
100
AcDbBlockEnd
  0
BLOCK
  5
110
330
10F
100
AcDbEntity
  8
0
100
AcDbBlockBegin
  2
SW_NOTE_1
 70
     0
 10
0.0
 20
0.0
 30
0.0
  3
SW_NOTE_1
  1

  0
MTEXT
  5
112
330
10F
100
AcDbEntity
  8
0
  6
Continuous
 62
     0
370
     0
100
AcDbMText
 10
0.0
 20
2.3874608764
 30
0.0
 40
1.8520833333
 41
0.0
 71
     1
 72
     1
  1
Tel.: +49 6134 2901-0, www.
  7
SLDTEXTSTYLE0
 73
     1
 44
1.0
  0
MTEXT
  5
114
330
10F
100
AcDbEntity
  8
0
  6
Continuous
 62
     0
370
     0
100
AcDbMText
 10
31.6226072609
 20
2.2325681125
 30
0.0
 40
1.8520833333
 41
0.0
 71
     1
 72
     1
  1
Netter
  7
SLDTEXTSTYLE1
 73
     1
 44
1.0
  0
MTEXT
  5
116
330
10F
100
AcDbEntity
  8
0
  6
Continuous
 62
     0
370
     0
100
AcDbMText
 10
39.4425168633
 20
2.3157006648
 30
0.0
 40
1.8520833333
 41
0.0
 71
     1
 72
     1
  1
Vibration
  7
SLDTEXTSTYLE2
 73
     1
 44
1.0
  0
MTEXT
  5
117
330
10F
100
AcDbEntity
  8
0
  6
Continuous
 62
     0
370
     0
100
AcDbMText
 10
49.1865314543
 20
2.3874608764
 30
0.0
 40
1.8520833333
 41
0.0
 71
     1
 72
     1
  1
.com
  7
SLDTEXTSTYLE0
 73
     1
 44
1.0
  0
ENDBLK
  5
111
330
10F
100
AcDbEntity
  8
0
100
AcDbBlockEnd
  0
BLOCK
  5
11B
330
11A
100
AcDbEntity
  8
0
100
AcDbBlockBegin
  2
SW_NOTE_2
 70
     0
 10
0.0
 20
0.0
 30
0.0
  3
SW_NOTE_2
  1

  0
MTEXT
  5
11D
330
11A
100
AcDbEntity
  8
0
  6
Continuous
 62
     0
370
     0
100
AcDbMText
 10
0.0
 20
4.8649193548
 30
0.0
 40
3.96875
 41
0.0
 71
     1
 72
     1
  1
Netter
  7
SLDTEXTSTYLE1
 73
     1
 44
1.0
  0
MTEXT
  5
11E
330
11A
100
AcDbEntity
  8
0
  6
Continuous
 62
     0
370
     0
100
AcDbMText
 10
16.7569443583
 20
5.0430605384
 30
0.0
 40
3.96875
 41
0.0
 71
     1
 72
     1
  1
Vibration
  7
SLDTEXTSTYLE2
 73
     1
 44
1.0
  0
ENDBLK
  5
11C
330
11A
100
AcDbEntity
  8
0
100
AcDbBlockEnd
  0
BLOCK
  5
13E
330
13D
100
AcDbEntity
  8
0
100
AcDbBlockBegin
  2
_D
 70
     0
 10
0.0
 20
0.0
 30
0.0
  3
_D
  1

  0
SOLID
  5
140
330
13D
100
AcDbEntity
  8
0
  6
SLD-Durchgehend
 62
     7
370
     0
100
AcDbTrace
 10
165.9078213504
 20
37.44255438
 30
0.0
 11
162.4078213504
 21
37.90255438
 31
0.0
 12
162.4078213504
 22
36.98255438
 32
0.0
 13
162.4078213504
 23
36.98255438
 33
0.0
  0
SOLID
  5
141
330
13D
100
AcDbEntity
  8
0
  6
SLD-Durchgehend
 62
     7
370
     0
100
AcDbTrace
 10
46.1078213504
 20
37.44255438
 30
0.0
 11
49.6078213504
 21
36.98255438
 31
0.0
 12
49.6078213504
 22
37.90255438
 32
0.0
 13
49.6078213504
 23
37.90255438
 33
0.0
  0
LINE
  5
142
330
13D
100
AcDbEntity
  8
0
  6
SLD-Durchgehend
 62
     7
370
     0
100
AcDbLine
 10
165.9078213504
 20
69.2508757095
 30
0.0
 11
165.9078213504
 21
36.44255438
 31
0.0
  0
LINE
  5
143
330
13D
100
AcDbEntity
  8
0
  6
SLD-Durchgehend
 62
     7
370
     0
100
AcDbLine
 10
46.1078213504
 20
69.2508757095
 30
0.0
 11
46.1078213504
 21
36.44255438
 31
0.0
  0
LINE
  5
144
330
13D
100
AcDbEntity
  8
0
  6
SLD-Durchgehend
 62
     7
370
     0
100
AcDbLine
 10
165.9078213504
 20
37.44255438
 30
0.0
 11
46.1078213504
 21
37.44255438
 31
0.0
  0
MTEXT
  5
145
330
13D
100
AcDbEntity
  8
0
  6
SLD-Durchgehend
 62
     7
370
     0
100
AcDbMText
 10
99.0475097986
 20
41.3097578321
 30
0.0
 40
3.0
 41
0.0
 71
     1
 72
     1
  1
121
  7
SLDTEXTSTYLE0
 73
     1
 44
1.0
  0
ENDBLK
  5
13F
330
13D
100
AcDbEntity
  8
0
100
AcDbBlockEnd
  0
BLOCK
  5
148
330
147
100
AcDbEntity
  8
0
100
AcDbBlockBegin
  2
_D_1
 70
     0
 10
0.0
 20
0.0
 30
0.0
  3
_D_1
  1

  0
SOLID
  5
14A
330
147
100
AcDbEntity
  8
0
  6
SLD-Durchgehend
 62
     7
370
     0
100
AcDbTrace
 10
165.9078213504
 20
57.4067676602
 30
0.0
 11
162.4078213504
 21
57.8667676602
 31
0.0
 12
162.4078213504
 22
56.9467676602
 32
0.0
 13
162.4078213504
 23
56.9467676602
 33
0.0
  0
SOLID
  5
14B
330
147
100
AcDbEntity
  8
0
  6
SLD-Durchgehend
 62
     7
370
     0
100
AcDbTrace
 10
136.9078213504
 20
57.4067676602
 30
0.0
 11
140.4078213504
 21
56.9467676602
 31
0.0
 12
140.4078213504
 22
57.8667676602
 32
0.0
 13
140.4078213504
 23
57.8667676602
 33
0.0
  0
LINE
  5
14C
330
147
100
AcDbEntity
  8
0
  6
SLD-Durchgehend
 62
     7
370
     0
100
AcDbLine
 10
165.9078213504
 20
69.2508757095
 30
0.0
 11
165.9078213504
 21
56.4067676602
 31
0.0
  0
LINE
  5
14D
330
147
100
AcDbEntity
  8
0
  6
SLD-Durchgehend
 62
     7
370
     0
100
AcDbLine
 10
136.9078213504
 20
64.7508757095
 30
0.0
 11
136.9078213504
 21
56.4067676602
 31
0.0
  0
LINE
  5
14E
330
147
100
AcDbEntity
  8
0
  6
SLD-Durchgehend
 62
     7
370
     0
100
AcDbLine
 10
165.9078213504
 20
57.4067676602
 30
0.0
 11
136.9078213504
 21
57.4067676602
 31
0.0
  0
MTEXT
  5
14F
330
147
100
AcDbEntity
  8
0
  6
SLD-Durchgehend
 62
     7
370
     0
100
AcDbMText
 10
149.4933257705
 20
61.2739711123
 30
0.0
 40
3.0
 41
0.0
 71
     1
 72
     1
  1
29
  7
SLDTEXTSTYLE0
 73
     1
 44
1.0
  0
ENDBLK
  5
149
330
147
100
AcDbEntity
  8
0
100
AcDbBlockEnd
  0
BLOCK
  5
152
330
151
100
AcDbEntity
  8
0
100
AcDbBlockBegin
  2
_D_2
 70
     0
 10
0.0
 20
0.0
 30
0.0
  3
_D_2
  1

  0
SOLID
  5
154
330
151
100
AcDbEntity
  8
0
  6
SLD-Durchgehend
 62
     7
370
     0
100
AcDbTrace
 10
46.1078213504
 20
57.4067676601
 30
0.0
 11
49.6078213504
 21
56.9467676601
 31
0.0
 12
49.6078213504
 22
57.8667676601
 32
0.0
 13
49.6078213504
 23
57.8667676601
 33
0.0
  0
SOLID
  5
155
330
151
100
AcDbEntity
  8
0
  6
SLD-Durchgehend
 62
     7
370
     0
100
AcDbTrace
 10
75.1078213504
 20
57.4067676601
 30
0.0
 11
71.6078213504
 21
57.8667676601
 31
0.0
 12
71.6078213504
 22
56.9467676601
 32
0.0
 13
71.6078213504
 23
56.9467676601
 33
0.0
  0
LINE
  5
156
330
151
100
AcDbEntity
  8
0
  6
SLD-Durchgehend
 62
     7
370
     0
100
AcDbLine
 10
46.1078213504
 20
69.2508757095
 30
0.0
 11
46.1078213504
 21
56.4067676601
 31
0.0
  0
LINE
  5
157
330
151
100
AcDbEntity
  8
0
  6
SLD-Durchgehend
 62
     7
370
     0
100
AcDbLine
 10
75.1078213504
 20
64.7508757095
 30
0.0
 11
75.1078213504
 21
56.4067676601
 31
0.0
  0
LINE
  5
158
330
151
100
AcDbEntity
  8
0
  6
SLD-Durchgehend
 62
     7
370
     0
100
AcDbLine
 10
46.1078213504
 20
57.4067676601
 30
0.0
 11
75.1078213504
 21
57.4067676601
 31
0.0
  0
MTEXT
  5
159
330
151
100
AcDbEntity
  8
0
  6
SLD-Durchgehend
 62
     7
370
     0
100
AcDbMText
 10
57.8416343619
 20
61.2739711123
 30
0.0
 40
3.0
 41
0.0
 71
     1
 72
     1
  1
29
  7
SLDTEXTSTYLE0
 73
     1
 44
1.0
  0
ENDBLK
  5
153
330
151
100
AcDbEntity
  8
0
100
AcDbBlockEnd
  0
BLOCK
  5
15C
330
15B
100
AcDbEntity
  8
0
100
AcDbBlockBegin
  2
_D_3
 70
     0
 10
0.0
 20
0.0
 30
0.0
  3
_D_3
  1

  0
SOLID
  5
15E
330
15B
100
AcDbEntity
  8
0
  6
SLD-Durchgehend
 62
     7
370
     0
100
AcDbTrace
 10
75.1078213504
 20
50.0510348538
 30
0.0
 11
78.6078213504
 21
49.5910348538
 31
0.0
 12
78.6078213504
 22
50.5110348538
 32
0.0
 13
78.6078213504
 23
50.5110348538
 33
0.0
  0
SOLID
  5
15F
330
15B
100
AcDbEntity
  8
0
  6
SLD-Durchgehend
 62
     7
370
     0
100
AcDbTrace
 10
136.9078213504
 20
50.0510348538
 30
0.0
 11
133.4078213504
 21
50.5110348538
 31
0.0
 12
133.4078213504
 22
49.5910348538
 32
0.0
 13
133.4078213504
 23
49.5910348538
 33
0.0
  0
LINE
  5
160
330
15B
100
AcDbEntity
  8
0
  6
SLD-Durchgehend
 62
     7
370
     0
100
AcDbLine
 10
75.1078213504
 20
64.7508757095
 30
0.0
 11
75.1078213504
 21
49.0510348538
 31
0.0
  0
LINE
  5
161
330
15B
100
AcDbEntity
  8
0
  6
SLD-Durchgehend
 62
     7
370
     0
100
AcDbLine
 10
136.9078213504
 20
64.7508757095
 30
0.0
 11
136.9078213504
 21
49.0510348538
 31
0.0
  0
LINE
  5
162
330
15B
100
AcDbEntity
  8
0
  6
SLD-Durchgehend
 62
     7
370
     0
100
AcDbLine
 10
75.1078213504
 20
50.0510348538
 30
0.0
 11
136.9078213504
 21
50.0510348538
 31
0.0
  0
MTEXT
  5
163
330
15B
100
AcDbEntity
  8
0
  6
SLD-Durchgehend
 62
     7
370
     0
100
AcDbMText
 10
103.9046427835
 20
53.9182383059
 30
0.0
 40
3.0
 41
0.0
 71
     1
 72
     1
  1
63
  7
SLDTEXTSTYLE0
 73
     1
 44
1.0
  0
ENDBLK
  5
15D
330
15B
100
AcDbEntity
  8
0
100
AcDbBlockEnd
  0
BLOCK
  5
22B
330
22A
100
AcDbEntity
  8
0
100
AcDbBlockBegin
  2
_D_4
 70
     0
 10
0.0
 20
0.0
 30
0.0
  3
_D_4
  1

  0
SOLID
  5
22D
330
22A
100
AcDbEntity
  8
0
  6
SLD-Durchgehend
 62
     7
370
     0
100
AcDbTrace
 10
235.863849022
 20
94.4157519956
 30
0.0
 11
239.3636461747
 21
94.8772927734
 31
0.0
 12
239.1255326532
 22
95.7659445336
 32
0.0
 13
239.1255326532
 23
95.7659445336
 33
0.0
  0
SOLID
  5
22E
330
22A
100
AcDbEntity
  8
0
  6
SLD-Durchgehend
 62
     7
370
     0
100
AcDbTrace
 10
309.2742118199
 20
114.0859994234
 30
0.0
 11
305.7744146672
 21
113.6244586456
 31
0.0
 12
306.0125281887
 22
112.7358068854
 32
0.0
 13
306.0125281887
 23
112.7358068854
 33
0.0
  0
LINE
  5
22F
330
22A
100
AcDbEntity
  8
0
  6
SLD-Durchgehend
 62
     7
370
     0
100
AcDbLine
 10
309.2742118199
 20
114.0859994234
 30
0.0
 11
235.863849022
 21
94.4157519956
 31
0.0
  0
MTEXT
  5
230
330
22A
100
AcDbEntity
  8
0
  6
SLD-Durchgehend
 62
     7
370
     0
100
AcDbMText
 10
283.9894888781
 20
111.2942000007
 30
0.0
 40
3.0
 41
0.0
 71
     1
 72
     1
  1
%%c
  7
SLDTEXTSTYLE0
 11
0.9659258262890729
 21
0.2588190451025037
 31
0.0
 73
     1
 44
1.0
  0
MTEXT
  5
231
330
22A
100
AcDbEntity
  8
0
  6
SLD-Durchgehend
 62
     7
370
     0
100
AcDbMText
 10
288.2124275112
 20
112.4257331176
 30
0.0
 40
3.0
 41
0.0
 71
     1
 72
     1
  1
76
  7
SLDTEXTSTYLE0
 11
0.9659258262890729
 21
0.2588190451025037
 31
0.0
 73
     1
 44
1.0
  0
ENDBLK
  5
22C
330
22A
100
AcDbEntity
  8
0
100
AcDbBlockEnd
  0
BLOCK
  5
234
330
233
100
AcDbEntity
  8
0
100
AcDbBlockBegin
  2
_D_5
 70
     0
 10
0.0
 20
0.0
 30
0.0
  3
_D_5
  1

  0
SOLID
  5
236
330
233
100
AcDbEntity
  8
0
  6
SLD-Durchgehend
 62
     7
370
     0
100
AcDbTrace
 10
234.069030421
 20
57.3164214706
 30
0.0
 11
237.569030421
 21
56.8564214706
 31
0.0
 12
237.569030421
 22
57.7764214706
 32
0.0
 13
237.569030421
 23
57.7764214706
 33
0.0
  0
SOLID
  5
237
330
233
100
AcDbEntity
  8
0
  6
SLD-Durchgehend
 62
     7
370
     0
100
AcDbTrace
 10
311.069030421
 20
57.3164214706
 30
0.0
 11
307.569030421
 21
57.7764214706
 31
0.0
 12
307.569030421
 22
56.8564214706
 32
0.0
 13
307.569030421
 23
56.8564214706
 33
0.0
  0
LINE
  5
238
330
233
100
AcDbEntity
  8
0
  6
SLD-Durchgehend
 62
     7
370
     0
100
AcDbLine
 10
234.069030421
 20
64.7508757095
 30
0.0
 11
234.069030421
 21
56.3164214706
 31
0.0
  0
LINE
  5
239
330
233
100
AcDbEntity
  8
0
  6
SLD-Durchgehend
 62
     7
370
     0
100
AcDbLine
 10
311.069030421
 20
64.7508757095
 30
0.0
 11
311.069030421
 21
56.3164214706
 31
0.0
  0
LINE
  5
23A
330
233
100
AcDbEntity
  8
0
  6
SLD-Durchgehend
 62
     7
370
     0
100
AcDbLine
 10
234.069030421
 20
57.3164214706
 30
0.0
 11
311.069030421
 21
57.3164214706
 31
0.0
  0
MTEXT
  5
23B
330
233
100
AcDbEntity
  8
0
  6
SLD-Durchgehend
 62
     7
370
     0
100
AcDbMText
 10
271.6084680323
 20
61.1836249227
 30
0.0
 40
3.0
 41
0.0
 71
     1
 72
     1
  1
77
  7
SLDTEXTSTYLE0
 73
     1
 44
1.0
  0
ENDBLK
  5
235
330
233
100
AcDbEntity
  8
0
100
AcDbBlockEnd
  0
BLOCK
  5
23E
330
23D
100
AcDbEntity
  8
0
100
AcDbBlockBegin
  2
_D_6
 70
     0
 10
0.0
 20
0.0
 30
0.0
  3
_D_6
  1

  0
SOLID
  5
240
330
23D
100
AcDbEntity
  8
0
  6
SLD-Durchgehend
 62
     7
370
     0
100
AcDbTrace
 10
325.0778430729
 20
65.7508757095
 30
0.0
 11
325.5378430729
 21
69.2508757095
 31
0.0
 12
324.6178430729
 22
69.2508757095
 32
0.0
 13
324.6178430729
 23
69.2508757095
 33
0.0
  0
SOLID
  5
241
330
23D
100
AcDbEntity
  8
0
  6
SLD-Durchgehend
 62
     7
370
     0
100
AcDbTrace
 10
325.0778430729
 20
142.7508757095
 30
0.0
 11
324.6178430729
 21
139.2508757095
 31
0.0
 12
325.5378430729
 22
139.2508757095
 32
0.0
 13
325.5378430729
 23
139.2508757095
 33
0.0
  0
LINE
  5
242
330
23D
100
AcDbEntity
  8
0
  6
SLD-Durchgehend
 62
     7
370
     0
100
AcDbLine
 10
312.069030421
 20
65.7508757095
 30
0.0
 11
326.0778430729
 21
65.7508757095
 31
0.0
  0
LINE
  5
243
330
23D
100
AcDbEntity
  8
0
  6
SLD-Durchgehend
 62
     7
370
     0
100
AcDbLine
 10
312.069030421
 20
142.7508757095
 30
0.0
 11
326.0778430729
 21
142.7508757095
 31
0.0
  0
LINE
  5
244
330
23D
100
AcDbEntity
  8
0
  6
SLD-Durchgehend
 62
     7
370
     0
100
AcDbLine
 10
325.0778430729
 20
65.7508757095
 30
0.0
 11
325.0778430729
 21
142.7508757095
 31
0.0
  0
MTEXT
  5
245
330
23D
100
AcDbEntity
  8
0
  6
SLD-Durchgehend
 62
     7
370
     0
100
AcDbMText
 10
321.2106396207
 20
101.6900883536
 30
0.0
 40
3.0
 41
0.0
 71
     1
 72
     1
  1
77
  7
SLDTEXTSTYLE0
 11
-2.825347524068039E-15
 21
1.0
 31
0.0
 73
     1
 44
1.0
  0
ENDBLK
  5
23F
330
23D
100
AcDbEntity
  8
0
100
AcDbBlockEnd
  0
BLOCK
  5
248
330
247
100
AcDbEntity
  8
0
100
AcDbBlockBegin
  2
_D_7
 70
     0
 10
0.0
 20
0.0
 30
0.0
  3
_D_7
  1

  0
SOLID
  5
24A
330
247
100
AcDbEntity
  8
0
  6
SLD-Durchgehend
 62
     7
370
     0
100
AcDbTrace
 10
187.069030421
 20
92.7508757095
 30
0.0
 11
186.609030421
 21
89.2508757095
 31
0.0
 12
187.529030421
 22
89.2508757095
 32
0.0
 13
187.529030421
 23
89.2508757095
 33
0.0
  0
SOLID
  5
24B
330
247
100
AcDbEntity
  8
0
  6
SLD-Durchgehend
 62
     7
370
     0
100
AcDbTrace
 10
187.069030421
 20
65.7508757095
 30
0.0
 11
187.529030421
 21
69.2508757095
 31
0.0
 12
186.609030421
 22
69.2508757095
 32
0.0
 13
186.609030421
 23
69.2508757095
 33
0.0
  0
LINE
  5
24C
330
247
100
AcDbEntity
  8
0
  6
SLD-Durchgehend
 62
     7
370
     0
100
AcDbLine
 10
233.069030421
 20
65.7508757095
 30
0.0
 11
186.069030421
 21
65.7508757095
 31
0.0
  0
LINE
  5
24D
330
247
100
AcDbEntity
  8
0
  6
SLD-Durchgehend
 62
     7
370
     0
100
AcDbLine
 10
187.069030421
 20
92.7508757095
 30
0.0
 11
187.069030421
 21
65.7508757095
 31
0.0
  0
MTEXT
  5
24E
330
247
100
AcDbEntity
  8
0
  6
SLD-Durchgehend
 62
     7
370
     0
100
AcDbMText
 10
183.2018269688
 20
76.07997547
 30
0.0
 40
3.0
 41
0.0
 71
     1
 72
     1
  1
27
  7
SLDTEXTSTYLE0
 11
-8.820551857043885E-15
 21
1.0
 31
0.0
 73
     1
 44
1.0
  0
ENDBLK
  5
249
330
247
100
AcDbEntity
  8
0
100
AcDbBlockEnd
  0
BLOCK
  5
250
330
24F
100
AcDbEntity
  8
0
100
AcDbBlockBegin
  2
SW_CENTERMARKSYMBOL_0
 70
     0
 10
0.0
 20
0.0
 30
0.0
  3
SW_CENTERMARKSYMBOL_0
  1

  0
LINE
  5
252
330
24F
100
AcDbEntity
  8
0
  6
SLD-Durchgehend
 62
     0
370
     0
100
AcDbLine
 10
0.0
 20
0.0
 30
0.0
 11
0.0
 21
1.0
 31
0.0
  0
LINE
  5
253
330
24F
100
AcDbEntity
  8
0
  6
SLD-Durchgehend
 62
     0
370
     0
100
AcDbLine
 10
0.0
 20
0.0
 30
0.0
 11
-1.0
 21
0.0
 31
0.0
  0
LINE
  5
254
330
24F
100
AcDbEntity
  8
0
  6
SLD-Durchgehend
 62
     0
370
     0
100
AcDbLine
 10
0.0
 20
0.0
 30
0.0
 11
0.0
 21
-1.0
 31
0.0
  0
LINE
  5
255
330
24F
100
AcDbEntity
  8
0
  6
SLD-Durchgehend
 62
     0
370
     0
100
AcDbLine
 10
0.0
 20
0.0
 30
0.0
 11
1.0
 21
0.0
 31
0.0
  0
LINE
  5
256
330
24F
100
AcDbEntity
  8
0
  6
SLD-Durchgehend
 62
     0
370
     0
100
AcDbLine
 10
0.0
 20
2.0
 30
0.0
 11
0.0
 21
39.0
 31
0.0
  0
LINE
  5
257
330
24F
100
AcDbEntity
  8
0
  6
SLD-Durchgehend
 62
     0
370
     0
100
AcDbLine
 10
-2.0
 20
0.0
 30
0.0
 11
-39.0
 21
0.0
 31
0.0
  0
LINE
  5
258
330
24F
100
AcDbEntity
  8
0
  6
SLD-Durchgehend
 62
     0
370
     0
100
AcDbLine
 10
0.0
 20
-2.0
 30
0.0
 11
0.0
 21
-39.0
 31
0.0
  0
LINE
  5
259
330
24F
100
AcDbEntity
  8
0
  6
SLD-Durchgehend
 62
     0
370
     0
100
AcDbLine
 10
2.0
 20
0.0
 30
0.0
 11
39.0
 21
0.0
 31
0.0
  0
ENDBLK
  5
251
330
24F
100
AcDbEntity
  8
0
100
AcDbBlockEnd
  0
BLOCK
  5
2AC
330
2AB
100
AcDbEntity
  8
0
100
AcDbBlockBegin
  2
_D_8
 70
     0
 10
0.0
 20
0.0
 30
0.0
  3
_D_8
  1

  0
SOLID
  5
2AE
330
2AB
100
AcDbEntity
  8
0
  6
SLD-Durchgehend
 62
     7
370
     0
100
AcDbTrace
 10
180.9965970947
 20
192.559243519
 30
0.0
 11
181.4565970947
 21
196.059243519
 31
0.0
 12
180.5365970947
 22
196.059243519
 32
0.0
 13
180.5365970947
 23
196.059243519
 33
0.0
  0
SOLID
  5
2AF
330
2AB
100
AcDbEntity
  8
0
  6
SLD-Durchgehend
 62
     7
370
     0
100
AcDbTrace
 10
180.9965970947
 20
268.559243519
 30
0.0
 11
180.5365970947
 21
265.059243519
 31
0.0
 12
181.4565970947
 22
265.059243519
 32
0.0
 13
181.4565970947
 23
265.059243519
 33
0.0
  0
LINE
  5
2B0
330
2AB
100
AcDbEntity
  8
0
  6
SLD-Durchgehend
 62
     7
370
     0
100
AcDbLine
 10
162.9078213504
 20
192.559243519
 30
0.0
 11
181.9965970947
 21
192.559243519
 31
0.0
  0
LINE
  5
2B1
330
2AB
100
AcDbEntity
  8
0
  6
SLD-Durchgehend
 62
     7
370
     0
100
AcDbLine
 10
162.9078213504
 20
268.559243519
 30
0.0
 11
181.9965970947
 21
268.559243519
 31
0.0
  0
LINE
  5
2B2
330
2AB
100
AcDbEntity
  8
0
  6
SLD-Durchgehend
 62
     7
370
     0
100
AcDbLine
 10
180.9965970947
 20
192.559243519
 30
0.0
 11
180.9965970947
 21
268.559243519
 31
0.0
  0
MTEXT
  5
2B3
330
2AB
100
AcDbEntity
  8
0
  6
SLD-Durchgehend
 62
     7
370
     0
100
AcDbMText
 10
177.129393759
 20
225.0317931902
 30
0.0
 40
3.0
 41
0.0
 71
     1
 72
     1
  1
%%c
  7
SLDTEXTSTYLE0
 11
6.123233995736766E-17
 21
1.0
 31
0.0
 73
     1
 44
1.0
  0
MTEXT
  5
2B4
330
2AB
100
AcDbEntity
  8
0
  6
SLD-Durchgehend
 62
     7
370
     0
100
AcDbMText
 10
177.1293936425
 20
229.4037009995
 30
0.0
 40
3.0
 41
0.0
 71
     1
 72
     1
  1
76
  7
SLDTEXTSTYLE0
 11
6.123233995736766E-17
 21
1.0
 31
0.0
 73
     1
 44
1.0
  0
ENDBLK
  5
2AD
330
2AB
100
AcDbEntity
  8
0
100
AcDbBlockEnd
  0
BLOCK
  5
2B7
330
2B6
100
AcDbEntity
  8
0
100
AcDbBlockBegin
  2
_D_9
 70
     0
 10
0.0
 20
0.0
 30
0.0
  3
_D_9
  1

  0
SOLID
  5
2B9
330
2B6
100
AcDbEntity
  8
0
  6
SLD-Durchgehend
 62
     7
370
     0
100
AcDbTrace
 10
36.1078213504
 20
258.559243519
 30
0.0
 11
35.6478213504
 21
255.059243519
 31
0.0
 12
36.5678213504
 22
255.059243519
 32
0.0
 13
36.5678213504
 23
255.059243519
 33
0.0
  0
SOLID
  5
2BA
330
2B6
100
AcDbEntity
  8
0
  6
SLD-Durchgehend
 62
     7
370
     0
100
AcDbTrace
 10
36.1078213504
 20
202.559243519
 30
0.0
 11
36.5678213504
 21
206.059243519
 31
0.0
 12
35.6478213504
 22
206.059243519
 32
0.0
 13
35.6478213504
 23
206.059243519
 33
0.0
  0
LINE
  5
2BB
330
2B6
100
AcDbEntity
  8
0
  6
SLD-Durchgehend
 62
     7
370
     0
100
AcDbLine
 10
99.5078213504
 20
258.559243519
 30
0.0
 11
35.1078213504
 21
258.559243519
 31
0.0
  0
LINE
  5
2BC
330
2B6
100
AcDbEntity
  8
0
  6
SLD-Durchgehend
 62
     7
370
     0
100
AcDbLine
 10
99.5078213504
 20
202.559243519
 30
0.0
 11
35.1078213504
 21
202.559243519
 31
0.0
  0
LINE
  5
2BD
330
2B6
100
AcDbEntity
  8
0
  6
SLD-Durchgehend
 62
     7
370
     0
100
AcDbLine
 10
36.1078213504
 20
258.559243519
 30
0.0
 11
36.1078213504
 21
202.559243519
 31
0.0
  0
MTEXT
  5
2BE
330
2B6
100
AcDbEntity
  8
0
  6
SLD-Durchgehend
 62
     7
370
     0
100
AcDbMText
 10
32.2406178983
 20
229.2711973015
 30
0.0
 40
3.0
 41
0.0
 71
     1
 72
     1
  1
56
  7
SLDTEXTSTYLE0
 11
-7.044195017643634E-15
 21
1.0
 31
0.0
 73
     1
 44
1.0
  0
ENDBLK
  5
2B8
330
2B6
100
AcDbEntity
  8
0
100
AcDbBlockEnd
  0
BLOCK
  5
2C2
330
2C1
100
AcDbEntity
  8
0
100
AcDbBlockBegin
  2
_D_10
 70
     0
 10
0.0
 20
0.0
 30
0.0
  3
_D_10
  1

  0
SOLID
  5
2C4
330
2C1
100
AcDbEntity
  8
0
  6
SLD-Durchgehend
 62
     7
370
     0
100
AcDbTrace
 10
101.5078213504
 20
243.8034505345
 30
0.0
 11
98.0078213504
 21
244.2634505345
 31
0.0
 12
98.0078213504
 22
243.3434505345
 32
0.0
 13
98.0078213504
 23
243.3434505345
 33
0.0
  0
SOLID
  5
2C5
330
2C1
100
AcDbEntity
  8
0
  6
SLD-Durchgehend
 62
     7
370
     0
100
AcDbTrace
 10
110.5078213504
 20
243.8034505345
 30
0.0
 11
114.0078213504
 21
243.3434505345
 31
0.0
 12
114.0078213504
 22
244.2634505345
 32
0.0
 13
114.0078213504
 23
244.2634505345
 33
0.0
  0
LINE
  5
2C6
330
2C1
100
AcDbEntity
  8
0
  6
SLD-Durchgehend
 62
     7
370
     0
100
AcDbLine
 10
101.5078213504
 20
257.559243519
 30
0.0
 11
101.5078213504
 21
242.8034505345
 31
0.0
  0
LINE
  5
2C7
330
2C1
100
AcDbEntity
  8
0
  6
SLD-Durchgehend
 62
     7
370
     0
100
AcDbLine
 10
110.5078213504
 20
257.559243519
 30
0.0
 11
110.5078213504
 21
242.8034505345
 31
0.0
  0
LINE
  5
2C8
330
2C1
100
AcDbEntity
  8
0
  6
SLD-Durchgehend
 62
     7
370
     0
100
AcDbLine
 10
101.5078213504
 20
243.8034505345
 30
0.0
 11
96.5078213504
 21
243.8034505345
 31
0.0
  0
LINE
  5
2C9
330
2C1
100
AcDbEntity
  8
0
  6
SLD-Durchgehend
 62
     7
370
     0
100
AcDbLine
 10
101.5078213504
 20
243.8034505345
 30
0.0
 11
110.5078213504
 21
243.8034505345
 31
0.0
  0
LINE
  5
2CA
330
2C1
100
AcDbEntity
  8
0
  6
SLD-Durchgehend
 62
     7
370
     0
100
AcDbLine
 10
110.5078213504
 20
243.8034505345
 30
0.0
 11
123.814750582
 21
243.8034505345
 31
0.0
  0
MTEXT
  5
2CB
330
2C1
100
AcDbEntity
  8
0
  6
SLD-Durchgehend
 62
     7
370
     0
100
AcDbMText
 10
115.5665594734
 20
247.6706538702
 30
0.0
 40
3.0
 41
0.0
 71
     1
 72
     1
  1
%%c
  7
SLDTEXTSTYLE0
 73
     1
 44
1.0
  0
MTEXT
  5
2CC
330
2C1
100
AcDbEntity
  8
0
  6
SLD-Durchgehend
 62
     7
370
     0
100
AcDbMText
 10
119.9384672827
 20
247.6706539867
 30
0.0
 40
3.0
 41
0.0
 71
     1
 72
     1
  1
9
  7
SLDTEXTSTYLE0
 73
     1
 44
1.0
  0
ENDBLK
  5
2C3
330
2C1
100
AcDbEntity
  8
0
100
AcDbBlockEnd
  0
BLOCK
  5
2CF
330
2CE
100
AcDbEntity
  8
0
100
AcDbBlockBegin
  2
_D_11
 70
     0
 10
0.0
 20
0.0
 30
0.0
  3
_D_11
  1

  0
SOLID
  5
2D1
330
2CE
100
AcDbEntity
  8
0
  6
SLD-Durchgehend
 62
     7
370
     0
100
AcDbTrace
 10
106.0078213504
 20
214.8693893881
 30
0.0
 11
109.5078213504
 21
214.4093893881
 31
0.0
 12
109.5078213504
 22
215.3293893881
 32
0.0
 13
109.5078213504
 23
215.3293893881
 33
0.0
  0
SOLID
  5
2D2
330
2CE
100
AcDbEntity
  8
0
  6
SLD-Durchgehend
 62
     7
370
     0
100
AcDbTrace
 10
124.0078213504
 20
214.8693893881
 30
0.0
 11
120.5078213504
 21
215.3293893881
 31
0.0
 12
120.5078213504
 22
214.4093893881
 32
0.0
 13
120.5078213504
 23
214.4093893881
 33
0.0
  0
LINE
  5
2D3
330
2CE
100
AcDbEntity
  8
0
  6
SLD-Durchgehend
 62
     7
370
     0
100
AcDbLine
 10
124.0078213504
 20
208.059243519
 30
0.0
 11
124.0078213504
 21
215.8693893881
 31
0.0
  0
LINE
  5
2D4
330
2CE
100
AcDbEntity
  8
0
  6
SLD-Durchgehend
 62
     7
370
     0
100
AcDbLine
 10
106.0078213504
 20
214.8693893881
 30
0.0
 11
124.0078213504
 21
214.8693893881
 31
0.0
  0
MTEXT
  5
2D5
330
2CE
100
AcDbEntity
  8
0
  6
SLD-Durchgehend
 62
     7
370
     0
100
AcDbMText
 10
112.9973597717
 20
218.7365928403
 30
0.0
 40
3.0
 41
0.0
 71
     1
 72
     1
  1
18
  7
SLDTEXTSTYLE0
 73
     1
 44
1.0
  0
ENDBLK
  5
2D0
330
2CE
100
AcDbEntity
  8
0
100
AcDbBlockEnd
  0
BLOCK
  5
2D7
330
2D6
100
AcDbEntity
  8
0
100
AcDbBlockBegin
  2
SW_CENTERMARKSYMBOL_1
 70
     0
 10
0.0
 20
0.0
 30
0.0
  3
SW_CENTERMARKSYMBOL_1
  1

  0
LINE
  5
2D9
330
2D6
100
AcDbEntity
  8
0
  6
SLD-Durchgehend
 62
     0
370
     0
100
AcDbLine
 10
0.0
 20
0.0
 30
0.0
 11
0.0
 21
1.0
 31
0.0
  0
LINE
  5
2DA
330
2D6
100
AcDbEntity
  8
0
  6
SLD-Durchgehend
 62
     0
370
     0
100
AcDbLine
 10
0.0
 20
0.0
 30
0.0
 11
-1.0
 21
0.0
 31
0.0
  0
LINE
  5
2DB
330
2D6
100
AcDbEntity
  8
0
  6
SLD-Durchgehend
 62
     0
370
     0
100
AcDbLine
 10
0.0
 20
0.0
 30
0.0
 11
0.0
 21
-1.0
 31
0.0
  0
LINE
  5
2DC
330
2D6
100
AcDbEntity
  8
0
  6
SLD-Durchgehend
 62
     0
370
     0
100
AcDbLine
 10
0.0
 20
0.0
 30
0.0
 11
1.0
 21
0.0
 31
0.0
  0
LINE
  5
2DD
330
2D6
100
AcDbEntity
  8
0
  6
SLD-Durchgehend
 62
     0
370
     0
100
AcDbLine
 10
0.0
 20
2.0
 30
0.0
 11
0.0
 21
5.5
 31
0.0
  0
LINE
  5
2DE
330
2D6
100
AcDbEntity
  8
0
  6
SLD-Durchgehend
 62
     0
370
     0
100
AcDbLine
 10
-2.0
 20
0.0
 30
0.0
 11
-5.5
 21
0.0
 31
0.0
  0
LINE
  5
2DF
330
2D6
100
AcDbEntity
  8
0
  6
SLD-Durchgehend
 62
     0
370
     0
100
AcDbLine
 10
0.0
 20
-2.0
 30
0.0
 11
0.0
 21
-5.5
 31
0.0
  0
LINE
  5
2E0
330
2D6
100
AcDbEntity
  8
0
  6
SLD-Durchgehend
 62
     0
370
     0
100
AcDbLine
 10
2.0
 20
0.0
 30
0.0
 11
5.5
 21
0.0
 31
0.0
  0
ENDBLK
  5
2D8
330
2D6
100
AcDbEntity
  8
0
100
AcDbBlockEnd
  0
BLOCK
  5
2E3
330
2E2
100
AcDbEntity
  8
0
100
AcDbBlockBegin
  2
SW_CENTERMARKSYMBOL_2
 70
     0
 10
0.0
 20
0.0
 30
0.0
  3
SW_CENTERMARKSYMBOL_2
  1

  0
LINE
  5
2E5
330
2E2
100
AcDbEntity
  8
0
  6
SLD-Durchgehend
 62
     0
370
     0
100
AcDbLine
 10
0.0
 20
0.0
 30
0.0
 11
0.0
 21
1.0
 31
0.0
  0
LINE
  5
2E6
330
2E2
100
AcDbEntity
  8
0
  6
SLD-Durchgehend
 62
     0
370
     0
100
AcDbLine
 10
0.0
 20
0.0
 30
0.0
 11
-1.0
 21
0.0
 31
0.0
  0
LINE
  5
2E7
330
2E2
100
AcDbEntity
  8
0
  6
SLD-Durchgehend
 62
     0
370
     0
100
AcDbLine
 10
0.0
 20
0.0
 30
0.0
 11
0.0
 21
-1.0
 31
0.0
  0
LINE
  5
2E8
330
2E2
100
AcDbEntity
  8
0
  6
SLD-Durchgehend
 62
     0
370
     0
100
AcDbLine
 10
0.0
 20
0.0
 30
0.0
 11
1.0
 21
0.0
 31
0.0
  0
LINE
  5
2E9
330
2E2
100
AcDbEntity
  8
0
  6
SLD-Durchgehend
 62
     0
370
     0
100
AcDbLine
 10
0.0
 20
2.0
 30
0.0
 11
0.0
 21
5.5
 31
0.0
  0
LINE
  5
2EA
330
2E2
100
AcDbEntity
  8
0
  6
SLD-Durchgehend
 62
     0
370
     0
100
AcDbLine
 10
-2.0
 20
0.0
 30
0.0
 11
-5.5
 21
0.0
 31
0.0
  0
LINE
  5
2EB
330
2E2
100
AcDbEntity
  8
0
  6
SLD-Durchgehend
 62
     0
370
     0
100
AcDbLine
 10
0.0
 20
-2.0
 30
0.0
 11
0.0
 21
-5.5
 31
0.0
  0
LINE
  5
2EC
330
2E2
100
AcDbEntity
  8
0
  6
SLD-Durchgehend
 62
     0
370
     0
100
AcDbLine
 10
2.0
 20
0.0
 30
0.0
 11
5.5
 21
0.0
 31
0.0
  0
ENDBLK
  5
2E4
330
2E2
100
AcDbEntity
  8
0
100
AcDbBlockEnd
  0
ENDSEC
  0
SECTION
  2
ENTITIES
  0
HATCH
  5
81
330
1F
100
AcDbEntity
  8
0
  6
Continuous
 62
    52
100
AcDbHatch
 10
0.0
 20
0.0
 30
0.0
210
0.0
220
0.0
230
1.0
  2
SOLID
 70
     1
 71
     0
 91
        1
 92
        0
 93
        6
 72
     2
 10
397.2166905884209
 20
27.19368183392314
 40
9.336383935046287
 50
28.83743273930608
 51
198.8193368338523
 73
     1
 72
     1
 10
388.3794255903911
 20
24.18190290159952
 11
388.7816097341537
 21
24.18190290159952
 72
     1
 10
388.7816097341537
 20
24.18190290159952
 11
390.8103449730125
 21
31.54854125382066
 72
     1
 10
390.8103449730125
 20
31.54854125382066
 11
392.6133250240622
 21
31.54854125382066
 72
     2
 10
398.3341692458886
 20
29.54038196427235
 40
6.063065424569007
 50
199.3423480985319
 51
339.1651749394908
 73
     0
 72
     1
 10
404.0007687940603
 20
31.69686333522489
 11
405.3952859047894
 21
31.69686333522489
 97
        0
 75
     0
 76
     1
 98
        1
 10
0.0
 20
0.0
  0
HATCH
  5
82
330
1F
100
AcDbEntity
  8
0
  6
Continuous
 62
     7
100
AcDbHatch
 10
0.0
 20
0.0
 30
0.0
210
0.0
220
0.0
230
1.0
  2
SOLID
 70
     1
 71
     0
 91
        2
 92
        0
 93
        6
 72
     1
 10
390.9093832949075
 20
31.41854125382067
 11
392.7062226385282
 21
31.41854125382066
 72
     2
 10
398.3341692458886
 20
29.54038196427235
 40
5.933065424568984
 50
198.4548941224166
 51
340.0282228512785
 73
     0
 72
     1
 10
403.9104259280544
 20
31.56686333522489
 11
405.6123864120185
 21
31.56686333522489
 72
     2
 10
397.2166905884209
 20
27.19368183392314
 40
9.46638393504625
 50
27.51427472226174
 51
199.3834076115143
 73
     1
 72
     1
 10
388.2868725641771
 20
24.05190290159952
 11
388.8806480560487
 21
24.05190290159952
 72
     1
 10
388.8806480560487
 20
24.05190290159952
 11
390.9093832949075
 21
31.41854125382067
 97
        0
 92
        0
 93
        6
 72
     1
 10
388.7816097341537
 20
24.18190290159952
 11
388.3794255903911
 21
24.18190290159952
 72
     2
 10
397.2166905884209
 20
27.19368183392314
 40
9.336383935046287
 50
161.1806631661485
 51
331.1625672606947
 73
     0
 72
     1
 10
405.3952859047894
 20
31.69686333522489
 11
404.0007687940603
 21
31.69686333522489
 72
     2
 10
398.3341692458886
 20
29.54038196427235
 40
6.063065424569007
 50
20.83482506051003
 51
160.6576519014689
 73
     1
 72
     1
 10
392.6133250240622
 20
31.54854125382066
 11
390.8103449730125
 21
31.54854125382066
 72
     1
 10
390.8103449730125
 20
31.54854125382066
 11
388.7816097341537
 21
24.18190290159952
 97
        0
 75
     0
 76
     1
 98
        1
 10
0.0
 20
0.0
  0
HATCH
  5
83
330
1F
100
AcDbEntity
  8
0
  6
Continuous
 62
     7
100
AcDbHatch
 10
0.0
 20
0.0
 30
0.0
210
0.0
220
0.0
230
1.0
  2
SOLID
 70
     1
 71
     0
 91
        1
 92
        0
 93
       10
 72
     1
 10
391.2557525416791
 20
31.17133921476775
 11
389.4249433061572
 21
24.10134359540109
 72
     1
 10
389.4249433061572
 20
24.10134359540109
 11
391.9979725360537
 21
24.10134359540109
 72
     1
 10
391.9979725360537
 20
24.10134359540109
 11
392.9875987755306
 21
27.90826414852663
 72
     1
 10
392.9875987755306
 20
27.90826414852663
 11
394.5215202651154
 21
24.1013435954011
 72
     1
 10
394.5215202651154
 20
24.1013435954011
 11
397.1935124966802
 21
24.1013435954011
 72
     1
 10
397.1935124966802
 20
24.1013435954011
 11
398.8758772296985
 21
31.07245782716463
 72
     1
 10
398.8758772296985
 20
31.07245782716463
 11
396.4512925023055
 21
31.07245782716463
 72
     1
 10
396.4512925023055
 20
31.07245782716463
 11
395.5606280054266
 21
27.16665660141341
 72
     1
 10
395.5606280054266
 20
27.16665660141341
 11
393.8782632724091
 21
31.17133921476775
 72
     1
 10
393.8782632724091
 20
31.17133921476775
 11
391.2557525416791
 21
31.17133921476775
 97
        0
 75
     0
 76
     1
 98
        1
 10
0.0
 20
0.0
  0
HATCH
  5
84
330
1F
100
AcDbEntity
  8
0
  6
Continuous
 62
     7
100
AcDbHatch
 10
0.0
 20
0.0
 30
0.0
210
0.0
220
0.0
230
1.0
  2
SOLID
 70
     1
 71
     0
 91
        2
 92
        0
 93
        3
 72
     1
 10
393.1360432780339
 20
26.3261669517193
 11
392.5549013500252
 21
24.05190290159952
 72
     1
 10
392.5549013500252
 20
24.05190290159952
 11
394.0761880166766
 21
24.05190290159952
 72
     1
 10
394.0761880166766
 20
24.05190290159952
 11
393.1360432780339
 21
26.3261669517193
 97
        0
 92
        0
 93
        3
 72
     1
 10
393.8817783160101
 20
24.18190290159952
 11
392.7222972997866
 21
24.18190290159952
 72
     1
 10
392.7222972997866
 20
24.18190290159952
 11
393.1652269908361
 21
25.91528165906799
 72
     1
 10
393.1652269908361
 20
25.91528165906799
 11
393.8817783160101
 21
24.18190290159952
 97
        0
 75
     0
 76
     1
 98
        1
 10
0.0
 20
0.0
  0
HATCH
  5
85
330
1F
100
AcDbEntity
  8
0
  6
Continuous
 62
    52
100
AcDbHatch
 10
0.0
 20
0.0
 30
0.0
210
0.0
220
0.0
230
1.0
  2
SOLID
 70
     1
 71
     0
 91
        1
 92
        0
 93
        3
 72
     1
 10
393.1652269908361
 20
25.91528165906799
 11
392.7222972997866
 21
24.18190290159952
 72
     1
 10
392.7222972997866
 20
24.18190290159952
 11
393.8817783160101
 21
24.18190290159952
 72
     1
 10
393.8817783160101
 20
24.18190290159952
 11
393.1652269908361
 21
25.91528165906799
 97
        0
 75
     0
 76
     1
 98
        1
 10
0.0
 20
0.0
  0
HATCH
  5
86
330
1F
100
AcDbEntity
  8
0
  6
Continuous
 62
     7
100
AcDbHatch
 10
0.0
 20
0.0
 30
0.0
210
0.0
220
0.0
230
1.0
  2
SOLID
 70
     1
 71
     0
 91
        1
 92
        0
 93
        8
 72
     1
 10
399.4696539806409
 20
31.12189852096661
 11
398.7274339862658
 21
28.25434757518244
 72
     1
 10
398.7274339862658
 20
28.25434757518244
 11
399.1727662347047
 21
24.00246292277559
 72
     1
 10
399.1727662347047
 20
24.00246292277559
 11
402.3395709564733
 21
24.00246292277559
 72
     1
 10
402.3395709564733
 20
24.00246292277559
 11
406.5454846776286
 21
31.07245782718087
 72
     1
 10
406.5454846776286
 20
31.07245782718087
 11
403.7745294443889
 21
31.07245782718087
 72
     1
 10
403.7745294443889
 20
31.07245782718087
 11
401.5478694612618
 21
27.0677752138452
 72
     1
 10
401.5478694612618
 20
27.0677752138452
 11
401.0530569710604
 21
31.12189852096661
 72
     1
 10
401.0530569710604
 20
31.12189852096661
 11
399.4696539806409
 21
31.12189852096661
 97
        0
 75
     0
 76
     1
 98
        1
 10
0.0
 20
0.0
  0
HATCH
  5
87
330
1F
100
AcDbEntity
  8
0
  6
Continuous
 62
     7
100
AcDbHatch
 10
0.0
 20
0.0
 30
0.0
210
0.0
220
0.0
230
1.0
  2
SOLID
 70
     1
 71
     0
 91
        2
 92
        0
 93
        3
 72
     2
 10
398.60159497708
 20
26.88049322517953
 40
8.003675602344106
 50
339.303884922883
 51
377.0191257258724
 73
     1
 72
     1
 10
406.2547664701381
 20
29.22309631691353
 11
403.0323094500141
 21
24.05190290159952
 72
     1
 10
403.0323094500141
 20
24.05190290159952
 11
406.0887773529079
 21
24.05190290159952
 97
        0
 92
        0
 93
        3
 72
     1
 10
403.2664948845861
 20
24.18190290159952
 11
406.2102984795193
 21
28.90593107979706
 72
     2
 10
398.60159497708
 20
26.88049322517953
 40
7.873675602344119
 50
345.0935417050616
 51
380.0436402959713
 73
     0
 72
     1
 10
405.99837655804
 20
24.18190290159952
 11
403.2664948845861
 21
24.18190290159952
 97
        0
 75
     0
 76
     1
 98
        1
 10
0.0
 20
0.0
  0
HATCH
  5
88
330
1F
100
AcDbEntity
  8
0
  6
Continuous
 62
    52
100
AcDbHatch
 10
0.0
 20
0.0
 30
0.0
210
0.0
220
0.0
230
1.0
  2
SOLID
 70
     1
 71
     0
 91
        1
 92
        0
 93
        3
 72
     2
 10
398.60159497708
 20
26.88049322517953
 40
7.873675602344119
 50
339.9563597040303
 51
374.90645829494
 73
     1
 72
     1
 10
406.2102984795193
 20
28.90593107979706
 11
403.2664948845861
 21
24.18190290159952
 72
     1
 10
403.2664948845861
 20
24.18190290159952
 11
405.99837655804
 21
24.18190290159952
 97
        0
 75
     0
 76
     1
 98
        1
 10
0.0
 20
0.0
  0
LINE
  5
89
330
1F
100
AcDbEntity
  8
0
  6
SLD-Durchgehend
 62
     7
370
     0
100
AcDbLine
 10
222.0
 20
45.0
 30
0.0
 11
222.0
 21
10.0
 31
0.0
  0
LINE
  5
8A
330
1F
100
AcDbEntity
  8
0
  6
SLD-Durchgehend
 62
     7
370
     0
100
AcDbLine
 10
410.0
 20
65.0
 30
0.0
 11
410.0
 21
10.0
 31
0.0
  0
LINE
  5
8B
330
1F
100
AcDbEntity
  8
0
  6
SLD-Durchgehend
 62
     7
370
     0
100
AcDbLine
 10
222.0
 20
10.0
 30
0.0
 11
410.0
 21
10.0
 31
0.0
  0
LINE
  5
8C
330
1F
100
AcDbEntity
  8
0
  6
SLD-Durchgehend
 62
     7
370
     0
100
AcDbLine
 10
222.0
 20
10.0
 30
0.0
 11
410.0
 21
10.0
 31
0.0
  0
LINE
  5
8D
330
1F
100
AcDbEntity
  8
0
  6
SLD-Durchgehend
 62
     7
370
     0
100
AcDbLine
 10
410.0
 20
45.0
 30
0.0
 11
410.0
 21
10.0
 31
0.0
  0
LINE
  5
8E
330
1F
100
AcDbEntity
  8
0
  6
SLD-Durchgehend
 62
     7
370
     0
100
AcDbLine
 10
222.0
 20
45.0
 30
0.0
 11
410.0
 21
45.0
 31
0.0
  0
LINE
  5
8F
330
1F
100
AcDbEntity
  8
0
  6
SLD-Durchgehend
 62
     7
370
     0
100
AcDbLine
 10
345.0
 20
45.0
 30
0.0
 11
345.0
 21
10.0
 31
0.0
  0
LINE
  5
90
330
1F
100
AcDbEntity
  8
0
  6
SLD-Durchgehend
 62
     7
370
     0
100
AcDbLine
 10
274.0
 20
45.0
 30
0.0
 11
274.0
 21
10.0
 31
0.0
  0
LINE
  5
91
330
1F
100
AcDbEntity
  8
0
  6
SLD-Durchgehend
 62
     7
370
     0
100
AcDbLine
 10
222.0
 20
27.5
 30
0.0
 11
274.0
 21
27.5
 31
0.0
  0
LINE
  5
92
330
1F
100
AcDbEntity
  8
0
  6
SLD-Durchgehend
 62
     7
370
     0
100
AcDbLine
 10
222.0
 20
18.75
 30
0.0
 11
274.0
 21
18.75
 31
0.0
  0
LINE
  5
93
330
1F
100
AcDbEntity
  8
0
  6
SLD-Durchgehend
 62
     7
370
     0
100
AcDbLine
 10
388.2868725642
 20
24.0519029016
 30
0.0
 11
388.880648056
 21
24.0519029016
 31
0.0
  0
LINE
  5
94
330
1F
100
AcDbEntity
  8
0
  6
SLD-Durchgehend
 62
     7
370
     0
100
AcDbLine
 10
388.880648056
 20
24.0519029016
 30
0.0
 11
390.9093832949
 21
31.4185412538
 31
0.0
  0
LINE
  5
95
330
1F
100
AcDbEntity
  8
0
  6
SLD-Durchgehend
 62
     7
370
     0
100
AcDbLine
 10
390.9093832949
 20
31.4185412538
 30
0.0
 11
392.7062226385
 21
31.4185412538
 31
0.0
  0
LINE
  5
96
330
1F
100
AcDbEntity
  8
0
  6
SLD-Durchgehend
 62
     7
370
     0
100
AcDbLine
 10
403.9104259281
 20
31.5668633352
 30
0.0
 11
405.612386412
 21
31.5668633352
 31
0.0
  0
LINE
  5
97
330
1F
100
AcDbEntity
  8
0
  6
SLD-Durchgehend
 62
     7
370
     0
100
AcDbLine
 10
391.2557525417
 20
31.1713392148
 30
0.0
 11
393.8782632724
 21
31.1713392148
 31
0.0
  0
LINE
  5
98
330
1F
100
AcDbEntity
  8
0
  6
SLD-Durchgehend
 62
     7
370
     0
100
AcDbLine
 10
393.8782632724
 20
31.1713392148
 30
0.0
 11
395.5606280054
 21
27.1666566014
 31
0.0
  0
LINE
  5
99
330
1F
100
AcDbEntity
  8
0
  6
SLD-Durchgehend
 62
     7
370
     0
100
AcDbLine
 10
395.5606280054
 20
27.1666566014
 30
0.0
 11
396.4512925023
 21
31.0724578272
 31
0.0
  0
LINE
  5
9A
330
1F
100
AcDbEntity
  8
0
  6
SLD-Durchgehend
 62
     7
370
     0
100
AcDbLine
 10
396.4512925023
 20
31.0724578272
 30
0.0
 11
398.8758772297
 21
31.0724578272
 31
0.0
  0
LINE
  5
9B
330
1F
100
AcDbEntity
  8
0
  6
SLD-Durchgehend
 62
     7
370
     0
100
AcDbLine
 10
398.8758772297
 20
31.0724578272
 30
0.0
 11
397.1935124967
 21
24.1013435954
 31
0.0
  0
LINE
  5
9C
330
1F
100
AcDbEntity
  8
0
  6
SLD-Durchgehend
 62
     7
370
     0
100
AcDbLine
 10
397.1935124967
 20
24.1013435954
 30
0.0
 11
394.5215202651
 21
24.1013435954
 31
0.0
  0
LINE
  5
9D
330
1F
100
AcDbEntity
  8
0
  6
SLD-Durchgehend
 62
     7
370
     0
100
AcDbLine
 10
394.5215202651
 20
24.1013435954
 30
0.0
 11
392.9875987755
 21
27.9082641485
 31
0.0
  0
LINE
  5
9E
330
1F
100
AcDbEntity
  8
0
  6
SLD-Durchgehend
 62
     7
370
     0
100
AcDbLine
 10
392.9875987755
 20
27.9082641485
 30
0.0
 11
391.9979725361
 21
24.1013435954
 31
0.0
  0
LINE
  5
9F
330
1F
100
AcDbEntity
  8
0
  6
SLD-Durchgehend
 62
     7
370
     0
100
AcDbLine
 10
391.9979725361
 20
24.1013435954
 30
0.0
 11
389.4249433062
 21
24.1013435954
 31
0.0
  0
LINE
  5
A0
330
1F
100
AcDbEntity
  8
0
  6
SLD-Durchgehend
 62
     7
370
     0
100
AcDbLine
 10
389.4249433062
 20
24.1013435954
 30
0.0
 11
391.2557525417
 21
31.1713392148
 31
0.0
  0
LINE
  5
A1
330
1F
100
AcDbEntity
  8
0
  6
SLD-Durchgehend
 62
     7
370
     0
100
AcDbLine
 10
393.136043278
 20
26.3261669517
 30
0.0
 11
394.0761880167
 21
24.0519029016
 31
0.0
  0
LINE
  5
A2
330
1F
100
AcDbEntity
  8
0
  6
SLD-Durchgehend
 62
     7
370
     0
100
AcDbLine
 10
394.0761880167
 20
24.0519029016
 30
0.0
 11
392.55490135
 21
24.0519029016
 31
0.0
  0
LINE
  5
A3
330
1F
100
AcDbEntity
  8
0
  6
SLD-Durchgehend
 62
     7
370
     0
100
AcDbLine
 10
392.55490135
 20
24.0519029016
 30
0.0
 11
393.136043278
 21
26.3261669517
 31
0.0
  0
LINE
  5
A4
330
1F
100
AcDbEntity
  8
0
  6
SLD-Durchgehend
 62
     7
370
     0
100
AcDbLine
 10
399.4696539806
 20
31.121898521
 30
0.0
 11
401.0530569711
 21
31.121898521
 31
0.0
  0
LINE
  5
A5
330
1F
100
AcDbEntity
  8
0
  6
SLD-Durchgehend
 62
     7
370
     0
100
AcDbLine
 10
401.0530569711
 20
31.121898521
 30
0.0
 11
401.5478694613
 21
27.0677752138
 31
0.0
  0
LINE
  5
A6
330
1F
100
AcDbEntity
  8
0
  6
SLD-Durchgehend
 62
     7
370
     0
100
AcDbLine
 10
222.0
 20
10.0
 30
0.0
 11
410.0
 21
10.0
 31
0.0
  0
LINE
  5
A7
330
1F
100
AcDbEntity
  8
0
  6
SLD-Durchgehend
 62
     7
370
     0
100
AcDbLine
 10
401.5478694613
 20
27.0677752138
 30
0.0
 11
403.7745294444
 21
31.0724578272
 31
0.0
  0
LINE
  5
A8
330
1F
100
AcDbEntity
  8
0
  6
SLD-Durchgehend
 62
     7
370
     0
100
AcDbLine
 10
403.7745294444
 20
31.0724578272
 30
0.0
 11
406.5454846776
 21
31.0724578272
 31
0.0
  0
LINE
  5
A9
330
1F
100
AcDbEntity
  8
0
  6
SLD-Durchgehend
 62
     7
370
     0
100
AcDbLine
 10
406.5454846776
 20
31.0724578272
 30
0.0
 11
402.3395709565
 21
24.0024629228
 31
0.0
  0
LINE
  5
AA
330
1F
100
AcDbEntity
  8
0
  6
SLD-Durchgehend
 62
     7
370
     0
100
AcDbLine
 10
402.3395709565
 20
24.0024629228
 30
0.0
 11
399.1727662347
 21
24.0024629228
 31
0.0
  0
LINE
  5
AB
330
1F
100
AcDbEntity
  8
0
  6
SLD-Durchgehend
 62
     7
370
     0
100
AcDbLine
 10
399.1727662347
 20
24.0024629228
 30
0.0
 11
398.7274339863
 21
28.2543475752
 31
0.0
  0
LINE
  5
AC
330
1F
100
AcDbEntity
  8
0
  6
SLD-Durchgehend
 62
     7
370
     0
100
AcDbLine
 10
398.7274339863
 20
28.2543475752
 30
0.0
 11
399.4696539806
 21
31.121898521
 31
0.0
  0
LINE
  5
AD
330
1F
100
AcDbEntity
  8
0
  6
SLD-Durchgehend
 62
     7
370
     0
100
AcDbLine
 10
403.03230945
 20
24.0519029016
 30
0.0
 11
406.2547664701
 21
29.2230963169
 31
0.0
  0
LINE
  5
AE
330
1F
100
AcDbEntity
  8
0
  6
SLD-Durchgehend
 62
     7
370
     0
100
AcDbLine
 10
403.03230945
 20
24.0519029016
 30
0.0
 11
406.0887773529
 21
24.0519029016
 31
0.0
  0
LINE
  5
AF
330
1F
100
AcDbEntity
  8
0
  6
SLD-Durchgehend
 62
     7
370
     0
100
AcDbLine
 10
403.2664948846
 20
24.1819029016
 30
0.0
 11
405.998376558
 21
24.1819029016
 31
0.0
  0
LINE
  5
B0
330
1F
100
AcDbEntity
  8
0
  6
SLD-Durchgehend
 62
     7
370
     0
100
AcDbLine
 10
222.0
 20
10.0
 30
0.0
 11
410.0
 21
10.0
 31
0.0
  0
LINE
  5
B1
330
1F
100
AcDbEntity
  8
0
  6
SLD-Durchgehend
 62
     7
370
     0
100
AcDbLine
 10
410.0
 20
42.5
 30
0.0
 11
410.0
 21
10.0
 31
0.0
  0
LINE
  5
B2
330
1F
100
AcDbEntity
  8
0
  6
SLD-Durchgehend
 62
     7
370
     0
100
AcDbLine
 10
403.2664948846
 20
24.1819029016
 30
0.0
 11
406.2102984795
 21
28.9059310798
 31
0.0
  0
LINE
  5
B3
330
1F
100
AcDbEntity
  8
0
  6
SLD-Durchgehend
 62
     7
370
     0
100
AcDbLine
 10
404.0007687941
 20
31.6968633352
 30
0.0
 11
405.3952859048
 21
31.6968633352
 31
0.0
  0
LINE
  5
B4
330
1F
100
AcDbEntity
  8
0
  6
SLD-Durchgehend
 62
     7
370
     0
100
AcDbLine
 10
388.3794255904
 20
24.1819029016
 30
0.0
 11
388.7816097342
 21
24.1819029016
 31
0.0
  0
LINE
  5
B5
330
1F
100
AcDbEntity
  8
0
  6
SLD-Durchgehend
 62
     7
370
     0
100
AcDbLine
 10
388.7816097342
 20
24.1819029016
 30
0.0
 11
390.810344973
 21
31.5485412538
 31
0.0
  0
LINE
  5
B6
330
1F
100
AcDbEntity
  8
0
  6
SLD-Durchgehend
 62
     7
370
     0
100
AcDbLine
 10
390.810344973
 20
31.5485412538
 30
0.0
 11
392.6133250241
 21
31.5485412538
 31
0.0
  0
LINE
  5
B7
330
1F
100
AcDbEntity
  8
0
  6
SLD-Durchgehend
 62
     7
370
     0
100
AcDbLine
 10
393.1652269908
 20
25.9152816591
 30
0.0
 11
393.881778316
 21
24.1819029016
 31
0.0
  0
LINE
  5
B8
330
1F
100
AcDbEntity
  8
0
  6
SLD-Durchgehend
 62
     7
370
     0
100
AcDbLine
 10
393.881778316
 20
24.1819029016
 30
0.0
 11
392.7222972998
 21
24.1819029016
 31
0.0
  0
LINE
  5
B9
330
1F
100
AcDbEntity
  8
0
  6
SLD-Durchgehend
 62
     7
370
     0
100
AcDbLine
 10
392.7222972998
 20
24.1819029016
 30
0.0
 11
393.1652269908
 21
25.9152816591
 31
0.0
  0
LINE
  5
BA
330
1F
100
AcDbEntity
  8
0
  6
SLD-Durchgehend
 62
     7
370
     0
100
AcDbLine
 10
410.0
 20
50.5
 30
0.0
 11
410.0
 21
42.5
 31
0.0
  0
LINE
  5
BB
330
1F
100
AcDbEntity
  8
0
  6
SLD-Durchgehend
 62
     7
370
     0
100
AcDbLine
 10
410.0
 20
73.0
 30
0.0
 11
410.0
 21
65.0
 31
0.0
  0
LINE
  5
BC
330
1F
100
AcDbEntity
  8
0
  6
SLD-Durchgehend
 62
     7
370
     0
100
AcDbLine
 10
260.0
 20
10.0
 30
0.0
 11
260.0
 21
5.0
 31
0.0
  0
LINE
  5
BD
330
1F
100
AcDbEntity
  8
0
  6
SLD-Durchgehend
 62
     7
370
     0
100
AcDbLine
 10
410.0
 20
287.0
 30
0.0
 11
10.0
 21
287.0
 31
0.0
  0
LINE
  5
BE
330
1F
100
AcDbEntity
  8
0
  6
SLD-Durchgehend
 62
     7
370
     0
100
AcDbLine
 10
10.0
 20
10.0
 30
0.0
 11
410.0
 21
10.0
 31
0.0
  0
LINE
  5
BF
330
1F
100
AcDbEntity
  8
0
  6
SLD-Durchgehend
 62
     7
370
     0
100
AcDbLine
 10
5.0
 20
5.0
 30
0.0
 11
415.0
 21
5.0
 31
0.0
  0
LINE
  5
C0
330
1F
100
AcDbEntity
  8
0
  6
SLD-Durchgehend
 62
     7
370
     0
100
AcDbLine
 10
415.0
 20
292.0
 30
0.0
 11
5.0
 21
292.0
 31
0.0
  0
LINE
  5
C1
330
1F
100
AcDbEntity
  8
0
  6
SLD-Durchgehend
 62
     7
370
     0
100
AcDbLine
 10
310.0
 20
10.0
 30
0.0
 11
310.0
 21
5.0
 31
0.0
  0
LINE
  5
C2
330
1F
100
AcDbEntity
  8
0
  6
SLD-Durchgehend
 62
     7
370
     0
100
AcDbLine
 10
5.0
 20
292.0
 30
0.0
 11
5.0
 21
5.0
 31
0.0
  0
LINE
  5
C3
330
1F
100
AcDbEntity
  8
0
  6
SLD-Durchgehend
 62
     7
370
     0
100
AcDbLine
 10
10.0
 20
287.0
 30
0.0
 11
10.0
 21
191.5
 31
0.0
  0
LINE
  5
C4
330
1F
100
AcDbEntity
  8
0
  6
SLD-Durchgehend
 62
     7
370
     0
100
AcDbLine
 10
60.0
 20
10.0
 30
0.0
 11
60.0
 21
5.0
 31
0.0
  0
LINE
  5
C5
330
1F
100
AcDbEntity
  8
0
  6
SLD-Durchgehend
 62
     7
370
     0
100
AcDbLine
 10
10.0
 20
56.166
 30
0.0
 11
5.0
 21
56.166
 31
0.0
  0
LINE
  5
C6
330
1F
100
AcDbEntity
  8
0
  6
SLD-Durchgehend
 62
     7
370
     0
100
AcDbLine
 10
10.0
 20
102.332
 30
0.0
 11
5.0
 21
102.332
 31
0.0
  0
LINE
  5
C7
330
1F
100
AcDbEntity
  8
0
  6
SLD-Durchgehend
 62
     7
370
     0
100
AcDbLine
 10
10.0
 20
148.498
 30
0.0
 11
5.0
 21
148.498
 31
0.0
  0
LINE
  5
C8
330
1F
100
AcDbEntity
  8
0
  6
SLD-Durchgehend
 62
     7
370
     0
100
AcDbLine
 10
110.0
 20
10.0
 30
0.0
 11
110.0
 21
5.0
 31
0.0
  0
LINE
  5
C9
330
1F
100
AcDbEntity
  8
0
  6
SLD-Durchgehend
 62
     7
370
     0
100
AcDbLine
 10
360.0
 20
10.0
 30
0.0
 11
360.0
 21
5.0
 31
0.0
  0
LINE
  5
CA
330
1F
100
AcDbEntity
  8
0
  6
SLD-Durchgehend
 62
     7
370
     0
100
AcDbLine
 10
210.0
 20
10.0
 30
0.0
 11
210.0
 21
5.0
 31
0.0
  0
LINE
  5
CB
330
1F
100
AcDbEntity
  8
0
  6
SLD-Durchgehend
 62
     7
370
     0
100
AcDbLine
 10
160.0
 20
10.0
 30
0.0
 11
160.0
 21
5.0
 31
0.0
  0
LINE
  5
CC
330
1F
100
AcDbEntity
  8
0
  6
SLD-Durchgehend
 62
     7
370
     0
100
AcDbLine
 10
10.0
 20
194.664
 30
0.0
 11
5.0
 21
194.664
 31
0.0
  0
LINE
  5
CD
330
1F
100
AcDbEntity
  8
0
  6
SLD-Durchgehend
 62
     7
370
     0
100
AcDbLine
 10
10.0
 20
240.83
 30
0.0
 11
5.0
 21
240.83
 31
0.0
  0
LINE
  5
CE
330
1F
100
AcDbEntity
  8
0
  6
SLD-Durchgehend
 62
     7
370
     0
100
AcDbLine
 10
60.0
 20
292.0
 30
0.0
 11
60.0
 21
287.0
 31
0.0
  0
LINE
  5
CF
330
1F
100
AcDbEntity
  8
0
  6
SLD-Durchgehend
 62
     7
370
     0
100
AcDbLine
 10
110.0
 20
292.0
 30
0.0
 11
110.0
 21
287.0
 31
0.0
  0
LINE
  5
D0
330
1F
100
AcDbEntity
  8
0
  6
SLD-Durchgehend
 62
     7
370
     0
100
AcDbLine
 10
210.0
 20
292.0
 30
0.0
 11
210.0
 21
287.0
 31
0.0
  0
LINE
  5
D1
330
1F
100
AcDbEntity
  8
0
  6
SLD-Durchgehend
 62
     7
370
     0
100
AcDbLine
 10
160.0
 20
292.0
 30
0.0
 11
160.0
 21
287.0
 31
0.0
  0
LINE
  5
D2
330
1F
100
AcDbEntity
  8
0
  6
SLD-Durchgehend
 62
     7
370
     0
100
AcDbLine
 10
410.0
 20
287.0
 30
0.0
 11
410.0
 21
10.0
 31
0.0
  0
LINE
  5
D3
330
1F
100
AcDbEntity
  8
0
  6
SLD-Durchgehend
 62
     7
370
     0
100
AcDbLine
 10
415.0
 20
292.0
 30
0.0
 11
415.0
 21
5.0
 31
0.0
  0
LINE
  5
D4
330
1F
100
AcDbEntity
  8
0
  6
SLD-Durchgehend
 62
     7
370
     0
100
AcDbLine
 10
415.0
 20
56.166
 30
0.0
 11
410.0
 21
56.166
 31
0.0
  0
LINE
  5
D5
330
1F
100
AcDbEntity
  8
0
  6
SLD-Durchgehend
 62
     7
370
     0
100
AcDbLine
 10
415.0
 20
102.332
 30
0.0
 11
410.0
 21
102.332
 31
0.0
  0
LINE
  5
D6
330
1F
100
AcDbEntity
  8
0
  6
SLD-Durchgehend
 62
     7
370
     0
100
AcDbLine
 10
415.0
 20
148.498
 30
0.0
 11
410.0
 21
148.498
 31
0.0
  0
LINE
  5
D7
330
1F
100
AcDbEntity
  8
0
  6
SLD-Durchgehend
 62
     7
370
     0
100
AcDbLine
 10
260.0
 20
292.0
 30
0.0
 11
260.0
 21
287.0
 31
0.0
  0
LINE
  5
D8
330
1F
100
AcDbEntity
  8
0
  6
SLD-Durchgehend
 62
     7
370
     0
100
AcDbLine
 10
310.0
 20
292.0
 30
0.0
 11
310.0
 21
287.0
 31
0.0
  0
LINE
  5
D9
330
1F
100
AcDbEntity
  8
0
  6
SLD-Durchgehend
 62
     7
370
     0
100
AcDbLine
 10
415.0
 20
194.664
 30
0.0
 11
410.0
 21
194.664
 31
0.0
  0
LINE
  5
DA
330
1F
100
AcDbEntity
  8
0
  6
SLD-Durchgehend
 62
     7
370
     0
100
AcDbLine
 10
415.0
 20
240.83
 30
0.0
 11
410.0
 21
240.83
 31
0.0
  0
LINE
  5
DB
330
1F
100
AcDbEntity
  8
0
  6
SLD-Durchgehend
 62
     7
370
     0
100
AcDbLine
 10
360.0
 20
292.0
 30
0.0
 11
360.0
 21
287.0
 31
0.0
  0
LINE
  5
DC
330
1F
100
AcDbEntity
  8
0
  6
SLD-Durchgehend
 62
     7
370
     0
100
AcDbLine
 10
222.0
 20
5.0
 30
0.0
 11
222.0
 21
0.0
 31
0.0
  0
LINE
  5
DD
330
1F
100
AcDbEntity
  8
0
  6
SLD-Durchgehend
 62
     7
370
     0
100
AcDbLine
 10
120.0
 20
5.0
 30
0.0
 11
120.0
 21
0.0
 31
0.0
  0
LINE
  5
DE
330
1F
100
AcDbEntity
  8
0
  6
SLD-Durchgehend
 62
     7
370
     0
100
AcDbLine
 10
120.0
 20
292.0
 30
0.0
 11
120.0
 21
297.0
 31
0.0
  0
LINE
  5
DF
330
1F
100
AcDbEntity
  8
0
  6
SLD-Durchgehend
 62
     7
370
     0
100
AcDbLine
 10
222.0
 20
292.0
 30
0.0
 11
222.0
 21
297.0
 31
0.0
  0
LINE
  5
E0
330
1F
100
AcDbEntity
  8
0
  6
SLD-Durchgehend
 62
     7
370
     0
100
AcDbLine
 10
5.0
 20
148.5
 30
0.0
 11
0.0
 21
148.5
 31
0.0
  0
LINE
  5
E1
330
1F
100
AcDbEntity
  8
0
  6
SLD-Durchgehend
 62
     7
370
     0
100
AcDbLine
 10
10.0
 20
185.5
 30
0.0
 11
10.0
 21
111.5
 31
0.0
  0
LINE
  5
E2
330
1F
100
AcDbEntity
  8
0
  6
SLD-Durchgehend
 62
     7
370
     0
100
AcDbLine
 10
10.0
 20
105.5
 30
0.0
 11
10.0
 21
10.0
 31
0.0
  0
LINE
  5
E3
330
1F
100
AcDbEntity
  8
0
  6
SLD-Durchgehend
 62
     7
370
     0
100
AcDbLine
 10
0.0
 20
0.0
 30
0.0
 11
420.0
 21
0.0
 31
0.0
  0
LINE
  5
E4
330
1F
100
AcDbEntity
  8
0
  6
SLD-Durchgehend
 62
     7
370
     0
100
AcDbLine
 10
0.0
 20
0.0
 30
0.0
 11
0.0
 21
297.0
 31
0.0
  0
LINE
  5
E5
330
1F
100
AcDbEntity
  8
0
  6
SLD-Durchgehend
 62
     7
370
     0
100
AcDbLine
 10
0.0
 20
297.0
 30
0.0
 11
420.0
 21
297.0
 31
0.0
  0
LINE
  5
E6
330
1F
100
AcDbEntity
  8
0
  6
SLD-Durchgehend
 62
     7
370
     0
100
AcDbLine
 10
420.0
 20
0.0
 30
0.0
 11
420.0
 21
297.0
 31
0.0
  0
CIRCLE
  5
E7
330
1F
100
AcDbEntity
  8
0
  6
SLD-Durchgehend
 62
     7
370
     0
100
AcDbCircle
 10
10.0
 20
188.5
 30
0.0
 40
3.000000000000001
  0
CIRCLE
  5
E8
330
1F
100
AcDbEntity
  8
0
  6
SLD-Durchgehend
 62
     7
370
     0
100
AcDbCircle
 10
10.0
 20
108.5
 30
0.0
 40
3.000000000000005
  0
ARC
  5
E9
330
1F
100
AcDbEntity
  8
0
  6
SLD-Durchgehend
 62
     7
370
     0
100
AcDbCircle
 10
397.2166905884
 20
27.1936818339
 30
0.0
 40
9.466383935046306
100
AcDbArc
 50
27.5142747223
 51
199.3834076115
  0
ARC
  5
EA
330
1F
100
AcDbEntity
  8
0
  6
SLD-Durchgehend
 62
     7
370
     0
100
AcDbCircle
 10
398.3341692459
 20
29.5403819643
 30
0.0
 40
5.933065424568992
100
AcDbArc
 50
19.9717771487
 51
161.5451058776
  0
ARC
  5
EB
330
1F
100
AcDbEntity
  8
0
  6
SLD-Durchgehend
 62
     7
370
     0
100
AcDbCircle
 10
398.6015949771
 20
26.8804932252
 30
0.0
 40
8.003675602344112
100
AcDbArc
 50
339.3038849229
 51
17.0191257259
  0
CIRCLE
  5
EC
330
1F
100
AcDbEntity
  8
0
  6
SLD-Durchgehend
 62
     7
370
     0
100
AcDbCircle
 10
407.3866676737
 20
30.5286123403
 30
0.0
 40
0.6921638106894162
  0
ARC
  5
ED
330
1F
100
AcDbEntity
  8
0
  6
SLD-Durchgehend
 62
     7
370
     0
100
AcDbCircle
 10
398.6015949771
 20
26.8804932252
 30
0.0
 40
7.873675602344121
100
AcDbArc
 50
339.956359704
 51
14.9064582949
  0
ARC
  5
EE
330
1F
100
AcDbEntity
  8
0
  6
SLD-Durchgehend
 62
     7
370
     0
100
AcDbCircle
 10
398.3341692459
 20
29.5403819643
 30
0.0
 40
6.063065424569016
100
AcDbArc
 50
20.8348250605
 51
160.6576519015
  0
ARC
  5
EF
330
1F
100
AcDbEntity
  8
0
  6
SLD-Durchgehend
 62
     7
370
     0
100
AcDbCircle
 10
397.2166905884
 20
27.1936818339
 30
0.0
 40
9.336383935046333
100
AcDbArc
 50
28.8374327393
 51
198.8193368339
  0
MTEXT
  5
F0
330
1F
100
AcDbEntity
  8
0
  6
Continuous
 62
     7
370
     0
100
AcDbMText
 10
5.7028577714
 20
34.989604144
 30
0.0
 40
4.0
 41
0.0
 71
     1
 72
     1
  1
A
  7
SLDTEXTSTYLE0
 73
     1
 44
1.0
  0
MTEXT
  5
F1
330
1F
100
AcDbEntity
  8
0
  6
Continuous
 62
     7
370
     0
100
AcDbMText
 10
33.5
 20
9.489604144
 30
0.0
 40
4.0
 41
0.0
 71
     1
 72
     1
  1
8
  7
SLDTEXTSTYLE0
 73
     1
 44
1.0
  0
MTEXT
  5
F2
330
1F
100
AcDbEntity
  8
0
  6
Continuous
 62
     7
370
     0
100
AcDbMText
 10
5.7622862171
 20
80.989604144
 30
0.0
 40
4.0
 41
0.0
 71
     1
 72
     1
  1
B
  7
SLDTEXTSTYLE0
 73
     1
 44
1.0
  0
MTEXT
  5
F3
330
1F
100
AcDbEntity
  8
0
  6
Continuous
 62
     7
370
     0
100
AcDbMText
 10
5.6317379175
 20
126.8054731028
 30
0.0
 40
4.0
 41
0.0
 71
     1
 72
     1
  1
C
  7
SLDTEXTSTYLE0
 73
     1
 44
1.0
  0
MTEXT
  5
F4
330
1F
100
AcDbEntity
  8
0
  6
Continuous
 62
     7
370
     0
100
AcDbMText
 10
133.5
 20
9.489604144
 30
0.0
 40
4.0
 41
0.0
 71
     1
 72
     1
  1
6
  7
SLDTEXTSTYLE0
 73
     1
 44
1.0
  0
MTEXT
  5
F5
330
1F
100
AcDbEntity
  8
0
  6
Continuous
 62
     7
370
     0
100
AcDbMText
 10
83.5
 20
9.489604144
 30
0.0
 40
4.0
 41
0.0
 71
     1
 72
     1
  1
7
  7
SLDTEXTSTYLE0
 73
     1
 44
1.0
  0
MTEXT
  5
F6
330
1F
100
AcDbEntity
  8
0
  6
Continuous
 62
     7
370
     0
100
AcDbMText
 10
183.5
 20
9.489604144
 30
0.0
 40
4.0
 41
0.0
 71
     1
 72
     1
  1
5
  7
SLDTEXTSTYLE0
 73
     1
 44
1.0
  0
MTEXT
  5
F7
330
1F
100
AcDbEntity
  8
0
  6
Continuous
 62
     7
370
     0
100
AcDbMText
 10
5.5396723969
 20
173.989604144
 30
0.0
 40
4.0
 41
0.0
 71
     1
 72
     1
  1
D
  7
SLDTEXTSTYLE0
 73
     1
 44
1.0
  0
MTEXT
  5
F8
330
1F
100
AcDbEntity
  8
0
  6
Continuous
 62
     7
370
     0
100
AcDbMText
 10
5.7692745255
 20
219.989604144
 30
0.0
 40
4.0
 41
0.0
 71
     1
 72
     1
  1
E
  7
SLDTEXTSTYLE0
 73
     1
 44
1.0
  0
MTEXT
  5
F9
330
1F
100
AcDbEntity
  8
0
  6
Continuous
 62
     7
370
     0
100
AcDbMText
 10
6.0
 20
265.989604144
 30
0.0
 40
4.0
 41
0.0
 71
     1
 72
     1
  1
F
  7
SLDTEXTSTYLE0
 73
     1
 44
1.0
  0
MTEXT
  5
FA
330
1F
100
AcDbEntity
  8
0
  6
Continuous
 62
     7
370
     0
100
AcDbMText
 10
33.5
 20
291.489604144
 30
0.0
 40
4.0
 41
0.0
 71
     1
 72
     1
  1
8
  7
SLDTEXTSTYLE0
 73
     1
 44
1.0
  0
MTEXT
  5
FB
330
1F
100
AcDbEntity
  8
0
  6
Continuous
 62
     7
370
     0
100
AcDbMText
 10
83.5
 20
291.489604144
 30
0.0
 40
4.0
 41
0.0
 71
     1
 72
     1
  1
7
  7
SLDTEXTSTYLE0
 73
     1
 44
1.0
  0
MTEXT
  5
FC
330
1F
100
AcDbEntity
  8
0
  6
Continuous
 62
     7
370
     0
100
AcDbMText
 10
133.5
 20
291.489604144
 30
0.0
 40
4.0
 41
0.0
 71
     1
 72
     1
  1
6
  7
SLDTEXTSTYLE0
 73
     1
 44
1.0
  0
MTEXT
  5
FD
330
1F
100
AcDbEntity
  8
0
  6
Continuous
 62
     7
370
     0
100
AcDbMText
 10
183.5
 20
291.489604144
 30
0.0
 40
4.0
 41
0.0
 71
     1
 72
     1
  1
5
  7
SLDTEXTSTYLE0
 73
     1
 44
1.0
  0
MTEXT
  5
FE
330
1F
100
AcDbEntity
  8
0
  6
Continuous
 62
     7
370
     0
100
AcDbMText
 10
410.7729847128
 20
34.9442010866
 30
0.0
 40
4.0
 41
0.0
 71
     1
 72
     1
  1
A
  7
SLDTEXTSTYLE0
 73
     1
 44
1.0
  0
MTEXT
  5
FF
330
1F
100
AcDbEntity
  8
0
  6
Continuous
 62
     7
370
     0
100
AcDbMText
 10
410.7121909102
 20
81.1364716754
 30
0.0
 40
4.0
 41
0.0
 71
     1
 72
     1
  1
B
  7
SLDTEXTSTYLE0
 73
     1
 44
1.0
  0
MTEXT
  5
100
330
1F
100
AcDbEntity
  8
0
  6
Continuous
 62
     7
370
     0
100
AcDbMText
 10
410.6203893089
 20
126.989604144
 30
0.0
 40
4.0
 41
0.0
 71
     1
 72
     1
  1
C
  7
SLDTEXTSTYLE0
 73
     1
 44
1.0
  0
MTEXT
  5
101
330
1F
100
AcDbEntity
  8
0
  6
Continuous
 62
     7
370
     0
100
AcDbMText
 10
233.5
 20
291.489604144
 30
0.0
 40
4.0
 41
0.0
 71
     1
 72
     1
  1
4
  7
SLDTEXTSTYLE0
 73
     1
 44
1.0
  0
MTEXT
  5
102
330
1F
100
AcDbEntity
  8
0
  6
Continuous
 62
     7
370
     0
100
AcDbMText
 10
284.0
 20
291.489604144
 30
0.0
 40
4.0
 41
0.0
 71
     1
 72
     1
  1
3
  7
SLDTEXTSTYLE0
 73
     1
 44
1.0
  0
MTEXT
  5
103
330
1F
100
AcDbEntity
  8
0
  6
Continuous
 62
     7
370
     0
100
AcDbMText
 10
334.0
 20
291.489604144
 30
0.0
 40
4.0
 41
0.0
 71
     1
 72
     1
  1
2
  7
SLDTEXTSTYLE0
 73
     1
 44
1.0
  0
MTEXT
  5
104
330
1F
100
AcDbEntity
  8
0
  6
Continuous
 62
     7
370
     0
100
AcDbMText
 10
410.5396138496
 20
174.1137585664
 30
0.0
 40
4.0
 41
0.0
 71
     1
 72
     1
  1
D
  7
SLDTEXTSTYLE0
 73
     1
 44
1.0
  0
MTEXT
  5
105
330
1F
100
AcDbEntity
  8
0
  6
Continuous
 62
     7
370
     0
100
AcDbMText
 10
410.7442616209
 20
220.1816801137
 30
0.0
 40
4.0
 41
0.0
 71
     1
 72
     1
  1
E
  7
SLDTEXTSTYLE0
 73
     1
 44
1.0
  0
MTEXT
  5
106
330
1F
100
AcDbEntity
  8
0
  6
Continuous
 62
     7
370
     0
100
AcDbMText
 10
384.0
 20
291.489604144
 30
0.0
 40
4.0
 41
0.0
 71
     1
 72
     1
  1
1
  7
SLDTEXTSTYLE0
 73
     1
 44
1.0
  0
MTEXT
  5
107
330
1F
100
AcDbEntity
  8
0
  6
Continuous
 62
     7
370
     0
100
AcDbMText
 10
411.0
 20
265.989604144
 30
0.0
 40
4.0
 41
0.0
 71
     1
 72
     1
  1
F
  7
SLDTEXTSTYLE0
 73
     1
 44
1.0
  0
MTEXT
  5
108
330
1F
100
AcDbEntity
  8
0
  6
Continuous
 62
     7
370
     0
100
AcDbMText
 10
233.8998971425
 20
9.6619578374
 30
0.0
 40
4.0
 41
0.0
 71
     1
 72
     1
  1
4
  7
SLDTEXTSTYLE0
 73
     1
 44
1.0
  0
MTEXT
  5
109
330
1F
100
AcDbEntity
  8
0
  6
Continuous
 62
     7
370
     0
100
AcDbMText
 10
284.3998971425
 20
9.6619578374
 30
0.0
 40
4.0
 41
0.0
 71
     1
 72
     1
  1
3
  7
SLDTEXTSTYLE0
 73
     1
 44
1.0
  0
MTEXT
  5
10A
330
1F
100
AcDbEntity
  8
0
  6
Continuous
 62
     7
370
     0
100
AcDbMText
 10
334.3998971425
 20
9.6619578374
 30
0.0
 40
4.0
 41
0.0
 71
     1
 72
     1
  1
2
  7
SLDTEXTSTYLE0
 73
     1
 44
1.0
  0
MTEXT
  5
10B
330
1F
100
AcDbEntity
  8
0
  6
Continuous
 62
     7
370
     0
100
AcDbMText
 10
384.3998971425
 20
9.6619578374
 30
0.0
 40
4.0
 41
0.0
 71
     1
 72
     1
  1
1
  7
SLDTEXTSTYLE0
 73
     1
 44
1.0
  0
MTEXT
  5
10C
330
1F
100
AcDbEntity
  8
0
  6
Continuous
 62
     7
370
     0
100
AcDbMText
 10
237.6250348008
 20
13.8539578982
 30
0.0
 40
3.0
 41
0.0
 71
     1
 72
     1
  1
03195000+03195001
  7
SLDTEXTSTYLE0
 73
     1
 44
1.0
  0
MTEXT
  5
10D
330
1F
100
AcDbEntity
  8
0
  6
Continuous
 62
     7
370
     0
100
AcDbMText
 10
277.5042038186
 20
17.4849420031
 30
0.0
 40
4.0
 41
0.0
 71
     1
 72
     1
  1
électrique courant continu
  7
SLDTEXTSTYLE0
 73
     1
 44
1.0
  0
MTEXT
  5
10E
330
1F
100
AcDbEntity
  8
0
  6
Continuous
 62
     7
370
     0
100
AcDbMText
 10
223.3772893016
 20
16.7660653803
 30
0.0
 40
2.0
 41
0.0
 71
     1
 72
     1
  1
Bestell Nr.: / Part no.: / No d`article:
  7
SLDTEXTSTYLE0
 73
     1
 44
1.0
  0
INSERT
  5
118
330
1F
100
AcDbEntity
  8
0
  6
Continuous
 62
     7
370
     0
100
AcDbBlockReference
  2
SW_NOTE_1
 10
347.2177413053
 20
17.0976931256
 30
0.0
  0
MTEXT
  5
119
330
1F
100
AcDbEntity
  8
0
  6
Continuous
 62
     7
370
     0
100
AcDbMText
 10
347.2177413053
 20
22.8281708005
 30
0.0
 40
1.8520833333
 41
0.0
 71
     1
 72
     1
  1
Fritz-Lenges-Straße 3,  55252 Mainz-Kastel
  7
SLDTEXTSTYLE0
 73
     1
 44
1.0
  0
INSERT
  5
11F
330
1F
100
AcDbEntity
  8
0
  6
Continuous
 62
     7
370
     0
100
AcDbBlockReference
  2
SW_NOTE_2
 10
347.2177413053
 20
23.0066254519
 30
0.0
  0
MTEXT
  5
120
330
1F
100
AcDbEntity
  8
0
  6
SLD-Durchgehend
 62
     7
370
     0
100
AcDbMText
 10
407.0748866834
 20
30.8708309295
 30
0.0
 40
0.65
 41
0.0
 71
     1
 72
     1
  1
R
  7
SLDTEXTSTYLE0
 73
     1
 44
1.0
  0
MTEXT
  5
121
330
1F
100
AcDbEntity
  8
0
  6
Continuous
 62
     7
370
     0
100
AcDbMText
 10
277.5042038186
 20
24.4879186679
 30
0.0
 40
4.0
 41
0.0
 71
     1
 72
     1
  1
vibrator direct current
  7
SLDTEXTSTYLE0
 73
     1
 44
1.0
  0
MTEXT
  5
122
330
1F
100
AcDbEntity
  8
0
  6
Continuous
 62
     7
370
     0
100
AcDbMText
 10
277.5042038186
 20
31.495794101
 30
0.0
 40
4.0
 41
0.0
 71
     1
 72
     1
  1
Elektrovibrator Gleichstrom
  7
SLDTEXTSTYLE0
 73
     1
 44
1.0
  0
MTEXT
  5
124
330
1F
100
AcDbEntity
  8
0
  6
Continuous
 62
     7
370
     0
100
AcDbMText
 10
277.5042038186
 20
40.9994003142
 30
0.0
 40
4.0
 41
0.0
 71
     1
 72
     1
  1
NED 5016
  7
SLDTEXTSTYLE3
 73
     1
 44
1.0
  0
MTEXT
  5
125
330
1F
100
AcDbEntity
  8
0
  6
Continuous
 62
     7
370
     0
100
AcDbMText
 10
223.3772893016
 20
25.5316048537
 30
0.0
 40
2.0
 41
0.0
 71
     1
 72
     1
  1
Angebot Nr.: / Quotation no.: / Offre no.:
  7
SLDTEXTSTYLE0
 73
     1
 44
1.0
  0
MTEXT
  5
126
330
1F
100
AcDbEntity
  8
0
  6
Continuous
 62
     7
370
     0
100
AcDbMText
 10
225.29574253
 20
32.5277418382
 30
0.0
 40
2.5
 41
0.0
 71
     1
 72
     1
  1
tous droits réservés
  7
SLDTEXTSTYLE0
 73
     1
 44
1.0
  0
MTEXT
  5
127
330
1F
100
AcDbEntity
  8
0
  6
Continuous
 62
     7
370
     0
100
AcDbMText
 10
225.29574253
 20
37.4820057146
 30
0.0
 40
2.5
 41
0.0
 71
     1
 72
     1
  1
all rights reserved
  7
SLDTEXTSTYLE0
 73
     1
 44
1.0
  0
MTEXT
  5
128
330
1F
100
AcDbEntity
  8
0
  6
Continuous
 62
     7
370
     0
100
AcDbMText
 10
225.29574253
 20
42.5142561092
 30
0.0
 40
2.5
 41
0.0
 71
     1
 72
     1
  1
alle Schutzrechte vorbehalten
  7
SLDTEXTSTYLE0
 73
     1
 44
1.0
  0
LINE
  5
129
330
1F
100
AcDbEntity
  8
0
  6
SLD-Durchgehend
 62
     7
370
    15
100
AcDbLine
 10
136.9078210136
 20
66.2508769314
 30
0.0
 11
161.9078213862
 21
66.2508769314
 31
0.0
  0
LINE
  5
12A
330
1F
100
AcDbEntity
  8
0
  6
SLD-Durchgehend
 62
     7
370
    15
100
AcDbLine
 10
161.9078213862
 20
142.2508744876
 30
0.0
 11
136.9078210136
 21
142.2508744876
 31
0.0
  0
ARC
  5
12B
330
1F
100
AcDbEntity
  8
0
  6
SLD-Durchgehend
 62
     7
370
    15
100
AcDbCircle
 10
161.9078213504
 20
70.2508757095
 30
0.0
 40
4.000000000000043
100
AcDbArc
 50
270.0
 51
0.0
  0
ARC
  5
12C
330
1F
100
AcDbEntity
  8
0
  6
SLD-Durchgehend
 62
     7
370
    15
100
AcDbCircle
 10
161.9078213504
 20
138.2508757095
 30
0.0
 40
4.000000000000057
100
AcDbArc
 50
0.0
 51
90.0
  0
LINE
  5
12D
330
1F
100
AcDbEntity
  8
0
  6
SLD-Durchgehend
 62
     7
370
    15
100
AcDbLine
 10
75.1078216872
 20
142.2508744876
 30
0.0
 11
50.1078213146
 21
142.2508744876
 31
0.0
  0
LINE
  5
12E
330
1F
100
AcDbEntity
  8
0
  6
SLD-Durchgehend
 62
     7
370
    15
100
AcDbLine
 10
50.1078213146
 20
66.2508769314
 30
0.0
 11
75.1078216872
 21
66.2508769314
 31
0.0
  0
ARC
  5
12F
330
1F
100
AcDbEntity
  8
0
  6
SLD-Durchgehend
 62
     7
370
    15
100
AcDbCircle
 10
50.1078213504
 20
138.2508757095
 30
0.0
 40
4.000000000000028
100
AcDbArc
 50
90.0
 51
180.0
  0
ARC
  5
130
330
1F
100
AcDbEntity
  8
0
  6
SLD-Durchgehend
 62
     7
370
    15
100
AcDbCircle
 10
50.1078213504
 20
70.2508757095
 30
0.0
 40
4.000000000000057
100
AcDbArc
 50
180.0
 51
270.0
  0
LINE
  5
131
330
1F
100
AcDbEntity
  8
0
  6
SLD-Durchgehend
 62
     7
370
    15
100
AcDbLine
 10
165.9078220418
 20
138.2508775572
 30
0.0
 11
165.9078220418
 21
70.2508738618
 31
0.0
  0
LINE
  5
132
330
1F
100
AcDbEntity
  8
0
  6
SLD-Durchgehend
 62
     7
370
    15
100
AcDbLine
 10
46.107820659
 20
98.5876735653
 30
0.0
 11
46.107820659
 21
138.2508775572
 31
0.0
  0
LINE
  5
133
330
1F
100
AcDbEntity
  8
0
  6
SLD-Durchgehend
 62
     7
370
    15
100
AcDbLine
 10
46.107820659
 20
70.2508738618
 30
0.0
 11
46.107820659
 21
98.5876735653
 31
0.0
  0
LINE
  5
134
330
1F
100
AcDbEntity
  8
0
  6
SLD-Durchgehend
 62
     7
370
    15
100
AcDbLine
 10
75.1078216872
 20
65.7508759181
 30
0.0
 11
136.9078210136
 21
65.7508759181
 31
0.0
  0
LINE
  5
135
330
1F
100
AcDbEntity
  8
0
  6
SLD-Durchgehend
 62
     7
370
    15
100
AcDbLine
 10
75.1078216872
 20
65.7508759181
 30
0.0
 11
75.1078216872
 21
142.7508755009
 31
0.0
  0
LINE
  5
136
330
1F
100
AcDbEntity
  8
0
  6
SLD-Durchgehend
 62
     7
370
    15
100
AcDbLine
 10
136.9078210136
 20
65.7508759181
 30
0.0
 11
136.9078210136
 21
142.7508755009
 31
0.0
  0
LINE
  5
137
330
1F
100
AcDbEntity
  8
0
  6
SLD-Durchgehend
 62
     7
370
    15
100
AcDbLine
 10
75.1078216872
 20
142.7508755009
 30
0.0
 11
136.9078210136
 21
142.7508755009
 31
0.0
  0
LINE
  5
138
330
1F
100
AcDbEntity
  8
0
  6
SLD-Durchgehend
 62
     8
370
     0
100
AcDbLine
 10
161.9078213862
 20
66.2508769314
 30
0.0
 11
161.9078213862
 21
142.2508744876
 31
0.0
  0
LINE
  5
139
330
1F
100
AcDbEntity
  8
0
  6
SLD-Durchgehend
 62
     8
370
     0
100
AcDbLine
 10
50.1078213146
 20
97.921414243
 30
0.0
 11
50.1078213146
 21
66.2508769314
 31
0.0
  0
LINE
  5
13A
330
1F
100
AcDbEntity
  8
0
  6
SLD-Durchgehend
 62
     8
370
     0
100
AcDbLine
 10
50.1078213146
 20
142.2508744876
 30
0.0
 11
50.1078213146
 21
97.921414243
 31
0.0
  0
DIMENSION
  5
13B
330
1F
100
AcDbEntity
  8
0
  6
SLD-Durchgehend
 62
     7
370
     0
100
AcDbDimension
  2
_D
 10
46.1078213504
 20
37.44255438
 30
0.0
 11
102.4840018247
 21
37.44255438
 31
0.0
 70
   160
  1
<>
 71
     2
 42
-1.0
  3
SLDDIMSTYLE0
100
AcDbAlignedDimension
 13
165.9078213504
 23
70.2508757095
 33
0.0
 14
46.1078213504
 24
70.2508757095
 34
0.0
 50
0.0
100
AcDbRotatedDimension
  0
DIMENSION
  5
146
330
1F
100
AcDbEntity
  8
0
  6
SLD-Durchgehend
 62
     7
370
     0
100
AcDbDimension
  2
_D_1
 10
136.9078213504
 20
57.4067676602
 30
0.0
 11
151.7837676084
 21
57.4067676602
 31
0.0
 70
   160
  1
<>
 71
     2
 42
-1.0
  3
SLDDIMSTYLE0
100
AcDbAlignedDimension
 13
165.9078213504
 23
70.2508757095
 33
0.0
 14
136.9078213504
 24
65.7508757095
 34
0.0
 50
0.0
100
AcDbRotatedDimension
  0
DIMENSION
  5
150
330
1F
100
AcDbEntity
  8
0
  6
SLD-Durchgehend
 62
     7
370
     0
100
AcDbDimension
  2
_D_2
 10
75.1078213504
 20
57.4067676602
 30
0.0
 11
60.1320761998
 21
57.4067676602
 31
0.0
 70
   160
  1
<>
 71
     2
 42
-1.0
  3
SLDDIMSTYLE0
100
AcDbAlignedDimension
 13
46.1078213504
 23
70.2508757095
 33
0.0
 14
75.1078213504
 24
65.7508757095
 34
0.0
 50
0.0
100
AcDbRotatedDimension
  0
DIMENSION
  5
15A
330
1F
100
AcDbEntity
  8
0
  6
SLD-Durchgehend
 62
     7
370
     0
100
AcDbDimension
  2
_D_3
 10
136.9078213504
 20
50.0510348538
 30
0.0
 11
106.1950846214
 21
50.0510348538
 31
0.0
 70
   160
  1
<>
 71
     2
 42
-1.0
  3
SLDDIMSTYLE0
100
AcDbAlignedDimension
 13
75.1078213504
 23
65.7508757095
 33
0.0
 14
136.9078213504
 24
65.7508757095
 34
0.0
 50
0.0
100
AcDbRotatedDimension
  0
LINE
  5
164
330
1F
100
AcDbEntity
  8
0
  6
SLD-Punktstrich
 62
     7
370
     0
100
AcDbLine
 10
106.0078213504
 20
144.7508757095
 30
0.0
 11
106.0078213504
 21
63.7508757095
 31
0.0
  0
LINE
  5
165
330
1F
100
AcDbEntity
  8
0
  6
SLD-Punktstrich
 62
     7
370
     0
100
AcDbLine
 10
42.8374484919
 20
104.2508757095
 30
0.0
 11
169.4752707503
 21
104.2508757095
 31
0.0
  0
LINE
  5
166
330
1F
100
AcDbEntity
  8
0
  6
SLD-Punktstrich
 62
     7
370
     0
100
AcDbLine
 10
48.1078213504
 20
104.2508757095
 30
0.0
 11
163.9078213504
 21
104.2508757095
 31
0.0
  0
SPLINE
  5
167
330
1F
100
AcDbEntity
  8
0
  6
SLD-Durchgehend
 62
     7
370
    15
100
AcDbSpline
210
0.0
220
0.0
230
1.0
 70
     8
 71
     3
 72
    51
 73
    47
 74
     0
 42
0.000000001
 43
0.00000001
 40
0.0
 40
0.0
 40
0.0
 40
0.0
 40
0.0040320086750492
 40
0.0258306387580231
 40
0.04761168363189
 40
0.0694810861093654
 40
0.0915464590776432
 40
0.1138905318262014
 40
0.136561605274287
 40
0.159568635195774
 40
0.1828831062013124
 40
0.2064486495718692
 40
0.2301955285599165
 40
0.2540550865906517
 40
0.2779696694413736
 40
0.3018909184082968
 40
0.3257906598758763
 40
0.3496565068808767
 40
0.3734839004190295
 40
0.397273432138494
 40
0.4210290081679586
 40
0.4447565229114344
 40
0.4684629760835552
 40
0.4921561095723113
 40
0.515843945441655
 40
0.5395347769416824
 40
0.563234316423581
 40
0.5869509311004681
 40
0.6106930280791673
 40
0.6344689235542447
 40
0.6582864520236253
 40
0.6821525339012773
 40
0.7060723641110066
 40
0.7300480914633318
 40
0.7540768730146848
 40
0.7781480377196189
 40
0.8022354202401824
 40
0.8262893606552287
 40
0.8502483557429856
 40
0.874035364121067
 40
0.8975677487448706
 40
0.9207742265764476
 40
0.9436136811036857
 40
0.9660881293094875
 40
0.9882450474039003
 40
1.0
 40
1.0
 40
1.0
 40
1.0
 10
266.6657971401758
 20
222.2270002161715
 30
0.0
 10
266.5701561911389
 20
222.1779300380089
 30
0.0
 10
265.9574425280126
 20
221.8635671117201
 30
0.0
 10
264.9235462592309
 20
221.1163068748671
 30
0.0
 10
263.5846157964047
 20
219.9872621631287
 30
0.0
 10
262.374249272229
 20
218.6891455557998
 30
0.0
 10
261.2853048117677
 20
217.2467277263803
 30
0.0
 10
260.3248116223089
 20
215.6586662452962
 30
0.0
 10
259.4968042731159
 20
213.9308907543246
 30
0.0
 10
258.8068603774952
 20
212.0690182356487
 30
0.0
 10
258.2602412467108
 20
210.0814468102237
 30
0.0
 10
257.8614495698836
 20
207.9789679005507
 30
0.0
 10
257.6135682628446
 20
205.7744545178665
 30
0.0
 10
257.5179294502666
 20
203.4820322325958
 30
0.0
 10
257.5742152833807
 20
201.1164191437921
 30
0.0
 10
257.7806343217441
 20
198.6921685024408
 30
0.0
 10
258.1343315743429
 20
196.2232467840199
 30
0.0
 10
258.6317103057965
 20
193.7227888877619
 30
0.0
 10
259.268725549
 20
191.2034245508086
 30
0.0
 10
260.0408569489642
 20
188.6775267165206
 30
0.0
 10
260.9432360900182
 20
186.157329073926
 30
0.0
 10
261.9705907690416
 20
183.6549514662346
 30
0.0
 10
263.1172863757516
 20
181.1824213870569
 30
0.0
 10
264.3773179141329
 20
178.7516563713581
 30
0.0
 10
265.7443247646609
 20
176.3744268646192
 30
0.0
 10
267.2115734878125
 20
174.0624161539781
 30
0.0
 10
268.771998853043
 20
171.8270587466166
 30
0.0
 10
270.4182598541717
 20
169.67949813354
 30
0.0
 10
272.1428751882227
 20
167.6304916663361
 30
0.0
 10
273.9381675988786
 20
165.6904314610615
 30
0.0
 10
275.7963661781652
 20
163.8693983957545
 30
0.0
 10
277.7095607891328
 20
162.1771147782424
 30
0.0
 10
279.669773385164
 20
160.6230331196048
 30
0.0
 10
281.6688515849388
 20
159.2163567804569
 30
0.0
 10
283.6984011770594
 20
157.9661118095694
 30
0.0
 10
285.7494398240004
 20
156.881267277226
 30
0.0
 10
287.8118583594603
 20
155.9707229253872
 30
0.0
 10
289.8742147930621
 20
155.2429453580091
 30
0.0
 10
291.9235535088151
 20
154.7053742947474
 30
0.0
 10
293.9455958684127
 20
154.3637572904271
 30
0.0
 10
295.9250729838211
 20
154.2212524877984
 30
0.0
 10
297.8463747780551
 20
154.2782477681522
 30
0.0
 10
299.6955042627606
 20
154.5308411213005
 30
0.0
 10
301.4581424507301
 20
154.9765191774895
 30
0.0
 10
302.8750266643681
 20
155.501615624687
 30
0.0
 10
303.6856487160785
 20
155.9025945147336
 30
0.0
 10
303.9666365706906
 20
156.0415867834747
 30
0.0
  0
LINE
  5
168
330
1F
100
AcDbEntity
  8
0
  6
SLD-Durchgehend
 62
     7
370
    15
100
AcDbLine
 10
303.9666365707
 20
156.0415867835
 30
0.0
 11
304.5771481594
 21
156.385135254
 31
0.0
  0
LINE
  5
169
330
1F
100
AcDbEntity
  8
0
  6
SLD-Durchgehend
 62
     7
370
    15
100
AcDbLine
 10
284.262838695
 20
232.4031647537
 30
0.0
 11
266.5851689019
 21
222.1980632038
 31
0.0
  0
LINE
  5
16A
330
1F
100
AcDbEntity
  8
0
  6
SLD-Durchgehend
 62
     7
370
    15
100
AcDbLine
 10
304.5820806577
 20
156.3783485633
 30
0.0
 11
322.2597504508
 21
166.5834501131
 31
0.0
  0
LINE
  5
16B
330
1F
100
AcDbEntity
  8
0
  6
SLD-Durchgehend
 62
     7
370
    15
100
AcDbLine
 10
374.1841054192
 20
196.5587421943
 30
0.0
 11
383.6366188449
 21
202.0155620434
 31
0.0
  0
LINE
  5
16C
330
1F
100
AcDbEntity
  8
0
  6
SLD-Durchgehend
 62
     7
370
    15
100
AcDbLine
 10
345.6397070891
 20
267.8352766839
 30
0.0
 11
336.185441935
 21
262.3774455836
 31
0.0
  0
SPLINE
  5
16D
330
1F
100
AcDbEntity
  8
0
  6
SLD-Durchgehend
 62
     7
370
    15
100
AcDbSpline
210
0.0
220
0.0
230
1.0
 70
     8
 71
     3
 72
    51
 73
    47
 74
     0
 42
0.000000001
 43
0.00000001
 40
0.0
 40
0.0
 40
0.0
 40
0.0
 40
0.0197863366266646
 40
0.0414190746364294
 40
0.0631178568624293
 40
0.0849929867001196
 40
0.1071320036865322
 40
0.1295898078086863
 40
0.1523826539566012
 40
0.1754886539119863
 40
0.198855933976584
 40
0.2224165419139557
 40
0.2461011554804794
 40
0.2698499970885252
 40
0.2936137637419892
 40
0.317359559433009
 40
0.3410733015777043
 40
0.3647492221841552
 40
0.3883871344290167
 40
0.4119904200459829
 40
0.4355646271495918
 40
0.4591165731860939
 40
0.4826537925655279
 40
0.5061842624949252
 40
0.5297161658667575
 40
0.5532556822450535
 40
0.5768105814795796
 40
0.6003892544048415
 40
0.6239999921378069
 40
0.6476506750376823
 40
0.6713484154732958
 40
0.6950987659454904
 40
0.7189045504044617
 40
0.7427640536313705
 40
0.7666683739955493
 40
0.7905962896661913
 40
0.8145003316984148
 40
0.8383227727337874
 40
0.8619894286090781
 40
0.8854181488890975
 40
0.9085345605666661
 40
0.931291003500776
 40
0.9536809936027326
 40
0.9757436318176044
 40
0.997557560883587
 40
1.0
 40
1.0
 40
1.0
 40
1.0
 10
383.6878839007156
 20
202.0543722440021
 30
0.0
 10
384.1402788982243
 20
202.3328247853829
 30
0.0
 10
385.0872850328367
 20
202.9157142212481
 30
0.0
 10
386.3953042951162
 20
204.0073030277015
 30
0.0
 10
387.6320182507815
 20
205.2707775963088
 30
0.0
 10
388.7432722932442
 20
206.6876328635252
 30
0.0
 10
389.7281692921209
 20
208.2486308254491
 30
0.0
 10
390.5811813056566
 20
209.9508793867145
 30
0.0
 10
391.2972388039667
 20
211.7883319947861
 30
0.0
 10
391.8709062676775
 20
213.753264201149
 30
0.0
 10
392.2974863839785
 20
215.8352761755092
 30
0.0
 10
392.5736076247233
 20
218.0218523026273
 30
0.0
 10
392.6975958036496
 20
220.2990106946218
 30
0.0
 10
392.6694859293759
 20
222.6521209424925
 30
0.0
 10
392.4908157738767
 20
225.0665323478907
 30
0.0
 10
392.1642748730442
 20
227.5281707628294
 30
0.0
 10
391.6933332274097
 20
230.0237235633017
 30
0.0
 10
391.0819788692016
 20
232.5405127352269
 30
0.0
 10
390.3346309469537
 20
235.0661256393276
 30
0.0
 10
389.4560985223394
 20
237.5883028253393
 30
0.0
 10
388.4515868964306
 20
240.0949121628369
 30
0.0
 10
387.3266549917496
 20
242.5739021335476
 30
0.0
 10
386.0872448812657
 20
245.0133362632703
 30
0.0
 10
384.7396462568004
 20
247.401409997227
 30
0.0
 10
383.2905291522718
 20
249.726425075998
 30
0.0
 10
381.7469014886172
 20
251.9768962393511
 30
0.0
 10
380.1160499212726
 20
254.1416166736599
 30
0.0
 10
378.4054443581779
 20
256.2097666949687
 30
0.0
 10
376.622713654991
 20
258.1708707467865
 30
0.0
 10
374.7756330296457
 20
260.014806380713
 30
0.0
 10
372.872067176586
 20
261.7317704173665
 30
0.0
 10
370.9199948553385
 20
263.3122745366634
 30
0.0
 10
368.9275206713597
 20
264.7470700236073
 30
0.0
 10
366.9029864886022
 20
266.0270976211083
 30
0.0
 10
364.8552023264448
 20
267.143422357413
 30
0.0
 10
362.794062016537
 20
268.0870663879311
 30
0.0
 10
360.7307402097837
 20
268.8494665721879
 30
0.0
 10
358.6779437237685
 20
269.4229079089231
 30
0.0
 10
356.649664374732
 20
269.801350282022
 30
0.0
 10
354.6611510544301
 20
269.980905854954
 30
0.0
 10
352.7276514576214
 20
269.9612893691955
 30
0.0
 10
350.8649302997176
 20
269.7432753204562
 30
0.0
 10
349.0822198460266
 20
269.3383101869554
 30
0.0
 10
347.4038081391881
 20
268.7309126725719
 30
0.0
 10
346.2618877634936
 20
268.222762597743
 30
0.0
 10
345.7144303379961
 20
267.8705915555165
 30
0.0
 10
345.6593053736754
 20
267.8351305036915
 30
0.0
  0
LINE
  5
16E
330
1F
100
AcDbEntity
  8
0
  6
SLD-Durchgehend
 62
     7
370
    15
100
AcDbLine
 10
353.713049191
 20
168.1610332468
 30
0.0
 11
364.3196486961
 21
162.0379736855
 31
0.0
  0
LINE
  5
16F
330
1F
100
AcDbEntity
  8
0
  6
SLD-Durchgehend
 62
     7
370
    15
100
AcDbLine
 10
367.2194137769
 20
167.0610570911
 30
0.0
 11
356.6128142718
 21
173.1841166524
 31
0.0
  0
SPLINE
  5
170
330
1F
100
AcDbEntity
  8
0
  6
SLD-Durchgehend
 62
     7
370
    15
100
AcDbSpline
210
0.0
220
0.0
230
1.0
 70
     8
 71
     3
 72
    15
 73
    11
 74
     0
 42
0.000000001
 43
0.00000001
 40
0.0
 40
0.0
 40
0.0
 40
0.0
 40
0.0956720798317427
 40
0.2219676270877281
 40
0.3475669804351837
 40
0.4757678236982333
 40
0.6094317460222308
 40
0.7502122801579405
 40
0.8973937025430768
 40
1.0
 40
1.0
 40
1.0
 40
1.0
 10
349.5779942247615
 20
165.2593560606303
 30
0.0
 10
349.7782319331802
 20
165.1486220212658
 30
0.0
 10
350.242801001495
 20
164.8917093253276
 30
0.0
 10
351.0581717991703
 20
164.6999859517977
 30
0.0
 10
351.9625417585616
 20
164.6486684771401
 30
0.0
 10
352.8803594284996
 20
164.7744859506744
 30
0.0
 10
353.8047263208906
 20
165.0661460118333
 30
0.0
 10
354.7264554951489
 20
165.5340625506086
 30
0.0
 10
355.5404099950741
 20
166.0864746898133
 30
0.0
 10
356.0104471783172
 20
166.537884337875
 30
0.0
 10
356.2035262258786
 20
166.7233116785514
 30
0.0
  0
SPLINE
  5
171
330
1F
100
AcDbEntity
  8
0
  6
SLD-Durchgehend
 62
     7
370
    15
100
AcDbSpline
210
0.0
220
0.0
230
1.0
 70
     8
 71
     3
 72
    15
 73
    11
 74
     0
 42
0.000000001
 43
0.00000001
 40
0.0
 40
0.0
 40
0.0
 40
0.0
 40
0.0693393066027816
 40
0.2252438621285518
 40
0.3846461774977402
 40
0.5220262012801071
 40
0.6527093611176289
 40
0.778171589725237
 40
0.900529694781837
 40
1.0
 40
1.0
 40
1.0
 40
1.0
 10
359.1007341782874
 20
171.7478709148436
 30
0.0
 10
359.148527321938
 20
171.9240151339233
 30
0.0
 10
359.3037799886656
 20
172.4962072445887
 30
0.0
 10
359.3930140937509
 20
173.4700669830542
 30
0.0
 10
359.3525986450258
 20
174.5869587717516
 30
0.0
 10
359.1312634232388
 20
175.5964769500411
 30
0.0
 10
358.7726956534546
 20
176.4704138902095
 30
0.0
 10
358.2724352297931
 20
177.2254205788266
 30
0.0
 10
357.6950367545688
 20
177.8350984360965
 30
0.0
 10
357.2377345850922
 20
178.1083100218879
 30
0.0
 10
357.0326752497329
 20
178.2308211095982
 30
0.0
  0
LINE
  5
172
330
1F
100
AcDbEntity
  8
0
  6
SLD-Durchgehend
 62
     7
370
    15
100
AcDbLine
 10
348.5601372965
 20
165.8242674603
 30
0.0
 11
349.5464736504
 21
165.2548676032
 31
0.0
  0
LINE
  5
173
330
1F
100
AcDbEntity
  8
0
  6
SLD-Durchgehend
 62
     7
370
    15
100
AcDbLine
 10
357.0458639206
 20
178.2456005358
 30
0.0
 11
356.0595275667
 21
178.8150003929
 31
0.0
  0
LINE
  5
174
330
1F
100
AcDbEntity
  8
0
  6
SLD-Durchgehend
 62
     7
370
    15
100
AcDbLine
 10
339.9838054848
 20
171.8144805972
 30
0.0
 11
340.6672429752
 21
171.419940532
 31
0.0
  0
LINE
  5
175
330
1F
100
AcDbEntity
  8
0
  6
SLD-Durchgehend
 62
     7
370
    15
100
AcDbLine
 10
347.0965886405
 20
182.949993112
 30
0.0
 11
346.5832690016
 21
183.2463262319
 31
0.0
  0
LINE
  5
176
330
1F
100
AcDbEntity
  8
0
  6
SLD-Durchgehend
 62
     7
370
    15
100
AcDbLine
 10
266.5851689019
 20
222.1980632038
 30
0.0
 11
266.6457181181
 21
222.2327961838
 31
0.0
  0
LWPOLYLINE
  5
177
330
1F
100
AcDbEntity
  8
0
  6
SLD-Durchgehend
 62
     7
370
    15
100
AcDbPolyline
 90
       43
 70
   128
 43
0.0
 10
284.262838695
 20
232.4031647537
 10
284.7713562273
 20
232.6814171717
 10
286.3180691765
 20
233.3568989798
 10
287.9642104926
 20
233.8336560688
 10
289.7001219618
 20
234.1088913104
 10
291.5156159007
 20
234.180987765
 10
293.4000390347
 20
234.0495219959
 10
295.3423311087
 20
233.7152667362
 10
297.3310946931
 20
233.1801840515
 10
299.3546590619
 20
232.4474158397
 10
301.4011491761
 20
231.5212561761
 10
303.4585553447
 20
230.4071445585
 10
305.5148039154
 20
229.1116190151
 10
307.5578279452
 20
227.6422813909
 10
309.5756386107
 20
226.0077561231
 10
311.5563936353
 20
224.2176324881
 10
313.488470367
 20
222.2824132891
 10
315.3605286693
 20
220.2134633404
 10
317.1615846783
 20
218.0229151769
 10
318.8810694133
 20
215.7236306565
 10
320.5088900212
 20
213.3290986835
 10
322.0354949724
 20
210.8533747576
 10
323.4519254274
 20
208.3109828794
 10
324.7498679203
 20
205.7168471135
 10
325.9217083596
 20
203.0861889312
 10
326.9605675893
 20
200.4344473651
 10
327.8603527556
 20
197.7771793933
 10
328.6157770633
 20
195.1299854159
 10
329.2224150932
 20
192.5083951908
 10
329.6767001682
 20
189.9277967303
 10
329.9759691344
 20
187.4033321214
 10
330.1184676292
 20
184.9498153969
 10
330.1033553498
 20
182.5816469836
 10
329.9307244925
 20
180.312722068
 10
329.6015865816
 20
178.1563568305
 10
329.1178724696
 20
176.1252055548
 10
328.4824218004
 20
174.2311872422
 10
327.6989645702
 20
172.4854171683
 10
326.7720974195
 20
170.8981391997
 10
325.707259926
 20
169.4786702775
 10
324.510699043
 20
168.2353388172
 10
323.1894401232
 20
167.1754413588
 10
322.2597504508
 20
166.5834501131
  0
LWPOLYLINE
  5
178
330
1F
100
AcDbEntity
  8
0
  6
SLD-Durchgehend
 62
     7
370
    15
100
AcDbPolyline
 90
       23
 70
   128
 43
0.0
 10
364.3456809605
 20
162.0234752991
 10
364.8191059731
 20
161.9025773531
 10
365.3695293267
 20
161.996118915
 10
365.9523570213
 20
162.2965200729
 10
366.52037405
 20
162.7794466423
 10
367.0275626395
 20
163.4057733232
 10
367.4328322468
 20
164.1247590428
 10
367.703351794
 20
164.8781561849
 10
367.8172042613
 20
165.6049286322
 10
367.7651667328
 20
166.2461980306
 10
367.551454552
 20
166.7500125819
 10
367.1933815125
 20
167.0755554774
 10
366.7199564998
 20
167.1964534235
 10
366.1695331463
 20
167.1029118615
 10
365.5867054516
 20
166.8025107036
 10
365.018688423
 20
166.3195841342
 10
364.5114998335
 20
165.6932574534
 10
364.1062302262
 20
164.9742717337
 10
363.835710679
 20
164.2208745917
 10
363.7218588703
 20
163.4941025245
 10
363.7738957402
 20
162.852832746
 10
363.987607921
 20
162.3490181947
 10
364.3456809605
 20
162.0234752991
  0
LWPOLYLINE
  5
179
330
1F
100
AcDbEntity
  8
0
  6
SLD-Durchgehend
 62
     7
370
    15
100
AcDbPolyline
 90
        3
 70
   128
 43
0.0
 10
354.9614829664
 20
179.1539873634
 10
355.5382777348
 20
179.0419162966
 10
356.0595275667
 20
178.8150003929
  0
ARC
  5
17A
330
1F
100
AcDbEntity
  8
0
  6
SLD-Durchgehend
 62
     7
370
    15
100
AcDbCircle
 10
350.779471307
 20
168.896758028
 30
0.0
 40
3.790203390190077
100
AcDbArc
 50
174.5292939918
 51
234.1585107176
  0
ARC
  5
17B
330
1F
100
AcDbEntity
  8
0
  6
SLD-Durchgehend
 62
     7
370
    15
100
AcDbCircle
 10
358.5060211018
 20
168.7280159121
 30
0.0
 40
11.51170024210321
100
AcDbArc
 50
140.2279138518
 51
177.3607242481
  0
ARC
  5
17C
330
1F
100
AcDbEntity
  8
0
  6
SLD-Durchgehend
 62
     7
370
    15
100
AcDbCircle
 10
355.3709981733
 20
172.3205537031
 30
0.0
 40
6.84569341222842
100
AcDbArc
 50
93.4295298259
 51
146.5650936414
  0
SPLINE
  5
17D
330
1F
100
AcDbEntity
  8
0
  6
SLD-Durchgehend
 62
     7
370
    15
100
AcDbSpline
210
0.0
220
0.0
230
1.0
 70
     8
 71
     3
 72
    10
 73
     6
 74
     0
 42
0.000000001
 43
0.00000001
 40
0.0
 40
0.0
 40
0.0
 40
0.0
 40
0.4509677822318132
 40
0.9158046421537775
 40
1.0
 40
1.0
 40
1.0
 40
1.0
 10
351.2696515030664
 20
179.1273787167028
 30
0.0
 10
351.0948307722985
 20
178.6541406211232
 30
0.0
 10
350.7398128683816
 20
177.6931104503402
 30
0.0
 10
350.1244772623347
 20
176.6858636959592
 30
0.0
 10
349.7201821447742
 20
176.1713578600427
 30
0.0
 10
349.6581825553205
 20
176.0924572025457
 30
0.0
  0
SPLINE
  5
17E
330
1F
100
AcDbEntity
  8
0
  6
SLD-Durchgehend
 62
     7
370
    15
100
AcDbSpline
210
0.0
220
0.0
230
1.0
 70
     8
 71
     3
 72
    10
 73
     6
 74
     0
 42
0.000000001
 43
0.00000001
 40
0.0
 40
0.0
 40
0.0
 40
0.0
 40
0.3811192249765724
 40
0.7739411797293478
 40
1.0
 40
1.0
 40
1.0
 40
1.0
 10
349.6581825553205
 20
176.0924572025457
 30
0.0
 10
349.3543177042724
 20
175.7479718511098
 30
0.0
 10
348.7372574620006
 20
175.0484233061466
 30
0.0
 10
347.7749747467327
 20
174.2816848738792
 30
0.0
 10
347.1453328879754
 20
173.8634349865187
 30
0.0
 10
346.9153433624836
 20
173.7106606882519
 30
0.0
  0
LINE
  5
17F
330
1F
100
AcDbEntity
  8
0
  6
SLD-Durchgehend
 62
     7
370
    15
100
AcDbLine
 10
346.9153433625
 20
173.7106606883
 30
0.0
 11
341.1417387812
 21
177.0436916675
 31
0.0
  0
LINE
  5
180
330
1F
100
AcDbEntity
  8
0
  6
SLD-Durchgehend
 62
     7
370
    15
100
AcDbLine
 10
345.4960469218
 20
182.4604096959
 30
0.0
 11
341.1417387812
 21
177.0436916675
 31
0.0
  0
LINE
  5
181
330
1F
100
AcDbEntity
  8
0
  6
SLD-Durchgehend
 62
     7
370
    15
100
AcDbLine
 10
351.2696515031
 20
179.1273787167
 30
0.0
 11
345.4960469218
 21
182.4604096959
 31
0.0
  0
SPLINE
  5
182
330
1F
100
AcDbEntity
  8
0
  6
SLD-Durchgehend
 62
     7
370
    15
100
AcDbSpline
210
0.0
220
0.0
230
1.0
 70
     8
 71
     3
 72
    11
 73
     7
 74
     0
 42
0.000000001
 43
0.00000001
 40
0.0
 40
0.0
 40
0.0
 40
0.0
 40
0.1969723973352267
 40
0.5827156560265275
 40
0.9787856280532373
 40
0.9999999999999999
 40
0.9999999999999999
 40
0.9999999999999999
 40
0.9999999999999999
 10
346.4408475565028
 20
172.487695709901
 30
0.0
 10
346.5052715317041
 20
172.2685294344689
 30
0.0
 10
346.6958609720579
 20
171.6201562527687
 30
0.0
 10
346.9275145811013
 20
170.5429754142739
 30
0.0
 10
347.005270024541
 20
169.6963952156841
 30
0.0
 10
347.0064709657031
 20
169.2793082912007
 30
0.0
 10
347.0065320205039
 20
169.2581039558886
 30
0.0
  0
ARC
  5
183
330
1F
100
AcDbEntity
  8
0
  6
SLD-Durchgehend
 62
     7
370
    15
100
AcDbCircle
 10
359.1621327768
 20
168.2555208142
 30
0.0
 40
13.40680431737321
100
AcDbArc
 50
155.9901696244
 51
161.5985135998
  0
ARC
  5
184
330
1F
100
AcDbEntity
  8
0
  6
SLD-Durchgehend
 62
     7
370
    15
100
AcDbCircle
 10
355.6431390458
 20
172.6473172413
 30
0.0
 40
7.817837937149369
100
AcDbArc
 50
115.9786384712
 51
124.0159849961
  0
SPLINE
  5
185
330
1F
100
AcDbEntity
  8
0
  6
SLD-Durchgehend
 62
     7
370
    15
100
AcDbSpline
210
0.0
220
0.0
230
1.0
 70
     8
 71
     3
 72
    10
 73
     6
 74
     0
 42
0.000000001
 43
0.00000001
 40
0.0
 40
0.0
 40
0.0
 40
0.0
 40
0.3811191281250026
 40
0.7739411743423499
 40
1.0
 40
1.0
 40
1.0
 40
1.0
 10
354.9614829664094
 20
179.1539873633655
 30
0.0
 10
354.6576183383953
 20
179.1901363890541
 30
0.0
 10
354.0405583965252
 20
179.2635444584166
 30
0.0
 10
353.0782759248943
 20
179.464862479118
 30
0.0
 10
352.4486339642966
 20
179.6189405312265
 30
0.0
 10
352.2186444321169
 20
179.6752206734997
 30
0.0
  0
LINE
  5
186
330
1F
100
AcDbEntity
  8
0
  6
SLD-Durchgehend
 62
     7
370
    15
100
AcDbLine
 10
346.4408475565
 20
172.4876957099
 30
0.0
 11
340.6672429752
 21
175.8207266891
 31
0.0
  0
ARC
  5
187
330
1F
100
AcDbEntity
  8
0
  6
SLD-Durchgehend
 62
     7
370
    15
100
AcDbCircle
 10
353.3885281955
 20
171.5885517935
 30
0.0
 40
13.40680431735274
100
AcDbArc
 50
155.9901696244
 51
161.5985135998
  0
SPLINE
  5
188
330
1F
100
AcDbEntity
  8
0
  6
SLD-Durchgehend
 62
     7
370
    15
100
AcDbSpline
210
0.0
220
0.0
230
1.0
 70
     8
 71
     3
 72
    10
 73
     6
 74
     0
 42
0.000000001
 43
0.00000001
 40
0.0
 40
0.0
 40
0.0
 40
0.0
 40
0.3855501047414515
 40
0.7831835232019829
 40
0.9999999999999999
 40
0.9999999999999999
 40
0.9999999999999999
 40
0.9999999999999999
 10
347.0065320205039
 20
169.2581039558886
 30
0.0
 10
346.9877018514074
 20
168.883913078627
 30
0.0
 10
346.9494513672443
 20
168.1238040136839
 30
0.0
 10
346.7105187911004
 20
167.294427182929
 30
0.0
 10
346.5111850186505
 20
166.841469480251
 30
0.0
 10
346.4408475565028
 20
166.6816375818472
 30
0.0
  0
LINE
  5
189
330
1F
100
AcDbEntity
  8
0
  6
SLD-Durchgehend
 62
     7
370
    15
100
AcDbLine
 10
346.4408475565
 20
166.6816375818
 30
0.0
 11
340.6672429752
 21
170.0146685611
 31
0.0
  0
LINE
  5
18A
330
1F
100
AcDbEntity
  8
0
  6
SLD-Durchgehend
 62
     7
370
    15
100
AcDbLine
 10
340.6672429752
 20
175.8207266891
 30
0.0
 11
340.6672429752
 21
170.0146685611
 31
0.0
  0
ARC
  5
18B
330
1F
100
AcDbEntity
  8
0
  6
SLD-Durchgehend
 62
     7
370
    15
100
AcDbCircle
 10
349.8695344645
 20
175.9803482205
 30
0.0
 40
7.817837937151906
100
AcDbArc
 50
115.9786384712
 51
124.0159849961
  0
LINE
  5
18C
330
1F
100
AcDbEntity
  8
0
  6
SLD-Durchgehend
 62
     7
370
    15
100
AcDbLine
 10
352.2186444321
 20
179.6752206735
 30
0.0
 11
346.4450398508
 21
183.0082516527
 31
0.0
  0
SPLINE
  5
18D
330
1F
100
AcDbEntity
  8
0
  6
SLD-Durchgehend
 62
     7
370
    15
100
AcDbSpline
210
0.0
220
0.0
230
1.0
 70
     8
 71
     3
 72
    10
 73
     6
 74
     0
 42
0.000000001
 43
0.00000001
 40
0.0
 40
0.0
 40
0.0
 40
0.0
 40
0.4509679239894641
 40
0.9158044980148394
 40
1.0
 40
1.0
 40
1.0
 40
1.0
 10
356.5729525726998
 20
179.2858798134339
 30
0.0
 10
356.3981315037714
 20
179.2329995527521
 30
0.0
 10
356.0431130806073
 20
179.1256128008071
 30
0.0
 10
355.4277786283523
 20
179.1158668257237
 30
0.0
 10
355.0234827887404
 20
179.1489187625745
 30
0.0
 10
354.9614829664094
 20
179.1539873633655
 30
0.0
  0
LINE
  5
18E
330
1F
100
AcDbEntity
  8
0
  6
SLD-Durchgehend
 62
     7
370
    15
100
AcDbLine
 10
350.7993479914
 20
182.6189107926
 30
0.0
 11
346.4450398508
 21
183.0082516527
 31
0.0
  0
LINE
  5
18F
330
1F
100
AcDbEntity
  8
0
  6
SLD-Durchgehend
 62
     7
370
    15
100
AcDbLine
 10
356.5729525727
 20
179.2858798134
 30
0.0
 11
350.7993479914
 21
182.6189107926
 31
0.0
  0
SPLINE
  5
190
330
1F
100
AcDbEntity
  8
0
  6
SLD-Durchgehend
 62
     7
370
    15
100
AcDbSpline
210
0.0
220
0.0
230
1.0
 70
     8
 71
     3
 72
     9
 73
     5
 74
     0
 42
0.000000001
 43
0.00000001
 40
0.0
 40
0.0
 40
0.0
 40
0.0
 40
0.6189846120418064
 40
1.0
 40
1.0
 40
1.0
 40
1.0
 10
346.9153433624836
 20
166.0065134197225
 30
0.0
 10
347.3782695879737
 20
165.8926222605658
 30
0.0
 10
348.1261496103269
 20
165.7086255069453
 30
0.0
 10
348.7421791407654
 20
165.6181504086659
 30
0.0
 10
348.9768958712992
 20
165.5836780039945
 30
0.0
  0
ARC
  5
191
330
1F
100
AcDbEntity
  8
0
  6
SLD-Durchgehend
 62
     7
370
    15
100
AcDbCircle
 10
349.3972910003
 20
168.2552008199
 30
0.0
 40
3.349128110513226
100
AcDbArc
 50
208.0240833128
 51
222.1771207432
  0
ARC
  5
192
330
1F
100
AcDbEntity
  8
0
  6
SLD-Durchgehend
 62
     7
370
    15
100
AcDbCircle
 10
345.2029497848
 20
180.3609203687
 30
0.0
 40
3.198569701566514
100
AcDbArc
 50
64.4345000772
 51
126.875952265
  0
LWPOLYLINE
  5
193
330
1F
100
AcDbEntity
  8
0
  6
SLD-Durchgehend
 62
     7
370
    15
100
AcDbPolyline
 90
       14
 70
   128
 43
0.0
 10
339.9838054848
 20
171.8144805972
 10
339.5592668652
 20
172.1327285252
 10
339.10589585
 20
172.7165434467
 10
338.7947888877
 20
173.464288651
 10
338.6365406424
 20
174.3504998047
 10
338.6365406424
 20
175.3449997134
 10
338.7947888877
 20
176.413920402
 10
339.10589585
 20
177.5208620592
 10
339.5592668652
 20
178.6281283932
 10
340.139463016
 20
179.6980125396
 10
340.8267279671
 20
180.6940821949
 10
341.5976570466
 20
181.5824168266
 10
342.4259954022
 20
182.3327638821
 10
343.2835375725
 20
182.9195733141
  0
LINE
  5
194
330
1F
100
AcDbEntity
  8
0
  6
SLD-Durchgehend
 62
     7
370
    15
100
AcDbLine
 10
346.9153433625
 20
166.0065134197
 30
0.0
 11
341.1417387812
 21
169.3395443989
 31
0.0
  0
ARC
  5
195
330
1F
100
AcDbEntity
  8
0
  6
SLD-Durchgehend
 62
     7
370
    15
100
AcDbCircle
 10
343.6236864191
 20
171.5882317991
 30
0.0
 40
3.349128110510156
100
AcDbArc
 50
208.0240833128
 51
222.1771207432
  0
ARC
  5
196
330
1F
100
AcDbEntity
  8
0
  6
SLD-Durchgehend
 62
     7
370
    15
100
AcDbCircle
 10
354.0910051596
 20
177.0371879151
 30
0.0
 40
3.349130964139328
100
AcDbArc
 50
28.0241592403
 51
42.1771803532
  0
LINE
  5
197
330
1F
100
AcDbEntity
  8
0
  6
SLD-Durchgehend
 62
     7
370
    15
100
AcDbLine
 10
357.1840258998
 20
178.1317840705
 30
0.0
 11
357.0474490372
 21
178.6107564117
 31
0.0
  0
LINE
  5
198
330
1F
100
AcDbEntity
  8
0
  6
SLD-Durchgehend
 62
     7
370
    15
100
AcDbLine
 10
334.7777780245
 20
180.7175280125
 30
0.0
 11
338.3031590707
 21
178.6823688541
 31
0.0
  0
LINE
  5
199
330
1F
100
AcDbEntity
  8
0
  6
SLD-Durchgehend
 62
     7
370
    15
100
AcDbLine
 10
339.1320861651
 20
186.134246041
 30
0.0
 11
334.7777780245
 21
180.7175280125
 31
0.0
  0
LINE
  5
19A
330
1F
100
AcDbEntity
  8
0
  6
SLD-Durchgehend
 62
     7
370
    15
100
AcDbLine
 10
339.1320861651
 20
186.134246041
 30
0.0
 11
342.6574672113
 21
184.0990868826
 31
0.0
  0
LINE
  5
19B
330
1F
100
AcDbEntity
  8
0
  6
SLD-Durchgehend
 62
     7
370
    15
100
AcDbLine
 10
340.6318870377
 20
181.3032266905
 30
0.0
 11
342.6574672113
 21
184.0990868826
 31
0.0
  0
LINE
  5
19C
330
1F
100
AcDbEntity
  8
0
  6
SLD-Durchgehend
 62
     7
370
    15
100
AcDbLine
 10
338.3031590707
 20
178.6823688541
 30
0.0
 11
340.6318870377
 21
181.3032266905
 31
0.0
  0
ARC
  5
19D
330
1F
100
AcDbEntity
  8
0
  6
SLD-Durchgehend
 62
     7
370
    15
100
AcDbCircle
 10
341.2355937042
 20
173.9385940953
 30
0.0
 40
3.298264194408574
100
AcDbArc
 50
170.7481009171
 51
259.4532529667
  0
ARC
  5
19E
330
1F
100
AcDbEntity
  8
0
  6
SLD-Durchgehend
 62
     7
370
    15
100
AcDbCircle
 10
349.4797255841
 20
173.9387854001
 30
0.0
 40
11.51170024210375
100
AcDbArc
 50
140.2279138518
 51
177.3607242481
  0
ARC
  5
19F
330
1F
100
AcDbEntity
  8
0
  6
SLD-Durchgehend
 62
     7
370
    15
100
AcDbCircle
 10
346.3447026557
 20
177.5313231911
 30
0.0
 40
6.84569341222848
100
AcDbArc
 50
93.4295298259
 51
146.5650936414
  0
ARC
  5
1A0
330
1F
100
AcDbEntity
  8
0
  6
SLD-Durchgehend
 62
     7
370
    15
100
AcDbCircle
 10
345.6977600221
 20
181.7020298229
 30
0.0
 40
2.673291419061417
100
AcDbArc
 50
25.6591479911
 51
84.9045818744
  0
ARC
  5
1A1
330
1F
100
AcDbEntity
  8
0
  6
SLD-Durchgehend
 62
     7
370
    15
100
AcDbCircle
 10
350.549948485
 20
173.2272289801
 30
0.0
 40
13.40680431733055
100
AcDbArc
 50
155.9901696244
 51
161.5985135999
  0
LINE
  5
1A2
330
1F
100
AcDbEntity
  8
0
  6
SLD-Durchgehend
 62
     7
370
    15
100
AcDbLine
 10
337.9802365029
 20
174.4688734439
 30
0.0
 11
337.8286632647
 21
177.4594038758
 31
0.0
  0
LINE
  5
1A3
330
1F
100
AcDbEntity
  8
0
  6
SLD-Durchgehend
 62
     7
370
    15
100
AcDbLine
 10
343.6064601403
 20
184.6469288394
 30
0.0
 11
345.9351874488
 21
184.3647568514
 31
0.0
  0
ARC
  5
1A4
330
1F
100
AcDbEntity
  8
0
  6
SLD-Durchgehend
 62
     7
370
    15
100
AcDbCircle
 10
347.030954754
 20
177.6190254072
 30
0.0
 40
7.817837937149495
100
AcDbArc
 50
115.9786384712
 51
124.0159849961
  0
LINE
  5
1A5
330
1F
100
AcDbEntity
  8
0
  6
SLD-Durchgehend
 62
     7
370
    15
100
AcDbLine
 10
334.3032822185
 20
179.4945630342
 30
0.0
 11
337.8286632647
 21
177.4594038758
 31
0.0
  0
ARC
  5
1A6
330
1F
100
AcDbEntity
  8
0
  6
SLD-Durchgehend
 62
     7
370
    15
100
AcDbCircle
 10
347.0245674388
 20
175.2623881385
 30
0.0
 40
13.40680431736092
100
AcDbArc
 50
155.9901696244
 51
161.5985135998
  0
LINE
  5
1A7
330
1F
100
AcDbEntity
  8
0
  6
SLD-Durchgehend
 62
     7
370
    15
100
AcDbLine
 10
334.3032822185
 20
173.6885049061
 30
0.0
 11
337.8286632647
 21
171.6533457477
 31
0.0
  0
LINE
  5
1A8
330
1F
100
AcDbEntity
  8
0
  6
SLD-Durchgehend
 62
     7
370
    15
100
AcDbLine
 10
334.3032822185
 20
179.4945630342
 30
0.0
 11
334.3032822185
 21
173.6885049061
 31
0.0
  0
SPLINE
  5
1A9
330
1F
100
AcDbEntity
  8
0
  6
SLD-Durchgehend
 62
     7
370
    15
100
AcDbSpline
210
0.0
220
0.0
230
1.0
 70
     8
 71
     3
 72
     9
 73
     5
 74
     0
 42
0.000000001
 43
0.00000001
 40
0.0
 40
0.0
 40
0.0
 40
0.0
 40
0.2454704014700957
 40
1.0
 40
1.0
 40
1.0
 40
1.0
 10
337.82866326473
 20
171.6533457477038
 30
0.0
 10
337.851154328015
 20
171.8770287087481
 30
0.0
 10
337.9427786670406
 20
172.788270796204
 30
0.0
 10
337.9641278855754
 20
173.7461358838482
 30
0.0
 10
337.9802365028653
 20
174.4688734438742
 30
0.0
  0
LINE
  5
1AA
330
1F
100
AcDbEntity
  8
0
  6
SLD-Durchgehend
 62
     7
370
    15
100
AcDbLine
 10
340.0810790941
 20
186.6820879978
 30
0.0
 11
343.6064601403
 21
184.6469288394
 31
0.0
  0
ARC
  5
1AB
330
1F
100
AcDbEntity
  8
0
  6
SLD-Durchgehend
 62
     7
370
    15
100
AcDbCircle
 10
343.5055737078
 20
179.6541845656
 30
0.0
 40
7.817837937155823
100
AcDbArc
 50
115.9786384712
 51
124.0159849961
  0
LINE
  5
1AC
330
1F
100
AcDbEntity
  8
0
  6
SLD-Durchgehend
 62
     7
370
    15
100
AcDbLine
 10
344.4353872347
 20
186.2927471377
 30
0.0
 11
347.9607682809
 21
184.2575879793
 31
0.0
  0
LINE
  5
1AD
330
1F
100
AcDbEntity
  8
0
  6
SLD-Durchgehend
 62
     7
370
    15
100
AcDbLine
 10
345.9351874488
 20
184.3647568514
 30
0.0
 11
347.9607682809
 21
184.2575879793
 31
0.0
  0
LINE
  5
1AE
330
1F
100
AcDbEntity
  8
0
  6
SLD-Durchgehend
 62
     7
370
    15
100
AcDbLine
 10
344.4353872347
 20
186.2927471377
 30
0.0
 11
340.0810790941
 21
186.6820879978
 31
0.0
  0
ARC
  5
1AF
330
1F
100
AcDbEntity
  8
0
  6
SLD-Durchgehend
 62
     7
370
    15
100
AcDbCircle
 10
340.7851067086
 20
173.2269089857
 30
0.0
 40
3.349128110506092
100
AcDbArc
 50
208.0240833128
 51
222.1771207432
  0
LINE
  5
1B0
330
1F
100
AcDbEntity
  8
0
  6
SLD-Durchgehend
 62
     7
370
    15
100
AcDbLine
 10
340.6318870377
 20
170.6960511184
 30
0.0
 11
338.3031590707
 21
170.9782215856
 31
0.0
  0
LINE
  5
1B1
330
1F
100
AcDbEntity
  8
0
  6
SLD-Durchgehend
 62
     7
370
    15
100
AcDbLine
 10
334.7777780245
 20
173.013380744
 30
0.0
 11
338.3031590707
 21
170.9782215856
 31
0.0
  0
ARC
  5
1B2
330
1F
100
AcDbEntity
  8
0
  6
SLD-Durchgehend
 62
     7
370
    15
100
AcDbCircle
 10
337.2597256623
 20
175.2620681441
 30
0.0
 40
3.349128110512041
100
AcDbArc
 50
208.0240833128
 51
222.1771207432
  0
ARC
  5
1B3
330
1F
100
AcDbEntity
  8
0
  6
SLD-Durchgehend
 62
     7
370
    15
100
AcDbCircle
 10
345.4788208679
 20
182.0088960809
 30
0.0
 40
3.349130964137285
100
AcDbArc
 50
28.0241592403
 51
42.1771803532
  0
LINE
  5
1B4
330
1F
100
AcDbEntity
  8
0
  6
SLD-Durchgehend
 62
     7
370
    15
100
AcDbLine
 10
348.4352647455
 20
183.5824645776
 30
0.0
 11
348.4735604257
 21
182.8268714818
 31
0.0
  0
LINE
  5
1B5
330
1F
100
AcDbEntity
  8
0
  6
SLD-Durchgehend
 62
     7
370
    15
100
AcDbLine
 10
330.484905501
 20
215.2142724532
 30
0.0
 11
330.484905501
 21
152.3406302787
 31
0.0
  0
LINE
  5
1B6
330
1F
100
AcDbEntity
  8
0
  6
SLD-Durchgehend
 62
     7
370
    15
100
AcDbLine
 10
330.484905501
 20
152.3406302787
 30
0.0
 11
314.0363471289
 21
161.8361809085
 31
0.0
  0
LINE
  5
1B7
330
1F
100
AcDbEntity
  8
0
  6
SLD-Durchgehend
 62
     7
370
    15
100
AcDbLine
 10
276.0376836447
 20
227.6548832086
 30
0.0
 11
276.0376836447
 21
246.6459845881
 31
0.0
  0
LINE
  5
1B8
330
1F
100
AcDbEntity
  8
0
  6
SLD-Durchgehend
 62
     7
370
    15
100
AcDbLine
 10
276.0376836447
 20
246.6459845881
 30
0.0
 11
330.484905501
 21
215.2142724532
 31
0.0
  0
LINE
  5
1B9
330
1F
100
AcDbEntity
  8
0
  6
SLD-Durchgehend
 62
     7
370
    15
100
AcDbLine
 10
319.7368822458
 20
271.8729949685
 30
0.0
 11
374.1841041021
 21
240.4412828336
 31
0.0
  0
LINE
  5
1BA
330
1F
100
AcDbEntity
  8
0
  6
SLD-Durchgehend
 62
     7
370
    15
100
AcDbLine
 10
374.1841041021
 20
240.4412828336
 30
0.0
 11
330.484905501
 21
215.2142724532
 31
0.0
  0
LINE
  5
1BB
330
1F
100
AcDbEntity
  8
0
  6
SLD-Durchgehend
 62
     7
370
    15
100
AcDbLine
 10
319.7368822458
 20
271.8729949685
 30
0.0
 11
276.0376836447
 21
246.6459845881
 31
0.0
  0
LWPOLYLINE
  5
1BC
330
1F
100
AcDbEntity
  8
0
  6
SLD-Durchgehend
 62
     7
370
    15
100
AcDbPolyline
 90
       29
 70
   128
 43
0.0
 10
302.1299230107
 20
253.1364294566
 10
301.5016452083
 20
253.5912370565
 10
301.0644282898
 20
254.1153503442
 10
300.8401996471
 20
254.682486196
 10
300.8401980008
 20
255.2642086821
 10
301.0644282898
 20
255.8313449141
 10
301.5016457845
 20
256.3554570138
 10
302.1299243278
 20
256.8102650414
 10
302.9177603028
 20
257.1729625241
 10
303.8256474599
 20
257.4253628113
 10
304.8080626752
 20
257.5548082019
 10
305.8157447615
 20
257.5548072515
 10
306.7981593182
 20
257.4253628113
 10
307.7060485333
 20
257.1729628568
 10
308.4938837674
 20
256.8102658017
 10
309.1221628869
 20
256.3554574415
 10
309.5593784883
 20
255.8313449141
 10
309.7836084481
 20
255.264208302
 10
309.7836087774
 20
254.6824865762
 10
309.5593784883
 20
254.1153503442
 10
309.1221623107
 20
253.5912374842
 10
308.4938850845
 20
253.1364286963
 10
307.7060477924
 20
252.7737319739
 10
306.7981593182
 20
252.521332447
 10
305.815744103
 20
252.3918870564
 10
304.8080633337
 20
252.3918872465
 10
303.8256474599
 20
252.521332447
 10
302.9177595619
 20
252.7737316412
 10
302.1299230107
 20
253.1364294566
  0
LWPOLYLINE
  5
1BD
330
1F
100
AcDbEntity
  8
0
  6
SLD-Durchgehend
 62
     7
370
    15
100
AcDbPolyline
 90
       29
 70
   128
 43
0.0
 10
341.7279039794
 20
230.27700162
 10
341.0996248599
 20
230.7318099802
 10
340.6624092585
 20
231.2559225076
 10
340.4381792987
 20
231.8230591197
 10
340.4381789695
 20
232.4047808455
 10
340.6624092585
 20
232.9719170775
 10
341.0996254361
 20
233.4960299376
 10
341.7279026623
 20
233.9508387254
 10
342.5157399544
 20
234.3135354479
 10
343.4236284286
 20
234.5659349747
 10
344.4060436439
 20
234.6953803653
 10
345.4137244131
 20
234.6953801752
 10
346.3961402869
 20
234.5659349747
 10
347.3040281849
 20
234.3135357805
 10
348.0918647361
 20
233.9508379651
 10
348.7201425385
 20
233.4960303652
 10
349.157359457
 20
232.9719170775
 10
349.3815880997
 20
232.4047812257
 10
349.3815897461
 20
231.8230587396
 10
349.157359457
 20
231.2559225076
 10
348.7201419623
 20
230.7318104079
 10
348.091863419
 20
230.2770023804
 10
347.304027444
 20
229.9143048976
 10
346.3961402869
 20
229.6619046104
 10
345.4137250717
 20
229.5324592198
 10
344.4060429853
 20
229.5324601702
 10
343.4236284286
 20
229.6619046104
 10
342.5157392136
 20
229.9143045649
 10
341.7279039794
 20
230.27700162
  0
LINE
  5
1BE
330
1F
100
AcDbEntity
  8
0
  6
SLD-Durchgehend
 62
     7
370
    15
100
AcDbLine
 10
374.1841041021
 20
240.4412828336
 30
0.0
 11
374.1841041021
 21
177.5676406591
 31
0.0
  0
LINE
  5
1BF
330
1F
100
AcDbEntity
  8
0
  6
SLD-Durchgehend
 62
     7
370
    15
100
AcDbLine
 10
374.1841041021
 20
177.5676406591
 30
0.0
 11
361.6018045601
 21
170.3040337437
 31
0.0
  0
LINE
  5
1C0
330
1F
100
AcDbEntity
  8
0
  6
SLD-Durchgehend
 62
     7
370
    15
100
AcDbLine
 10
351.8640650947
 20
164.6825564069
 30
0.0
 11
330.484905501
 21
152.3406302787
 31
0.0
  0
LWPOLYLINE
  5
1C1
330
1F
100
AcDbEntity
  8
0
  6
SLD-Durchgehend
 62
     8
370
     0
100
AcDbPolyline
 90
       43
 70
   128
 43
0.0
 10
266.6457181181
 20
222.2327961838
 10
267.0936864342
 20
222.4763156219
 10
268.6403993834
 20
223.1517974299
 10
270.2865406995
 20
223.6285545189
 10
272.0224521688
 20
223.9037897605
 10
273.8379461076
 20
223.9758862152
 10
275.7223692416
 20
223.844420446
 10
277.6646613156
 20
223.5101651864
 10
279.6534249
 20
222.9750825016
 10
281.6769892688
 20
222.2423142899
 10
283.723479383
 20
221.3161546262
 10
285.7808855516
 20
220.2020430087
 10
287.8371341223
 20
218.9065174653
 10
289.8801581522
 20
217.437179841
 10
291.8979688177
 20
215.8026545732
 10
293.8787238422
 20
214.0125309383
 10
295.8108005739
 20
212.0773117393
 10
297.6828588762
 20
210.0083617905
 10
299.4839148852
 20
207.817813627
 10
301.2033996203
 20
205.5185291067
 10
302.8312202281
 20
203.1239971336
 10
304.3578251793
 20
200.6482732077
 10
305.7742556343
 20
198.1058813295
 10
307.0721981273
 20
195.5117455636
 10
308.2440385665
 20
192.8810873814
 10
309.2828977962
 20
190.2293458153
 10
310.1826829626
 20
187.5720778434
 10
310.9381072702
 20
184.924883866
 10
311.5447453001
 20
182.303293641
 10
311.9990303751
 20
179.7226951804
 10
312.2982993413
 20
177.1982305715
 10
312.4407978361
 20
174.7447138471
 10
312.4256855568
 20
172.3765454338
 10
312.2530546994
 20
170.1076205182
 10
311.9239167885
 20
167.9512552807
 10
311.4402026765
 20
165.9201040049
 10
310.8047520073
 20
164.0260856924
 10
310.0212947771
 20
162.2803156185
 10
309.0944276264
 20
160.6930376498
 10
308.029590133
 20
159.2735687277
 10
306.8330292499
 20
158.0302372673
 10
305.5117703301
 20
156.9703398089
 10
304.5814352841
 20
156.3779773968
  0
LWPOLYLINE
  5
1C2
330
1F
100
AcDbEntity
  8
0
  6
SLD-Durchgehend
 62
     8
370
     0
100
AcDbPolyline
 90
       79
 70
   128
 43
0.0
 10
299.298827
 20
157.9607646895
 10
300.6488748515
 20
158.7839510023
 10
301.8828753069
 20
159.794380527
 10
302.9928257333
 20
160.9854988434
 10
303.9715269222
 20
162.349580494
 10
304.8126318216
 20
163.8777814603
 10
305.5106863659
 20
165.560189357
 10
306.0611637201
 20
167.3858918776
 10
306.4604919389
 20
169.3430505609
 10
306.7060816251
 20
171.4189720878
 10
306.7963417354
 20
173.6001925035
 10
306.730684848
 20
175.8725667631
 10
306.5095376996
 20
178.2213571356
 10
306.1343359175
 20
180.6313303532
 10
305.6075108478
 20
183.0868574208
 10
304.9324790195
 20
185.5720134251
 10
304.1136197536
 20
188.0706807661
 10
303.156243553
 20
190.566654478
 10
302.0665578581
 20
193.0437479301
 10
300.8516301688
 20
195.4858954861
 10
299.5193406285
 20
197.8772597246
 10
298.0783293412
 20
200.2023295345
 10
296.5379410535
 20
202.4460296158
 10
294.9081672026
 20
204.5938056462
 10
293.1995761108
 20
206.631729979
 10
291.4232491065
 20
208.5465871893
 10
289.5907067675
 20
210.3259546758
 10
287.713833517
 20
211.9582948602
 10
285.8048018919
 20
213.4330217201
 10
283.8759919526
 20
214.7405701268
 10
281.9399134106
 20
215.872462093
 10
280.0091222402
 20
216.8213549115
 10
278.0961403358
 20
217.5810966619
 10
276.2133747584
 20
218.1467576196
 10
274.3730345938
 20
218.5146691264
 10
272.5870566198
 20
218.6824467302
 10
270.8670226586
 20
218.6490029151
 10
269.2240884543
 20
218.4145531786
 10
267.6689079398
 20
217.9806186855
 10
266.2115673829
 20
217.350014095
 10
264.8615195314
 20
216.5268277822
 10
263.627519076
 20
215.5163982575
 10
262.5175686496
 20
214.3252799411
 10
261.5388674607
 20
212.9611982905
 10
260.6977625613
 20
211.4329973243
 10
259.999708017
 20
209.7505894275
 10
259.4492306628
 20
207.9248869069
 10
259.049902444
 20
205.9677282236
 10
258.8043127577
 20
203.8918066968
 10
258.7140526475
 20
201.710586281
 10
258.7797095349
 20
199.4382120215
 10
259.0008566832
 20
197.089421649
 10
259.3760584654
 20
194.6794484313
 10
259.9028835351
 20
192.2239213638
 10
260.5779153634
 20
189.7387653595
 10
261.3967746293
 20
187.2400980184
 10
262.3541508299
 20
184.7441243065
 10
263.4438365247
 20
182.2670308544
 10
264.6587642141
 20
179.8248832985
 10
265.9910537544
 20
177.4335190599
 10
267.4320650417
 20
175.10844925
 10
268.9724533294
 20
172.8647491687
 10
270.6022271803
 20
170.7169731384
 10
272.3108182721
 20
168.6790488055
 10
274.0871452763
 20
166.7641915952
 10
275.9196876154
 20
164.9848241087
 10
277.7965608659
 20
163.3524839244
 10
279.705592491
 20
161.8777570644
 10
281.6344024303
 20
160.5702086577
 10
283.5704809723
 20
159.4383166916
 10
285.5012721427
 20
158.4894238731
 10
287.4142540471
 20
157.7296821226
 10
289.2970196245
 20
157.1640211649
 10
291.1373597891
 20
156.7961096582
 10
292.9233377631
 20
156.6283320544
 10
294.6433717243
 20
156.6617758694
 10
296.2863059286
 20
156.896225606
 10
297.8414864431
 20
157.330160099
 10
299.298827
 20
157.9607646895
  0
LWPOLYLINE
  5
1C3
330
1F
100
AcDbEntity
  8
0
  6
SLD-Durchgehend
 62
     8
370
     0
100
AcDbPolyline
 90
       43
 70
   128
 43
0.0
 10
383.6366188449
 20
202.0155620434
 10
384.2593385317
 20
202.3994245753
 10
385.6070432818
 20
203.4180519127
 10
386.8316950394
 20
204.6215757766
 10
387.9261038154
 20
206.0029361153
 10
388.8838514352
 20
207.5540250316
 10
389.6993165627
 20
209.2657392574
 10
390.3677128965
 20
211.1280341495
 10
390.8851155114
 20
213.129983009
 10
391.2484924683
 20
215.2598356392
 10
391.4557100832
 20
217.5050930619
 10
391.5055513658
 20
219.8525800482
 10
391.3977239222
 20
222.2885205004
 10
391.1328599553
 20
224.7986199616
 10
390.71251363
 20
227.3681477461
 10
390.1391558054
 20
229.9820231561
 10
389.4161450584
 20
232.6249098713
 10
388.5477303183
 20
235.2812948474
 10
387.5390008169
 20
237.935594396
 10
386.3958834549
 20
240.5722264281
 10
385.1250808982
 20
243.175721476
 10
383.7340544562
 20
245.7308017799
 10
382.2309648123
 20
248.2224702564
 10
380.6246338288
 20
250.6361070737
 10
378.9244879118
 20
252.9575464531
 10
377.1405040105
 20
255.1731686801
 10
375.2831523242
 20
257.2699666389
 10
373.3633311059
 20
259.2356382034
 10
371.3923067349
 20
261.0586482087
 10
369.3816465457
 20
262.728297647
 10
367.3431496801
 20
264.2347879205
 10
365.2887789284
 20
265.5692814816
 10
363.2305901003
 20
266.7239426062
 10
361.180661396
 20
267.6919964182
 10
359.1510229418
 20
268.4677665255
 10
357.1535846799
 20
269.0466953558
 10
355.2000696904
 20
269.4253856905
 10
353.3019409281
 20
269.6016155821
 10
351.4703376735
 20
269.5743537475
 10
349.7160080315
 20
269.3437589912
 10
348.0492476868
 20
268.911182101
 10
346.4798373426
 20
268.2791654616
 10
345.6397070891
 20
267.8352766839
  0
LWPOLYLINE
  5
1C4
330
1F
100
AcDbEntity
  8
0
  6
SLD-Durchgehend
 62
     8
370
     0
100
AcDbPolyline
 90
        9
 70
   128
 43
0.0
 10
355.1629323899
 20
174.6409638545
 10
355.9016863019
 20
174.974658656
 10
356.6058969203
 20
175.1071925909
 10
357.242636361
 20
175.0323694554
 10
357.7821311685
 20
174.7536867506
 10
358.1991551367
 20
174.2841762342
 10
358.4742087628
 20
173.6457908778
 10
358.5944306726
 20
172.8683815774
 10
358.5629469767
 20
172.0583288135
  0
LWPOLYLINE
  5
1C5
330
1F
100
AcDbEntity
  8
0
  6
SLD-Durchgehend
 62
     8
370
     0
100
AcDbPolyline
 90
       18
 70
   128
 43
0.0
 10
355.6631825545
 20
167.0352450276
 10
355.5344871526
 20
166.9419437439
 10
354.7913763102
 20
166.5129549859
 10
354.065639189
 20
166.2784659099
 10
353.3912105874
 20
166.2494399671
 10
352.7996255679
 20
166.4272354271
 10
352.3185469511
 20
166.8035385952
 10
351.9704666659
 20
167.360752531
 10
351.7716639328
 20
168.0728237693
 10
351.7314334488
 20
168.9064576121
 10
351.8516547
 20
169.8226717947
 10
352.1267076675
 20
170.778626928
 10
352.5437322943
 20
171.7296234495
 10
353.0832264432
 20
172.6311932204
 10
353.7199665425
 20
173.4411804459
 10
354.4241771609
 20
174.1217107844
 10
355.1629323899
 20
174.6409638545
 10
355.1629323899
 20
174.6409638545
  0
ARC
  5
1C6
330
1F
100
AcDbEntity
  8
0
  6
SLD-Durchgehend
 62
     8
370
     0
100
AcDbCircle
 10
355.4818432992
 20
174.9231882861
 30
0.0
 40
3.67235279099607
100
AcDbArc
 50
64.8317810805
 51
126.524745061
  0
LWPOLYLINE
  5
1C7
330
1F
100
AcDbEntity
  8
0
  6
SLD-Durchgehend
 62
     8
370
     0
100
AcDbPolyline
 90
       15
 70
   128
 43
0.0
 10
349.5596076621
 20
165.2473393091
 10
349.233604423
 20
165.4684988194
 10
348.7033759954
 20
166.0368432514
 10
348.3126957831
 20
166.7787859859
 10
348.0734373437
 20
167.6717842677
 10
347.9928683744
 20
168.6887040988
 10
348.0734373437
 20
169.7986468818
 10
348.3126957831
 20
170.9678870777
 10
348.7033759954
 20
172.1608995839
 10
349.233604423
 20
173.341433108
 10
349.8872730675
 20
174.4736196477
 10
350.6445189092
 20
175.5230573454
 10
351.4823337203
 20
176.4578598697
 10
352.3752608041
 20
177.2496232783
 10
353.2961694441
 20
177.874290592
  0
LINE
  5
1C8
330
1F
100
AcDbEntity
  8
0
  6
SLD-Durchgehend
 62
     7
370
    15
100
AcDbLine
 10
212.0690307488
 20
95.6508754174
 30
0.0
 11
197.069033878
 21
95.6508754174
 31
0.0
  0
LINE
  5
1C9
330
1F
100
AcDbEntity
  8
0
  6
SLD-Durchgehend
 62
     7
370
    15
100
AcDbLine
 10
197.069033878
 20
89.8508759569
 30
0.0
 11
212.0690307488
 21
89.8508759569
 31
0.0
  0
ARC
  5
1CA
330
1F
100
AcDbEntity
  8
0
  6
SLD-Durchgehend
 62
     7
370
    15
100
AcDbCircle
 10
214.709030421
 20
97.6108757095
 30
0.0
 40
2.640000000000811
100
AcDbArc
 50
90.0
 51
180.0
  0
ARC
  5
1CB
330
1F
100
AcDbEntity
  8
0
  6
SLD-Durchgehend
 62
     7
370
    15
100
AcDbCircle
 10
214.709030421
 20
87.8908757095
 30
0.0
 40
2.640000000000811
100
AcDbArc
 50
180.0
 51
270.0
  0
LINE
  5
1CC
330
1F
100
AcDbEntity
  8
0
  6
SLD-Durchgehend
 62
     7
370
    15
100
AcDbLine
 10
216.1039224734
 20
100.2508755195
 30
0.0
 11
214.7090322246
 21
100.2508755195
 31
0.0
  0
LINE
  5
1CD
330
1F
100
AcDbEntity
  8
0
  6
SLD-Durchgehend
 62
     7
370
    15
100
AcDbLine
 10
214.7090322246
 20
85.2508763204
 30
0.0
 11
216.1039224734
 21
85.2508763204
 31
0.0
  0
LINE
  5
1CE
330
1F
100
AcDbEntity
  8
0
  6
SLD-Durchgehend
 62
     7
370
    15
100
AcDbLine
 10
228.8690320124
 20
99.3508756514
 30
0.0
 11
225.069031017
 21
99.3508756514
 31
0.0
  0
LINE
  5
1CF
330
1F
100
AcDbEntity
  8
0
  6
SLD-Durchgehend
 62
     7
370
    15
100
AcDbLine
 10
225.069031017
 20
86.1508747916
 30
0.0
 11
228.8690320124
 21
86.1508747916
 31
0.0
  0
LINE
  5
1D0
330
1F
100
AcDbEntity
  8
0
  6
SLD-Durchgehend
 62
     7
370
    15
100
AcDbLine
 10
216.9039211144
 20
101.0508757903
 30
0.0
 11
216.1039224734
 21
100.2508755195
 31
0.0
  0
LINE
  5
1D1
330
1F
100
AcDbEntity
  8
0
  6
SLD-Durchgehend
 62
     7
370
    15
100
AcDbLine
 10
229.0833889415
 20
101.0508757903
 30
0.0
 11
228.8690320124
 21
100.2508755195
 31
0.0
  0
LINE
  5
1D2
330
1F
100
AcDbEntity
  8
0
  6
SLD-Durchgehend
 62
     7
370
    15
100
AcDbLine
 10
216.1039224734
 20
85.2508763204
 30
0.0
 11
216.9039211144
 21
84.4508758168
 31
0.0
  0
LINE
  5
1D3
330
1F
100
AcDbEntity
  8
0
  6
SLD-Durchgehend
 62
     7
370
    15
100
AcDbLine
 10
228.8690320124
 20
85.2508763204
 30
0.0
 11
229.0833889415
 21
84.4508758168
 31
0.0
  0
LINE
  5
1D4
330
1F
100
AcDbEntity
  8
0
  6
SLD-Durchgehend
 62
     7
370
    15
100
AcDbLine
 10
225.069031017
 20
101.0508757903
 30
0.0
 11
216.9039211144
 21
101.0508757903
 31
0.0
  0
LINE
  5
1D5
330
1F
100
AcDbEntity
  8
0
  6
SLD-Durchgehend
 62
     7
370
    15
100
AcDbLine
 10
234.0690306296
 20
101.0508757903
 30
0.0
 11
229.0833889415
 21
101.0508757903
 31
0.0
  0
LINE
  5
1D6
330
1F
100
AcDbEntity
  8
0
  6
SLD-Durchgehend
 62
     7
370
    15
100
AcDbLine
 10
216.9039211144
 20
84.4508758168
 30
0.0
 11
225.069031017
 21
84.4508758168
 31
0.0
  0
LINE
  5
1D7
330
1F
100
AcDbEntity
  8
0
  6
SLD-Durchgehend
 62
     7
370
    15
100
AcDbLine
 10
229.0833889415
 20
84.4508758168
 30
0.0
 11
234.0690306296
 21
84.4508758168
 31
0.0
  0
CIRCLE
  5
1D8
330
1F
100
AcDbEntity
  8
0
  6
SLD-Durchgehend
 62
     7
370
    15
100
AcDbCircle
 10
272.569030421
 20
104.2508757095
 30
0.0
 40
38.00000000000012
  0
LINE
  5
1D9
330
1F
100
AcDbEntity
  8
0
  6
SLD-Durchgehend
 62
     7
370
    15
100
AcDbLine
 10
197.069033878
 20
89.8508759569
 30
0.0
 11
197.069033878
 21
95.6508754174
 31
0.0
  0
LINE
  5
1DA
330
1F
100
AcDbEntity
  8
0
  6
SLD-Durchgehend
 62
     7
370
    15
100
AcDbLine
 10
212.0690307488
 20
97.6108759063
 30
0.0
 11
212.0690307488
 21
87.8908759336
 31
0.0
  0
LINE
  5
1DB
330
1F
100
AcDbEntity
  8
0
  6
SLD-Durchgehend
 62
     7
370
    15
100
AcDbLine
 10
216.1039224734
 20
99.2460660058
 30
0.0
 11
216.1039224734
 21
92.7508756871
 31
0.0
  0
LINE
  5
1DC
330
1F
100
AcDbEntity
  8
0
  6
SLD-Durchgehend
 62
     7
370
    15
100
AcDbLine
 10
216.1039224734
 20
92.7508756871
 30
0.0
 11
216.1039224734
 21
86.2556858341
 31
0.0
  0
LINE
  5
1DD
330
1F
100
AcDbEntity
  8
0
  6
SLD-Durchgehend
 62
     7
370
    15
100
AcDbLine
 10
216.1039224734
 20
86.2556858341
 30
0.0
 11
216.1039224734
 21
85.2508763204
 31
0.0
  0
LINE
  5
1DE
330
1F
100
AcDbEntity
  8
0
  6
SLD-Durchgehend
 62
     7
370
    15
100
AcDbLine
 10
216.1039224734
 20
100.2508755195
 30
0.0
 11
216.1039224734
 21
99.2460660058
 31
0.0
  0
SPLINE
  5
1DF
330
1F
100
AcDbEntity
  8
0
  6
SLD-Durchgehend
 62
     7
370
    15
100
AcDbSpline
210
0.0
220
0.0
230
1.0
 70
     8
 71
     3
 72
    10
 73
     6
 74
     0
 42
0.000000001
 43
0.00000001
 40
0.0
 40
0.0
 40
0.0
 40
0.0
 40
0.2168187752022221
 40
0.6031015889128853
 40
1.0
 40
1.0
 40
1.0
 40
1.0
 10
216.9039211143802
 20
89.19559832468117
 30
0.0
 10
216.8044495358842
 20
89.44107315919167
 30
0.0
 10
216.5277600887335
 20
90.12388424228783
 30
0.0
 10
216.1876073295621
 20
91.3074053999933
 30
0.0
 10
216.1320683589879
 20
92.2653906012247
 30
0.0
 10
216.1039224733661
 20
92.75087568714703
 30
0.0
  0
LINE
  5
1E0
330
1F
100
AcDbEntity
  8
0
  6
SLD-Durchgehend
 62
     7
370
    15
100
AcDbLine
 10
216.9039211144
 20
88.033323584
 30
0.0
 11
216.9039211144
 21
89.1955983247
 31
0.0
  0
SPLINE
  5
1E1
330
1F
100
AcDbEntity
  8
0
  6
SLD-Durchgehend
 62
     7
370
    15
100
AcDbSpline
210
0.0
220
0.0
230
1.0
 70
     8
 71
     3
 72
    10
 73
     6
 74
     0
 42
0.000000001
 43
0.00000001
 40
0.0
 40
0.0
 40
0.0
 40
0.0
 40
0.3811191958284463
 40
0.7739413096258344
 40
0.9999999999999999
 40
0.9999999999999999
 40
0.9999999999999999
 40
0.9999999999999999
 10
216.1039224733661
 20
86.25568583413447
 30
0.0
 10
216.1299500892879
 20
86.48876342636171
 30
0.0
 10
216.1828045436778
 20
86.96207565767217
 30
0.0
 10
216.5169553890967
 20
87.55485171759844
 30
0.0
 10
216.8003906655824
 20
87.90531119474598
 30
0.0
 10
216.9039211143802
 20
88.03332358404482
 30
0.0
  0
SPLINE
  5
1E2
330
1F
100
AcDbEntity
  8
0
  6
SLD-Durchgehend
 62
     7
370
    15
100
AcDbSpline
210
0.0
220
0.0
230
1.0
 70
     8
 71
     3
 72
    11
 73
     7
 74
     0
 42
0.000000001
 43
0.00000001
 40
0.0
 40
0.0
 40
0.0
 40
0.0
 40
0.0212141489631946
 40
0.4062130842726351
 40
0.8030296730351836
 40
0.9999999999999999
 40
0.9999999999999999
 40
0.9999999999999999
 40
0.9999999999999999
 10
216.1039224733661
 20
92.75087568714703
 30
0.0
 10
216.1040088464451
 20
92.7768010495519
 30
0.0
 10
216.1056627367285
 20
93.2732254614688
 30
0.0
 10
216.2127362460037
 20
94.25497057294676
 30
0.0
 10
216.53817446896
 20
95.4114703300325
 30
0.0
 10
216.8128170024666
 20
96.08329584604742
 30
0.0
 10
216.9039211143802
 20
96.30615304961289
 30
0.0
  0
LINE
  5
1E3
330
1F
100
AcDbEntity
  8
0
  6
SLD-Durchgehend
 62
     7
370
    15
100
AcDbLine
 10
216.9039211144
 20
96.3061530496
 30
0.0
 11
225.069031017
 21
96.3061530496
 31
0.0
  0
LINE
  5
1E4
330
1F
100
AcDbEntity
  8
0
  6
SLD-Durchgehend
 62
     7
370
    15
100
AcDbLine
 10
225.069031017
 20
89.1955983247
 30
0.0
 11
225.069031017
 21
96.3061530496
 31
0.0
  0
LINE
  5
1E5
330
1F
100
AcDbEntity
  8
0
  6
SLD-Durchgehend
 62
     7
370
    15
100
AcDbLine
 10
216.9039211144
 20
89.1955983247
 30
0.0
 11
225.069031017
 21
89.1955983247
 31
0.0
  0
LINE
  5
1E6
330
1F
100
AcDbEntity
  8
0
  6
SLD-Durchgehend
 62
     7
370
    15
100
AcDbLine
 10
225.069031017
 20
88.033323584
 30
0.0
 11
225.069031017
 21
89.1955983247
 31
0.0
  0
LINE
  5
1E7
330
1F
100
AcDbEntity
  8
0
  6
SLD-Durchgehend
 62
     7
370
    15
100
AcDbLine
 10
216.9039211144
 20
88.033323584
 30
0.0
 11
225.069031017
 21
88.033323584
 31
0.0
  0
SPLINE
  5
1E8
330
1F
100
AcDbEntity
  8
0
  6
SLD-Durchgehend
 62
     7
370
    15
100
AcDbSpline
210
0.0
220
0.0
230
1.0
 70
     8
 71
     3
 72
    10
 73
     6
 74
     0
 42
0.000000001
 43
0.00000001
 40
0.0
 40
0.0
 40
0.0
 40
0.0
 40
0.4509679239894641
 40
0.9158044980148394
 40
1.0
 40
1.0
 40
1.0
 40
1.0
 10
216.9039211143802
 20
97.46842732458795
 30
0.0
 10
216.7053229984585
 20
97.72582891921249
 30
0.0
 10
216.3020192640167
 20
98.24854799880461
 30
0.0
 10
216.11427961596
 20
98.8593579024256
 30
0.0
 10
216.1052995846135
 20
99.19464834174796
 30
0.0
 10
216.1039224733661
 20
99.24606600582088
 30
0.0
  0
LINE
  5
1E9
330
1F
100
AcDbEntity
  8
0
  6
SLD-Durchgehend
 62
     7
370
    15
100
AcDbLine
 10
216.9039211144
 20
96.3061530496
 30
0.0
 11
216.9039211144
 21
97.4684273246
 31
0.0
  0
LINE
  5
1EA
330
1F
100
AcDbEntity
  8
0
  6
SLD-Durchgehend
 62
     7
370
    15
100
AcDbLine
 10
216.9039211144
 20
97.4684273246
 30
0.0
 11
225.069031017
 21
97.4684273246
 31
0.0
  0
LINE
  5
1EB
330
1F
100
AcDbEntity
  8
0
  6
SLD-Durchgehend
 62
     7
370
    15
100
AcDbLine
 10
225.069031017
 20
96.3061530496
 30
0.0
 11
225.069031017
 21
97.4684273246
 31
0.0
  0
LINE
  5
1EC
330
1F
100
AcDbEntity
  8
0
  6
SLD-Durchgehend
 62
     7
370
    15
100
AcDbLine
 10
229.0833889415
 20
89.1955983247
 30
0.0
 11
229.0833889415
 21
88.033323584
 31
0.0
  0
LINE
  5
1ED
330
1F
100
AcDbEntity
  8
0
  6
SLD-Durchgehend
 62
     7
370
    15
100
AcDbLine
 10
229.0833889415
 20
88.033323584
 30
0.0
 11
228.8690320124
 21
86.2556858341
 31
0.0
  0
SPLINE
  5
1EE
330
1F
100
AcDbEntity
  8
0
  6
SLD-Durchgehend
 62
     7
370
    15
100
AcDbSpline
210
0.0
220
0.0
230
1.0
 70
     8
 71
     3
 72
     9
 73
     5
 74
     0
 42
0.000000001
 43
0.00000001
 40
0.0
 40
0.0
 40
0.0
 40
0.0
 40
0.7545295985299044
 40
1.0
 40
1.0
 40
1.0
 40
1.0
 10
228.8690320123981
 20
92.75087568714703
 30
0.0
 10
228.8918130374406
 20
91.85436585421466
 30
0.0
 10
228.9220053918385
 20
90.66619532428571
 30
0.0
 10
229.0515817747319
 20
89.48543904306962
 30
0.0
 10
229.0833889414619
 20
89.19559832468117
 30
0.0
  0
LINE
  5
1EF
330
1F
100
AcDbEntity
  8
0
  6
SLD-Durchgehend
 62
     7
370
    15
100
AcDbLine
 10
228.8690320124
 20
92.7508756871
 30
0.0
 11
228.8690320124
 21
86.2556858341
 31
0.0
  0
LINE
  5
1F0
330
1F
100
AcDbEntity
  8
0
  6
SLD-Durchgehend
 62
     7
370
    15
100
AcDbLine
 10
234.0690306296
 20
96.3061530496
 30
0.0
 11
229.0833889415
 21
96.3061530496
 31
0.0
  0
LINE
  5
1F1
330
1F
100
AcDbEntity
  8
0
  6
SLD-Durchgehend
 62
     7
370
    15
100
AcDbLine
 10
234.0690306296
 20
89.1955983247
 30
0.0
 11
229.0833889415
 21
89.1955983247
 31
0.0
  0
LINE
  5
1F2
330
1F
100
AcDbEntity
  8
0
  6
SLD-Durchgehend
 62
     7
370
    15
100
AcDbLine
 10
229.0833889415
 20
96.3061530496
 30
0.0
 11
228.8690320124
 21
92.7508756871
 31
0.0
  0
LINE
  5
1F3
330
1F
100
AcDbEntity
  8
0
  6
SLD-Durchgehend
 62
     7
370
    15
100
AcDbLine
 10
233.3756982257
 20
94.6575425918
 30
0.0
 11
229.5623644163
 21
94.6575425918
 31
0.0
  0
LINE
  5
1F4
330
1F
100
AcDbEntity
  8
0
  6
SLD-Durchgehend
 62
     7
370
    15
100
AcDbLine
 10
229.5623644163
 20
94.6575425918
 30
0.0
 11
229.5623644163
 21
90.8442087825
 31
0.0
  0
LINE
  5
1F5
330
1F
100
AcDbEntity
  8
0
  6
SLD-Durchgehend
 62
     7
370
    15
100
AcDbLine
 10
229.5623644163
 20
90.8442087825
 30
0.0
 11
233.3756982257
 21
90.8442087825
 31
0.0
  0
LINE
  5
1F6
330
1F
100
AcDbEntity
  8
0
  6
SLD-Durchgehend
 62
     7
370
    15
100
AcDbLine
 10
233.3756982257
 20
90.8442087825
 30
0.0
 11
233.3756982257
 21
94.6575425918
 31
0.0
  0
LINE
  5
1F7
330
1F
100
AcDbEntity
  8
0
  6
SLD-Durchgehend
 62
     7
370
    15
100
AcDbLine
 10
234.0690306296
 20
88.033323584
 30
0.0
 11
229.0833889415
 21
88.033323584
 31
0.0
  0
LINE
  5
1F8
330
1F
100
AcDbEntity
  8
0
  6
SLD-Durchgehend
 62
     7
370
    15
100
AcDbLine
 10
229.0833889415
 20
97.4684273246
 30
0.0
 11
229.0833889415
 21
96.3061530496
 31
0.0
  0
LINE
  5
1F9
330
1F
100
AcDbEntity
  8
0
  6
SLD-Durchgehend
 62
     7
370
    15
100
AcDbLine
 10
228.8690320124
 20
99.2460660058
 30
0.0
 11
229.0833889415
 21
97.4684273246
 31
0.0
  0
LINE
  5
1FA
330
1F
100
AcDbEntity
  8
0
  6
SLD-Durchgehend
 62
     7
370
    15
100
AcDbLine
 10
228.8690320124
 20
99.2460660058
 30
0.0
 11
228.8690320124
 21
92.7508756871
 31
0.0
  0
ARC
  5
1FB
330
1F
100
AcDbEntity
  8
0
  6
SLD-Durchgehend
 62
     7
370
    15
100
AcDbCircle
 10
232.4581291979
 20
92.4294980353
 30
0.0
 40
0.5777777777777074
100
AcDbArc
 50
359.4576031237
 51
324.5423968763
  0
LINE
  5
1FC
330
1F
100
AcDbEntity
  8
0
  6
SLD-Durchgehend
 62
     7
370
    15
100
AcDbLine
 10
233.0557032396
 20
92.0530813168
 30
0.0
 11
232.9287565221
 21
92.0943286623
 31
0.0
  0
ARC
  5
1FD
330
1F
100
AcDbEntity
  8
0
  6
SLD-Durchgehend
 62
     7
370
    15
100
AcDbCircle
 10
231.469030421
 20
92.7508757095
 30
0.0
 40
1.733333333333284
100
AcDbArc
 50
275.7391704773
 51
336.2608295227
  0
LINE
  5
1FE
330
1F
100
AcDbEntity
  8
0
  6
SLD-Durchgehend
 62
     7
370
    15
100
AcDbLine
 10
231.6423653533
 20
91.1597110684
 30
0.0
 11
231.6423653533
 21
91.0262311231
 31
0.0
  0
ARC
  5
1FF
330
1F
100
AcDbEntity
  8
0
  6
SLD-Durchgehend
 62
     7
370
    15
100
AcDbCircle
 10
231.469030421
 20
91.7108757095
 30
0.0
 40
0.5777777777777368
100
AcDbArc
 50
287.4576031237
 51
252.5423968763
  0
LINE
  5
200
330
1F
100
AcDbEntity
  8
0
  6
SLD-Durchgehend
 62
     7
370
    15
100
AcDbLine
 10
231.2956972887
 20
91.0262311231
 30
0.0
 11
231.2956972887
 21
91.1597110684
 31
0.0
  0
LINE
  5
201
330
1F
100
AcDbEntity
  8
0
  6
SLD-Durchgehend
 62
     7
370
    15
100
AcDbLine
 10
230.0093061199
 20
92.0943286623
 30
0.0
 11
229.8823594024
 21
92.0530813168
 31
0.0
  0
ARC
  5
202
330
1F
100
AcDbEntity
  8
0
  6
SLD-Durchgehend
 62
     7
370
    15
100
AcDbCircle
 10
230.479931644
 20
92.4294980353
 30
0.0
 40
0.5777777777776179
100
AcDbArc
 50
215.4576031237
 51
180.5423968762
  0
LINE
  5
203
330
1F
100
AcDbEntity
  8
0
  6
SLD-Durchgehend
 62
     7
370
    15
100
AcDbLine
 10
229.7752312292
 20
92.3827806841
 30
0.0
 11
229.9021779467
 21
92.4240289609
 31
0.0
  0
ARC
  5
204
330
1F
100
AcDbEntity
  8
0
  6
SLD-Durchgehend
 62
     7
370
    15
100
AcDbCircle
 10
231.469030421
 20
92.7508757095
 30
0.0
 40
1.733333333333082
100
AcDbArc
 50
131.7391704773
 51
192.2608295227
  0
LINE
  5
205
330
1F
100
AcDbEntity
  8
0
  6
SLD-Durchgehend
 62
     7
370
    15
100
AcDbLine
 10
230.3935362865
 20
93.9362723733
 30
0.0
 11
230.3150816728
 21
94.0442601572
 31
0.0
  0
ARC
  5
206
330
1F
100
AcDbEntity
  8
0
  6
SLD-Durchgehend
 62
     7
370
    15
100
AcDbCircle
 10
230.8577337586
 20
93.5922533836
 30
0.0
 40
0.5777777777777153
100
AcDbArc
 50
143.4576031238
 51
108.5423968764
  0
LINE
  5
207
330
1F
100
AcDbEntity
  8
0
  6
SLD-Durchgehend
 62
     7
370
    15
100
AcDbLine
 10
230.595540153
 20
94.2480251546
 30
0.0
 11
230.6739984919
 21
94.1400383021
 31
0.0
  0
ARC
  5
208
330
1F
100
AcDbEntity
  8
0
  6
SLD-Durchgehend
 62
     7
370
    15
100
AcDbCircle
 10
231.469030421
 20
92.7508757095
 30
0.0
 40
1.733333333332818
100
AcDbArc
 50
59.7391704773
 51
120.2608295227
  0
LINE
  5
209
330
1F
100
AcDbEntity
  8
0
  6
SLD-Durchgehend
 62
     7
370
    15
100
AcDbLine
 10
232.26406415
 20
94.1400383021
 30
0.0
 11
232.342522489
 21
94.2480251546
 31
0.0
  0
ARC
  5
20A
330
1F
100
AcDbEntity
  8
0
  6
SLD-Durchgehend
 62
     7
370
    15
100
AcDbCircle
 10
232.0803270833
 20
93.5922533836
 30
0.0
 40
0.5777777777778256
100
AcDbArc
 50
71.4576031238
 51
36.5423968763
  0
LINE
  5
20B
330
1F
100
AcDbEntity
  8
0
  6
SLD-Durchgehend
 62
     7
370
    15
100
AcDbLine
 10
232.6229809691
 20
94.0442601572
 30
0.0
 11
232.5445226302
 21
93.9362723733
 31
0.0
  0
ARC
  5
20C
330
1F
100
AcDbEntity
  8
0
  6
SLD-Durchgehend
 62
     7
370
    15
100
AcDbCircle
 10
231.469030421
 20
92.7508757095
 30
0.0
 40
1.733333333333205
100
AcDbArc
 50
347.7391704773
 51
48.2608295227
  0
LINE
  5
20D
330
1F
100
AcDbEntity
  8
0
  6
SLD-Durchgehend
 62
     7
370
    15
100
AcDbLine
 10
233.0358809699
 20
92.4240289609
 30
0.0
 11
233.1628276874
 21
92.3827806841
 31
0.0
  0
ARC
  5
20E
330
1F
100
AcDbEntity
  8
0
  6
SLD-Durchgehend
 62
     7
370
    15
100
AcDbCircle
 10
231.469030421
 20
92.7508757095
 30
0.0
 40
1.73333333333338
100
AcDbArc
 50
203.7391704773
 51
264.2608295227
  0
LINE
  5
20F
330
1F
100
AcDbEntity
  8
0
  6
SLD-Durchgehend
 62
     7
370
    15
100
AcDbLine
 10
234.0690306296
 20
97.4684273246
 30
0.0
 11
229.0833889415
 21
97.4684273246
 31
0.0
  0
SPLINE
  5
210
330
1F
100
AcDbEntity
  8
0
  6
SLD-Durchgehend
 62
     7
370
    15
100
AcDbSpline
210
0.0
220
0.0
230
1.0
 70
     8
 71
     3
 72
    10
 73
     6
 74
     0
 42
0.000000001
 43
0.00000001
 40
0.0
 40
0.0
 40
0.0
 40
0.0
 40
0.3811191281250026
 40
0.7739411743423499
 40
1.0
 40
1.0
 40
1.0
 40
1.0
 10
216.1039224733661
 20
99.24606600582088
 30
0.0
 10
216.129950077683
 20
99.47914338727279
 30
0.0
 10
216.182804508657
 20
99.95245519190719
 30
0.0
 10
216.5169555692455
 20
100.5452341732454
 30
0.0
 10
216.800390676695
 20
100.8956929548671
 30
0.0
 10
216.9039211143802
 20
101.0237051527151
 30
0.0
  0
LINE
  5
211
330
1F
100
AcDbEntity
  8
0
  6
SLD-Durchgehend
 62
     7
370
    15
100
AcDbLine
 10
216.9039211144
 20
101.0237051527
 30
0.0
 11
225.069031017
 21
101.0237051527
 31
0.0
  0
LINE
  5
212
330
1F
100
AcDbEntity
  8
0
  6
SLD-Durchgehend
 62
     7
370
    15
100
AcDbLine
 10
225.069031017
 20
97.4684273246
 30
0.0
 11
225.069031017
 21
101.0237051527
 31
0.0
  0
LINE
  5
213
330
1F
100
AcDbEntity
  8
0
  6
SLD-Durchgehend
 62
     7
370
    15
100
AcDbLine
 10
234.0690306296
 20
101.0237051527
 30
0.0
 11
229.0833889415
 21
101.0237051527
 31
0.0
  0
LINE
  5
214
330
1F
100
AcDbEntity
  8
0
  6
SLD-Durchgehend
 62
     7
370
    15
100
AcDbLine
 10
229.0833889415
 20
101.0237051527
 30
0.0
 11
228.8690320124
 21
99.2460660058
 31
0.0
  0
SPLINE
  5
215
330
1F
100
AcDbEntity
  8
0
  6
SLD-Durchgehend
 62
     7
370
    15
100
AcDbSpline
210
0.0
220
0.0
230
1.0
 70
     8
 71
     3
 72
    10
 73
     6
 74
     0
 42
0.000000001
 43
0.00000001
 40
0.0
 40
0.0
 40
0.0
 40
0.0
 40
0.4509680180578639
 40
0.9158044445612511
 40
1.0
 40
1.0
 40
1.0
 40
1.0
 10
216.9039211143802
 20
84.47804622157896
 30
0.0
 10
216.7053230106939
 20
84.73544752634447
 30
0.0
 10
216.3020194087655
 20
85.25816587775951
 30
0.0
 10
216.1142795942629
 20
85.86897681940621
 30
0.0
 10
216.1052995826912
 20
86.2042680129467
 30
0.0
 10
216.1039224733661
 20
86.25568583413447
 30
0.0
  0
LINE
  5
216
330
1F
100
AcDbEntity
  8
0
  6
SLD-Durchgehend
 62
     7
370
    15
100
AcDbLine
 10
216.9039211144
 20
84.4780462216
 30
0.0
 11
225.069031017
 21
84.4780462216
 31
0.0
  0
LINE
  5
217
330
1F
100
AcDbEntity
  8
0
  6
SLD-Durchgehend
 62
     7
370
    15
100
AcDbLine
 10
225.069031017
 20
84.4780462216
 30
0.0
 11
225.069031017
 21
88.033323584
 31
0.0
  0
LINE
  5
218
330
1F
100
AcDbEntity
  8
0
  6
SLD-Durchgehend
 62
     7
370
    15
100
AcDbLine
 10
234.0690306296
 20
84.4780462216
 30
0.0
 11
229.0833889415
 21
84.4780462216
 31
0.0
  0
LINE
  5
219
330
1F
100
AcDbEntity
  8
0
  6
SLD-Durchgehend
 62
     7
370
    15
100
AcDbLine
 10
228.8690320124
 20
86.2556858341
 30
0.0
 11
229.0833889415
 21
84.4780462216
 31
0.0
  0
LINE
  5
21A
330
1F
100
AcDbEntity
  8
0
  6
SLD-Durchgehend
 62
     7
370
    15
100
AcDbLine
 10
216.9039211144
 20
101.0237051527
 30
0.0
 11
216.9039211144
 21
101.0508757903
 31
0.0
  0
LINE
  5
21B
330
1F
100
AcDbEntity
  8
0
  6
SLD-Durchgehend
 62
     7
370
    15
100
AcDbLine
 10
229.0833889415
 20
101.0508757903
 30
0.0
 11
229.0833889415
 21
101.0237051527
 31
0.0
  0
LINE
  5
21C
330
1F
100
AcDbEntity
  8
0
  6
SLD-Durchgehend
 62
     7
370
    15
100
AcDbLine
 10
228.8690320124
 20
100.2508755195
 30
0.0
 11
228.8690320124
 21
99.2460660058
 31
0.0
  0
LINE
  5
21D
330
1F
100
AcDbEntity
  8
0
  6
SLD-Durchgehend
 62
     7
370
    15
100
AcDbLine
 10
216.9039211144
 20
84.4508758168
 30
0.0
 11
216.9039211144
 21
84.4780462216
 31
0.0
  0
LINE
  5
21E
330
1F
100
AcDbEntity
  8
0
  6
SLD-Durchgehend
 62
     7
370
    15
100
AcDbLine
 10
229.0833889415
 20
84.4780462216
 30
0.0
 11
229.0833889415
 21
84.4508758168
 31
0.0
  0
LINE
  5
21F
330
1F
100
AcDbEntity
  8
0
  6
SLD-Durchgehend
 62
     7
370
    15
100
AcDbLine
 10
228.8690320124
 20
86.2556858341
 30
0.0
 11
228.8690320124
 21
85.2508763204
 31
0.0
  0
LINE
  5
220
330
1F
100
AcDbEntity
  8
0
  6
SLD-Durchgehend
 62
     7
370
    15
100
AcDbLine
 10
225.069031017
 20
101.0237051527
 30
0.0
 11
225.069031017
 21
101.0508757903
 31
0.0
  0
LINE
  5
221
330
1F
100
AcDbEntity
  8
0
  6
SLD-Durchgehend
 62
     7
370
    15
100
AcDbLine
 10
225.069031017
 20
84.4508758168
 30
0.0
 11
225.069031017
 21
84.4780462216
 31
0.0
  0
LINE
  5
222
330
1F
100
AcDbEntity
  8
0
  6
SLD-Durchgehend
 62
     7
370
    15
100
AcDbLine
 10
311.0690302123
 20
142.7508755009
 30
0.0
 11
234.0690306296
 21
142.7508755009
 31
0.0
  0
LINE
  5
223
330
1F
100
AcDbEntity
  8
0
  6
SLD-Durchgehend
 62
     7
370
    15
100
AcDbLine
 10
311.0690302123
 20
65.7508759181
 30
0.0
 11
311.0690302123
 21
142.7508755009
 31
0.0
  0
LINE
  5
224
330
1F
100
AcDbEntity
  8
0
  6
SLD-Durchgehend
 62
     7
370
    15
100
AcDbLine
 10
234.0690306296
 20
65.7508759181
 30
0.0
 11
311.0690302123
 21
65.7508759181
 31
0.0
  0
LINE
  5
225
330
1F
100
AcDbEntity
  8
0
  6
SLD-Durchgehend
 62
     7
370
    15
100
AcDbLine
 10
234.0690306296
 20
142.7508755009
 30
0.0
 11
234.0690306296
 21
65.7508759181
 31
0.0
  0
CIRCLE
  5
226
330
1F
100
AcDbEntity
  8
0
  6
SLD-Durchgehend
 62
     8
370
     0
100
AcDbCircle
 10
272.569030421
 20
104.2508757095
 30
0.0
 40
34.00000000000009
  0
LINE
  5
227
330
1F
100
AcDbEntity
  8
0
  6
SLD-Durchgehend
 62
     8
370
     0
100
AcDbLine
 10
214.7090322246
 20
100.2508755195
 30
0.0
 11
214.7090322246
 21
85.2508763204
 31
0.0
  0
DIMENSION
  5
228
330
1F
100
AcDbEntity
  8
0
  6
SLD-Durchgehend
 62
     7
370
     0
100
AcDbDimension
  2
_D_4
 10
309.2742118199
 20
114.0859994234
 30
0.0
 11
289.4537113349
 21
108.7751196454
 31
0.0
 70
   163
  1
<>
 71
     1
 42
-1.0
  3
SLDDIMSTYLE1
100
AcDbDiametricDimension
 15
235.863849022
 25
94.4157519956
 35
0.0
 40
0.0
  0
DIMENSION
  5
232
330
1F
100
AcDbEntity
  8
0
  6
SLD-Durchgehend
 62
     7
370
     0
100
AcDbDimension
  2
_D_5
 10
311.069030421
 20
57.3164214706
 30
0.0
 11
273.8989098702
 21
57.3164214706
 31
0.0
 70
   160
  1
<>
 71
     2
 42
-1.0
  3
SLDDIMSTYLE0
100
AcDbAlignedDimension
 13
234.069030421
 23
65.7508757095
 33
0.0
 14
311.069030421
 24
65.7508757095
 34
0.0
 50
0.0
100
AcDbRotatedDimension
  0
DIMENSION
  5
23C
330
1F
100
AcDbEntity
  8
0
  6
SLD-Durchgehend
 62
     7
370
     0
100
AcDbDimension
  2
_D_6
 10
325.0778430729
 20
142.7508757095
 30
0.0
 11
325.0778430729
 21
103.9805301915
 31
0.0
 70
   160
  1
<>
 71
     2
 42
-1.0
  3
SLDDIMSTYLE0
100
AcDbAlignedDimension
 13
311.069030421
 23
65.7508757095
 33
0.0
 14
311.069030421
 24
142.7508757095
 34
0.0
 50
90.0
100
AcDbRotatedDimension
  0
DIMENSION
  5
246
330
1F
100
AcDbEntity
  8
0
  6
SLD-Durchgehend
 62
     7
370
     0
100
AcDbDimension
  2
_D_7
 10
187.069030421
 20
65.7508757095
 30
0.0
 11
187.069030421
 21
78.3704173079
 31
0.0
 70
   160
  1
<>
 71
     2
 42
-1.0
  3
SLDDIMSTYLE0
100
AcDbAlignedDimension
 13
176.069030421
 23
92.7508757095
 33
0.0
 14
234.069030421
 24
65.7508757095
 34
0.0
 50
90.0
100
AcDbRotatedDimension
  0
INSERT
  5
25A
330
1F
100
AcDbEntity
  8
0
  6
Continuous
 62
     7
370
     0
100
AcDbBlockReference
  2
SW_CENTERMARKSYMBOL_0
 10
272.569030421
 20
104.2508757095
 30
0.0
  0
LINE
  5
25B
330
1F
100
AcDbEntity
  8
0
  6
SLD-Punktstrich
 62
     7
370
     0
100
AcDbLine
 10
186.0021968631
 20
92.7508757095
 30
0.0
 11
249.069030421
 21
92.7508757095
 31
0.0
  0
LINE
  5
25C
330
1F
100
AcDbEntity
  8
0
  6
SLD-Durchgehend
 62
     7
370
    15
100
AcDbLine
 10
136.9078210136
 20
192.5592447409
 30
0.0
 11
161.9078213862
 21
192.5592447409
 31
0.0
  0
LINE
  5
25D
330
1F
100
AcDbEntity
  8
0
  6
SLD-Durchgehend
 62
     7
370
    15
100
AcDbLine
 10
161.9078213862
 20
268.5592422971
 30
0.0
 11
136.9078210136
 21
268.5592422971
 31
0.0
  0
ARC
  5
25E
330
1F
100
AcDbEntity
  8
0
  6
SLD-Durchgehend
 62
     7
370
    15
100
AcDbCircle
 10
161.9078213504
 20
196.559243519
 30
0.0
 40
4.000000000000085
100
AcDbArc
 50
270.0
 51
360.0
  0
ARC
  5
25F
330
1F
100
AcDbEntity
  8
0
  6
SLD-Durchgehend
 62
     7
370
    15
100
AcDbCircle
 10
161.9078213504
 20
264.559243519
 30
0.0
 40
4.000000000000114
100
AcDbArc
 50
0.0
 51
90.0
  0
LINE
  5
260
330
1F
100
AcDbEntity
  8
0
  6
SLD-Durchgehend
 62
     7
370
    15
100
AcDbLine
 10
75.1078216872
 20
268.5592422971
 30
0.0
 11
50.1078213146
 21
268.5592422971
 31
0.0
  0
LINE
  5
261
330
1F
100
AcDbEntity
  8
0
  6
SLD-Durchgehend
 62
     7
370
    15
100
AcDbLine
 10
50.1078213146
 20
192.5592447409
 30
0.0
 11
75.1078216872
 21
192.5592447409
 31
0.0
  0
ARC
  5
262
330
1F
100
AcDbEntity
  8
0
  6
SLD-Durchgehend
 62
     7
370
    15
100
AcDbCircle
 10
50.1078213504
 20
264.559243519
 30
0.0
 40
4.000000000000114
100
AcDbArc
 50
90.0
 51
180.0
  0
ARC
  5
263
330
1F
100
AcDbEntity
  8
0
  6
SLD-Durchgehend
 62
     7
370
    15
100
AcDbCircle
 10
50.1078213504
 20
196.559243519
 30
0.0
 40
4.000000000000142
100
AcDbArc
 50
180.0
 51
270.0
  0
LINE
  5
264
330
1F
100
AcDbEntity
  8
0
  6
SLD-Durchgehend
 62
     7
370
    15
100
AcDbLine
 10
121.1078217766
 20
170.0592438469
 30
0.0
 11
121.1078217766
 21
155.0592469761
 31
0.0
  0
LINE
  5
265
330
1F
100
AcDbEntity
  8
0
  6
SLD-Durchgehend
 62
     7
370
    15
100
AcDbLine
 10
126.9078212372
 20
155.0592469761
 30
0.0
 11
126.9078212372
 21
170.0592438469
 31
0.0
  0
ARC
  5
266
330
1F
100
AcDbEntity
  8
0
  6
SLD-Durchgehend
 62
     7
370
    15
100
AcDbCircle
 10
119.1478213504
 20
172.699243519
 30
0.0
 40
2.640000000000811
100
AcDbArc
 50
180.0
 51
270.0
  0
ARC
  5
267
330
1F
100
AcDbEntity
  8
0
  6
SLD-Durchgehend
 62
     7
370
    15
100
AcDbCircle
 10
128.8678213504
 20
172.699243519
 30
0.0
 40
2.640000000000811
100
AcDbArc
 50
270.0
 51
360.0
  0
LINE
  5
268
330
1F
100
AcDbEntity
  8
0
  6
SLD-Durchgehend
 62
     7
370
    15
100
AcDbLine
 10
116.5078212088
 20
174.0941355715
 30
0.0
 11
116.5078212088
 21
172.6992453227
 31
0.0
  0
LINE
  5
269
330
1F
100
AcDbEntity
  8
0
  6
SLD-Durchgehend
 62
     7
370
    15
100
AcDbLine
 10
131.5078208736
 20
172.6992453227
 30
0.0
 11
131.5078208736
 21
174.0941355715
 31
0.0
  0
LINE
  5
26A
330
1F
100
AcDbEntity
  8
0
  6
SLD-Durchgehend
 62
     7
370
    15
100
AcDbLine
 10
117.4078215426
 20
186.8592451105
 30
0.0
 11
117.4078215426
 21
183.0592441151
 31
0.0
  0
LINE
  5
26B
330
1F
100
AcDbEntity
  8
0
  6
SLD-Durchgehend
 62
     7
370
    15
100
AcDbLine
 10
130.6078205398
 20
183.0592441151
 30
0.0
 11
130.6078205398
 21
186.8592451105
 31
0.0
  0
LINE
  5
26C
330
1F
100
AcDbEntity
  8
0
  6
SLD-Durchgehend
 62
     7
370
    15
100
AcDbLine
 10
165.9078220418
 20
207.1630178729
 30
0.0
 11
165.9078220418
 21
196.5592416713
 31
0.0
  0
LINE
  5
26D
330
1F
100
AcDbEntity
  8
0
  6
SLD-Durchgehend
 62
     7
370
    15
100
AcDbLine
 10
165.9078220418
 20
264.5592453668
 30
0.0
 11
165.9078220418
 21
207.1630178729
 31
0.0
  0
LINE
  5
26E
330
1F
100
AcDbEntity
  8
0
  6
SLD-Durchgehend
 62
     7
370
    15
100
AcDbLine
 10
46.107820659
 20
264.0842820296
 30
0.0
 11
46.107820659
 21
264.5592453668
 31
0.0
  0
LINE
  5
26F
330
1F
100
AcDbEntity
  8
0
  6
SLD-Durchgehend
 62
     7
370
    15
100
AcDbLine
 10
46.107820659
 20
196.5592416713
 30
0.0
 11
46.107820659
 21
264.0842820296
 31
0.0
  0
LINE
  5
270
330
1F
100
AcDbEntity
  8
0
  6
SLD-Durchgehend
 62
     7
370
    15
100
AcDbLine
 10
126.0214498779
 20
155.0592469761
 30
0.0
 11
121.1078217766
 21
155.0592469761
 31
0.0
  0
LINE
  5
271
330
1F
100
AcDbEntity
  8
0
  6
SLD-Durchgehend
 62
     7
370
    15
100
AcDbLine
 10
126.9078212372
 20
155.0592469761
 30
0.0
 11
126.0214498779
 21
155.0592469761
 31
0.0
  0
SPLINE
  5
272
330
1F
100
AcDbEntity
  8
0
  6
SLD-Durchgehend
 62
     7
370
    15
100
AcDbSpline
210
0.0
220
0.0
230
1.0
 70
     8
 71
     3
 72
    10
 73
     6
 74
     0
 42
0.000000001
 43
0.00000001
 40
0.0
 40
0.0
 40
0.0
 40
0.0
 40
0.4509680180578639
 40
0.9158044445612511
 40
1.0
 40
1.0
 40
1.0
 40
1.0
 10
123.336782171437
 20
174.8941342124675
 30
0.0
 10
122.8909493369021
 20
174.6955361087814
 30
0.0
 10
121.985573179283
 20
174.2922325068529
 30
0.0
 10
120.9276196746001
 20
174.1044926923503
 30
0.0
 10
120.3468794577973
 20
174.0955126807786
 30
0.0
 10
120.257821357855
 20
174.0941355714534
 30
0.0
  0
LINE
  5
273
330
1F
100
AcDbEntity
  8
0
  6
SLD-Durchgehend
 62
     7
370
    15
100
AcDbLine
 10
124.6788608423
 20
174.8941342125
 30
0.0
 11
123.3367821714
 21
174.8941342125
 31
0.0
  0
SPLINE
  5
274
330
1F
100
AcDbEntity
  8
0
  6
SLD-Durchgehend
 62
     7
370
    15
100
AcDbSpline
210
0.0
220
0.0
230
1.0
 70
     8
 71
     3
 72
    10
 73
     6
 74
     0
 42
0.000000001
 43
0.00000001
 40
0.0
 40
0.0
 40
0.0
 40
0.0
 40
0.3811189695780112
 40
0.7739411088510189
 40
1.0
 40
1.0
 40
1.0
 40
1.0
 10
127.7578207245557
 20
174.0941355714534
 30
0.0
 10
127.3541191777707
 20
174.1201631983215
 30
0.0
 10
126.5343194624495
 20
174.1730176926055
 30
0.0
 10
125.5075977783065
 20
174.5071686789975
 30
0.0
 10
124.9005847164155
 20
174.7906037753609
 30
0.0
 10
124.6788608422963
 20
174.8941342124675
 30
0.0
  0
LINE
  5
275
330
1F
100
AcDbEntity
  8
0
  6
SLD-Durchgehend
 62
     7
370
    15
100
AcDbLine
 10
120.2578213579
 20
174.0941355715
 30
0.0
 11
127.7578207246
 21
174.0941355715
 31
0.0
  0
LINE
  5
276
330
1F
100
AcDbEntity
  8
0
  6
SLD-Durchgehend
 62
     7
370
    15
100
AcDbLine
 10
123.3367821714
 20
174.8941342125
 30
0.0
 11
123.3367821714
 21
183.0592441151
 31
0.0
  0
LINE
  5
277
330
1F
100
AcDbEntity
  8
0
  6
SLD-Durchgehend
 62
     7
370
    15
100
AcDbLine
 10
124.6788608423
 20
183.0592441151
 30
0.0
 11
123.3367821714
 21
183.0592441151
 31
0.0
  0
LINE
  5
278
330
1F
100
AcDbEntity
  8
0
  6
SLD-Durchgehend
 62
     7
370
    15
100
AcDbLine
 10
124.6788608423
 20
174.8941342125
 30
0.0
 11
124.6788608423
 21
183.0592441151
 31
0.0
  0
LINE
  5
279
330
1F
100
AcDbEntity
  8
0
  6
SLD-Durchgehend
 62
     7
370
    15
100
AcDbLine
 10
123.3367821714
 20
187.0736020395
 30
0.0
 11
124.6788608423
 21
187.0736020395
 31
0.0
  0
LINE
  5
27A
330
1F
100
AcDbEntity
  8
0
  6
SLD-Durchgehend
 62
     7
370
    15
100
AcDbLine
 10
124.6788608423
 20
187.0736020395
 30
0.0
 11
127.7578207246
 21
186.8592451105
 31
0.0
  0
LINE
  5
27B
330
1F
100
AcDbEntity
  8
0
  6
SLD-Durchgehend
 62
     7
370
    15
100
AcDbLine
 10
120.2578213579
 20
186.8592451105
 30
0.0
 11
127.7578207246
 21
186.8592451105
 31
0.0
  0
LINE
  5
27C
330
1F
100
AcDbEntity
  8
0
  6
SLD-Durchgehend
 62
     7
370
    15
100
AcDbLine
 10
120.2578213579
 20
186.8592451105
 30
0.0
 11
123.3367821714
 21
187.0736020395
 31
0.0
  0
LINE
  5
27D
330
1F
100
AcDbEntity
  8
0
  6
SLD-Durchgehend
 62
     7
370
    15
100
AcDbLine
 10
123.3367821714
 20
192.0592437277
 30
0.0
 11
123.3367821714
 21
187.0736020395
 31
0.0
  0
LINE
  5
27E
330
1F
100
AcDbEntity
  8
0
  6
SLD-Durchgehend
 62
     7
370
    15
100
AcDbLine
 10
124.6788608423
 20
192.0592437277
 30
0.0
 11
124.6788608423
 21
187.0736020395
 31
0.0
  0
SPLINE
  5
27F
330
1F
100
AcDbEntity
  8
0
  6
SLD-Durchgehend
 62
     7
370
    15
100
AcDbSpline
210
0.0
220
0.0
230
1.0
 70
     8
 71
     3
 72
    10
 73
     6
 74
     0
 42
0.000000001
 43
0.00000001
 40
0.0
 40
0.0
 40
0.0
 40
0.0
 40
0.4509680334071198
 40
0.9158044757317915
 40
1.0
 40
1.0
 40
1.0
 40
1.0
 10
130.8367824694602
 20
174.8941342124675
 30
0.0
 10
130.3909494182384
 20
174.6955361086196
 30
0.0
 10
129.4855728205816
 20
174.2922325063629
 30
0.0
 10
128.4276217987016
 20
174.104492700076
 30
0.0
 10
127.8468791647008
 20
174.0955126813972
 30
0.0
 10
127.7578207245557
 20
174.0941355714534
 30
0.0
  0
LINE
  5
280
330
1F
100
AcDbEntity
  8
0
  6
SLD-Durchgehend
 62
     7
370
    15
100
AcDbLine
 10
130.8367824695
 20
174.8941342125
 30
0.0
 11
130.8367824695
 21
183.0592441151
 31
0.0
  0
LINE
  5
281
330
1F
100
AcDbEntity
  8
0
  6
SLD-Durchgehend
 62
     7
370
    15
100
AcDbLine
 10
130.8367824695
 20
183.0592441151
 30
0.0
 11
124.6788608423
 21
183.0592441151
 31
0.0
  0
LINE
  5
282
330
1F
100
AcDbEntity
  8
0
  6
SLD-Durchgehend
 62
     7
370
    15
100
AcDbLine
 10
130.8367824695
 20
192.0592437277
 30
0.0
 11
130.8367824695
 21
187.0736020395
 31
0.0
  0
LINE
  5
283
330
1F
100
AcDbEntity
  8
0
  6
SLD-Durchgehend
 62
     7
370
    15
100
AcDbLine
 10
127.7578207246
 20
186.8592451105
 30
0.0
 11
130.8367824695
 21
187.0736020395
 31
0.0
  0
SPLINE
  5
284
330
1F
100
AcDbEntity
  8
0
  6
SLD-Durchgehend
 62
     7
370
    15
100
AcDbSpline
210
0.0
220
0.0
230
1.0
 70
     8
 71
     3
 72
    13
 73
     9
 74
     0
 42
0.000000001
 43
0.00000001
 40
0.0
 40
0.0
 40
0.0
 40
0.0
 40
0.1898250429432452
 40
0.3812362239745284
 40
0.5770406253957483
 40
0.7740692301350262
 40
0.8869636410026885
 40
1.0
 40
1.0
 40
1.0
 40
1.0
 10
120.257821357855
 20
174.0941355714534
 30
0.0
 10
120.0567025100821
 20
174.1003970692582
 30
0.0
 10
119.6527843077931
 20
174.1129723846248
 30
0.0
 10
119.046643996557
 20
174.2138954429296
 30
0.0
 10
118.4425847464331
 20
174.3715707147872
 30
0.0
 10
117.9307488940093
 20
174.5558954141759
 30
0.0
 10
117.5101861594609
 20
174.7343912865109
 30
0.0
 10
117.2893486653752
 20
174.8408642721452
 30
0.0
 10
117.1788605442731
 20
174.8941342124675
 30
0.0
  0
LINE
  5
285
330
1F
100
AcDbEntity
  8
0
  6
SLD-Durchgehend
 62
     7
370
    15
100
AcDbLine
 10
117.1788605443
 20
174.8941342125
 30
0.0
 11
117.1788605443
 21
183.0592441151
 31
0.0
  0
LINE
  5
286
330
1F
100
AcDbEntity
  8
0
  6
SLD-Durchgehend
 62
     7
370
    15
100
AcDbLine
 10
123.3367821714
 20
183.0592441151
 30
0.0
 11
117.1788605443
 21
183.0592441151
 31
0.0
  0
LINE
  5
287
330
1F
100
AcDbEntity
  8
0
  6
SLD-Durchgehend
 62
     7
370
    15
100
AcDbLine
 10
117.1788605443
 20
192.0592437277
 30
0.0
 11
117.1788605443
 21
187.0736020395
 31
0.0
  0
LINE
  5
288
330
1F
100
AcDbEntity
  8
0
  6
SLD-Durchgehend
 62
     7
370
    15
100
AcDbLine
 10
117.1788605443
 20
187.0736020395
 30
0.0
 11
120.2578213579
 21
186.8592451105
 31
0.0
  0
LINE
  5
289
330
1F
100
AcDbEntity
  8
0
  6
SLD-Durchgehend
 62
     7
370
    15
100
AcDbLine
 10
119.1478217533
 20
170.0592438469
 30
0.0
 11
128.8678212604
 21
170.0592438469
 31
0.0
  0
LINE
  5
28A
330
1F
100
AcDbEntity
  8
0
  6
SLD-Durchgehend
 62
     7
370
    15
100
AcDbLine
 10
116.5078212088
 20
174.0941355715
 30
0.0
 11
120.2578213579
 21
174.0941355715
 31
0.0
  0
LINE
  5
28B
330
1F
100
AcDbEntity
  8
0
  6
SLD-Durchgehend
 62
     7
370
    15
100
AcDbLine
 10
127.7578207246
 20
174.0941355715
 30
0.0
 11
131.5078208736
 21
174.0941355715
 31
0.0
  0
SPLINE
  5
28C
330
1F
100
AcDbEntity
  8
0
  6
SLD-Durchgehend
 62
     7
370
    15
100
AcDbSpline
210
0.0
220
0.0
230
1.0
 70
    24
 71
     3
 72
    10
 73
     6
 74
     0
 42
0.000000001
 43
0.00000001
 40
0.0
 40
0.0
 40
0.0
 40
0.0
 40
0.2168187752022221
 40
0.6031015889128853
 40
1.0
 40
1.0
 40
1.0
 40
1.0
 10
116.5078212088434
 20
174.8941342124675
 30
0.0
 10
116.5078212088434
 20
174.7946626339716
 30
0.0
 10
116.5078212088434
 20
174.5179731868209
 30
0.0
 10
116.5078212088434
 20
174.1778204276495
 30
0.0
 10
116.5078212088434
 20
174.1222814570753
 30
0.0
 10
116.5078212088434
 20
174.0941355714534
 30
0.0
  0
LINE
  5
28D
330
1F
100
AcDbEntity
  8
0
  6
SLD-Durchgehend
 62
     7
370
    15
100
AcDbLine
 10
117.1788605443
 20
174.8941342125
 30
0.0
 11
116.5078212088
 21
174.8941342125
 31
0.0
  0
LINE
  5
28E
330
1F
100
AcDbEntity
  8
0
  6
SLD-Durchgehend
 62
     7
370
    15
100
AcDbLine
 10
131.5078208736
 20
174.8941342125
 30
0.0
 11
130.8367824695
 21
174.8941342125
 31
0.0
  0
SPLINE
  5
28F
330
1F
100
AcDbEntity
  8
0
  6
SLD-Durchgehend
 62
     7
370
    15
100
AcDbSpline
210
0.0
220
0.0
230
1.0
 70
    24
 71
     3
 72
    10
 73
     6
 74
     0
 42
0.000000001
 43
0.00000001
 40
0.0
 40
0.0
 40
0.0
 40
0.0
 40
0.3855501047414515
 40
0.7831835232019829
 40
0.9999999999999999
 40
0.9999999999999999
 40
0.9999999999999999
 40
0.9999999999999999
 10
131.5078208735673
 20
174.0941355714534
 30
0.0
 10
131.5078208735673
 20
174.1207654519715
 30
0.0
 10
131.5078208735673
 20
174.1748598054424
 30
0.0
 10
131.5078208735673
 20
174.5127614951176
 30
0.0
 10
131.5078208735673
 20
174.7946620195553
 30
0.0
 10
131.5078208735673
 20
174.8941342124675
 30
0.0
  0
LINE
  5
290
330
1F
100
AcDbEntity
  8
0
  6
SLD-Durchgehend
 62
     7
370
    15
100
AcDbLine
 10
116.5078212088
 20
187.0736020395
 30
0.0
 11
117.1788605443
 21
187.0736020395
 31
0.0
  0
SPLINE
  5
291
330
1F
100
AcDbEntity
  8
0
  6
SLD-Durchgehend
 62
     7
370
    15
100
AcDbSpline
210
0.0
220
0.0
230
1.0
 70
    24
 71
     3
 72
     9
 73
     5
 74
     0
 42
0.000000001
 43
0.00000001
 40
0.0
 40
0.0
 40
0.0
 40
0.0
 40
0.7545295985299044
 40
1.0
 40
1.0
 40
1.0
 40
1.0
 10
116.5078212088434
 20
186.8592451104854
 30
0.0
 10
116.5078212088434
 20
186.882026135528
 30
0.0
 10
116.5078212088434
 20
186.9122184899259
 30
0.0
 10
116.5078212088434
 20
187.0417948728193
 30
0.0
 10
116.5078212088434
 20
187.0736020395492
 30
0.0
  0
LINE
  5
292
330
1F
100
AcDbEntity
  8
0
  6
SLD-Durchgehend
 62
     7
370
    15
100
AcDbLine
 10
116.5078212088
 20
186.8592451105
 30
0.0
 11
120.2578213579
 21
186.8592451105
 31
0.0
  0
LINE
  5
293
330
1F
100
AcDbEntity
  8
0
  6
SLD-Durchgehend
 62
     7
370
    15
100
AcDbLine
 10
130.8367824695
 20
187.0736020395
 30
0.0
 11
131.5078208736
 21
187.0736020395
 31
0.0
  0
SPLINE
  5
294
330
1F
100
AcDbEntity
  8
0
  6
SLD-Durchgehend
 62
     7
370
    15
100
AcDbSpline
210
0.0
220
0.0
230
1.0
 70
    24
 71
     3
 72
     9
 73
     5
 74
     0
 42
0.000000001
 43
0.00000001
 40
0.0
 40
0.0
 40
0.0
 40
0.0
 40
0.2454704014700957
 40
1.0
 40
1.0
 40
1.0
 40
1.0
 10
131.5078208735673
 20
187.0736020395492
 30
0.0
 10
131.5078208735673
 20
187.0417948728193
 30
0.0
 10
131.5078208735673
 20
186.9122184899259
 30
0.0
 10
131.5078208735673
 20
186.882026135528
 30
0.0
 10
131.5078208735673
 20
186.8592451104854
 30
0.0
  0
LINE
  5
295
330
1F
100
AcDbEntity
  8
0
  6
SLD-Durchgehend
 62
     7
370
    15
100
AcDbLine
 10
127.7578207246
 20
186.8592451105
 30
0.0
 11
131.5078208736
 21
186.8592451105
 31
0.0
  0
LINE
  5
296
330
1F
100
AcDbEntity
  8
0
  6
SLD-Durchgehend
 62
     7
370
    15
100
AcDbLine
 10
116.5078212088
 20
174.8941342125
 30
0.0
 11
116.5078212088
 21
183.0592441151
 31
0.0
  0
LINE
  5
297
330
1F
100
AcDbEntity
  8
0
  6
SLD-Durchgehend
 62
     7
370
    15
100
AcDbLine
 10
117.1788605443
 20
183.0592441151
 30
0.0
 11
116.5078212088
 21
183.0592441151
 31
0.0
  0
LINE
  5
298
330
1F
100
AcDbEntity
  8
0
  6
SLD-Durchgehend
 62
     7
370
    15
100
AcDbLine
 10
131.5078208736
 20
174.8941342125
 30
0.0
 11
131.5078208736
 21
183.0592441151
 31
0.0
  0
LINE
  5
299
330
1F
100
AcDbEntity
  8
0
  6
SLD-Durchgehend
 62
     7
370
    15
100
AcDbLine
 10
131.5078208736
 20
183.0592441151
 30
0.0
 11
130.8367824695
 21
183.0592441151
 31
0.0
  0
LINE
  5
29A
330
1F
100
AcDbEntity
  8
0
  6
SLD-Durchgehend
 62
     7
370
    15
100
AcDbLine
 10
116.5078212088
 20
192.0592437277
 30
0.0
 11
116.5078212088
 21
187.0736020395
 31
0.0
  0
LINE
  5
29B
330
1F
100
AcDbEntity
  8
0
  6
SLD-Durchgehend
 62
     7
370
    15
100
AcDbLine
 10
131.5078208736
 20
192.0592437277
 30
0.0
 11
131.5078208736
 21
187.0736020395
 31
0.0
  0
LINE
  5
29C
330
1F
100
AcDbEntity
  8
0
  6
SLD-Durchgehend
 62
     7
370
    15
100
AcDbLine
 10
75.1078216872
 20
192.0592437277
 30
0.0
 11
75.1078216872
 21
269.0592433104
 31
0.0
  0
LINE
  5
29D
330
1F
100
AcDbEntity
  8
0
  6
SLD-Durchgehend
 62
     7
370
    15
100
AcDbLine
 10
75.1078216872
 20
269.0592433104
 30
0.0
 11
136.9078210136
 21
269.0592433104
 31
0.0
  0
LINE
  5
29E
330
1F
100
AcDbEntity
  8
0
  6
SLD-Durchgehend
 62
     7
370
    15
100
AcDbLine
 10
136.9078210136
 20
192.0592437277
 30
0.0
 11
136.9078210136
 21
269.0592433104
 31
0.0
  0
LINE
  5
29F
330
1F
100
AcDbEntity
  8
0
  6
SLD-Durchgehend
 62
     7
370
    15
100
AcDbLine
 10
75.1078216872
 20
192.0592437277
 30
0.0
 11
136.9078210136
 21
192.0592437277
 31
0.0
  0
CIRCLE
  5
2A0
330
1F
100
AcDbEntity
  8
0
  6
SLD-Durchgehend
 62
     7
370
    15
100
AcDbCircle
 10
106.0078213504
 20
258.559243519
 30
0.0
 40
4.5
  0
CIRCLE
  5
2A1
330
1F
100
AcDbEntity
  8
0
  6
SLD-Durchgehend
 62
     7
370
    15
100
AcDbCircle
 10
106.0078213504
 20
202.559243519
 30
0.0
 40
4.5
  0
LINE
  5
2A2
330
1F
100
AcDbEntity
  8
0
  6
SLD-Durchgehend
 62
     8
370
     0
100
AcDbLine
 10
161.9078213862
 20
204.4105219433
 30
0.0
 11
161.9078213862
 21
268.5592422971
 31
0.0
  0
LINE
  5
2A3
330
1F
100
AcDbEntity
  8
0
  6
SLD-Durchgehend
 62
     8
370
     0
100
AcDbLine
 10
161.9078213862
 20
192.5592447409
 30
0.0
 11
161.9078213862
 21
204.4105219433
 31
0.0
  0
LINE
  5
2A4
330
1F
100
AcDbEntity
  8
0
  6
SLD-Durchgehend
 62
     8
370
     0
100
AcDbLine
 10
50.1078213146
 20
268.0284033308
 30
0.0
 11
50.1078213146
 21
192.5592447409
 31
0.0
  0
LINE
  5
2A5
330
1F
100
AcDbEntity
  8
0
  6
SLD-Durchgehend
 62
     8
370
     0
100
AcDbLine
 10
50.1078213146
 20
268.5592422971
 30
0.0
 11
50.1078213146
 21
268.0284033308
 31
0.0
  0
LINE
  5
2A6
330
1F
100
AcDbEntity
  8
0
  6
SLD-Durchgehend
 62
     8
370
     0
100
AcDbLine
 10
116.5078212088
 20
172.6992453227
 30
0.0
 11
131.5078208736
 21
172.6992453227
 31
0.0
  0
INSERT
  5
2A7
330
1F
100
AcDbEntity
  8
0
  6
Continuous
 62
     7
100
AcDbBlockReference
  2
Text NEG-Kabelverschraubung
 10
176.1843916055
 20
167.5323096127
 30
0.0
 41
2.0
 42
2.0
 43
2.0
  0
LEADER
  5
2A9
330
1F
100
AcDbEntity
  8
0
  6
Continuous
 62
     7
100
AcDbLeader
  3
SLDDIMSTYLE2
 76
     2
 10
130.8367822141
 20
177.9251578512
 30
0.0
 10
176.1843916055
 20
167.5323096127
 30
0.0
  0
DIMENSION
  5
2AA
330
1F
100
AcDbEntity
  8
0
  6
SLD-Durchgehend
 62
     7
370
     0
100
AcDbDimension
  2
_D_8
 10
180.9965970947
 20
268.559243519
 30
0.0
 11
180.9965970947
 21
229.5081889328
 31
0.0
 70
   160
  1
%%c<>
 71
     2
 42
-1.0
  3
SLDDIMSTYLE0
100
AcDbAlignedDimension
 13
161.9078213504
 23
192.559243519
 33
0.0
 14
161.9078213504
 24
268.559243519
 34
0.0
 50
90.0
100
AcDbRotatedDimension
  0
DIMENSION
  5
2B5
330
1F
100
AcDbEntity
  8
0
  6
SLD-Durchgehend
 62
     7
370
     0
100
AcDbDimension
  2
_D_9
 10
36.1078213504
 20
202.559243519
 30
0.0
 11
36.1078213504
 21
231.5616391394
 31
0.0
 70
   160
  1
<>
 71
     2
 42
-1.0
  3
SLDDIMSTYLE0
100
AcDbAlignedDimension
 13
100.5078213504
 23
258.559243519
 33
0.0
 14
100.5078213504
 24
202.559243519
 34
0.0
 50
90.0
100
AcDbRotatedDimension
  0
DIMENSION
  5
2BF
330
1F
100
AcDbEntity
  8
0
  6
SLD-Durchgehend
 62
     7
370
     0
100
AcDbDimension
  2
_D_10
 10
110.5078213504
 20
243.8034505345
 30
0.0
 11
118.8969050277
 21
243.8034505345
 31
0.0
 70
   160
  1
%%c<>
 71
     2
 42
-1.0
  3
SLDDIMSTYLE3
100
AcDbAlignedDimension
 13
101.5078213504
 23
258.559243519
 33
0.0
 14
110.5078213504
 24
258.559243519
 34
0.0
100
AcDbRotatedDimension
  0
DIMENSION
  5
2CD
330
1F
100
AcDbEntity
  8
0
  6
SLD-Durchgehend
 62
     7
370
     0
100
AcDbDimension
  2
_D_11
 10
124.0078213504
 20
214.8693893881
 30
0.0
 11
115.2878016096
 21
214.8693893881
 31
0.0
 70
   160
  1
<>
 71
     2
 42
-1.0
  3
SLDDIMSTYLE0
100
AcDbAlignedDimension
 13
106.0078213504
 23
190.059243519
 33
0.0
 14
124.0078213504
 24
207.059243519
 34
0.0
100
AcDbRotatedDimension
  0
INSERT
  5
2E1
330
1F
100
AcDbEntity
  8
0
  6
SLD-Durchgehend
 62
     7
370
     0
100
AcDbBlockReference
  2
SW_CENTERMARKSYMBOL_1
 10
106.0078213504
 20
202.559243519
 30
0.0
  0
INSERT
  5
2ED
330
1F
100
AcDbEntity
  8
0
  6
SLD-Durchgehend
 62
     7
370
     0
100
AcDbBlockReference
  2
SW_CENTERMARKSYMBOL_2
 10
106.0078213504
 20
258.559243519
 30
0.0
  0
LINE
  5
2EE
330
1F
100
AcDbEntity
  8
0
  6
SLD-Punktstrich
 62
     7
370
     0
100
AcDbLine
 10
106.0078213504
 20
190.059243519
 30
0.0
 11
106.0078213504
 21
271.059243519
 31
0.0
  0
LINE
  5
2EF
330
1F
100
AcDbEntity
  8
0
  6
SLD-Punktstrich
 62
     7
370
     0
100
AcDbLine
 10
124.0078213504
 20
153.059243519
 30
0.0
 11
124.0078213504
 21
207.059243519
 31
0.0
  0
ENDSEC
  0
SECTION
  2
OBJECTS
  0
DICTIONARY
  5
C
330
0
100
AcDbDictionary
281
     1
  3
ACAD_GROUP
350
D
  3
ACAD_LAYOUT
350
1A
  3
ACAD_MLINESTYLE
350
17
  3
ACAD_PLOTSETTINGS
350
19
  3
ACAD_PLOTSTYLENAME
350
E
  3
ACAD_SCALELIST
350
47
  0
DICTIONARY
  5
D
102
{ACAD_REACTORS
330
C
102
}
330
C
100
AcDbDictionary
281
     1
  0
DICTIONARY
  5
1A
102
{ACAD_REACTORS
330
C
102
}
330
C
100
AcDbDictionary
281
     1
  3
Layout1
350
1E
  3
Layout2
350
26
  3
Model
350
22
  0
DICTIONARY
  5
17
102
{ACAD_REACTORS
330
C
102
}
330
C
100
AcDbDictionary
281
     1
  3
Standard
350
18
  0
DICTIONARY
  5
19
102
{ACAD_REACTORS
330
C
102
}
330
C
100
AcDbDictionary
281
     1
  0
ACDBDICTIONARYWDFLT
  5
E
102
{ACAD_REACTORS
330
C
102
}
330
C
100
AcDbDictionary
281
     1
  3
Normal
350
F
100
AcDbDictionaryWithDefault
340
F
  0
DICTIONARY
  5
47
102
{ACAD_REACTORS
330
C
102
}
330
C
100
AcDbDictionary
281
     1
  3
A0
350
48
  3
A1
350
49
  3
A2
350
4A
  3
A3
350
4B
  3
A4
350
4C
  3
A5
350
4D
  3
A6
350
4E
  3
A7
350
4F
  3
A8
350
50
  3
A9
350
51
  3
B0
350
52
  3
B1
350
53
  3
B2
350
54
  3
B3
350
55
  3
B4
350
56
  3
B5
350
57
  3
B6
350
58
  3
B7
350
59
  3
B8
350
5A
  3
B9
350
5B
  3
C0
350
5C
  3
C1
350
5D
  3
C2
350
5E
  3
C3
350
5F
  3
C4
350
60
  3
C5
350
61
  3
C6
350
62
  3
C7
350
63
  3
C8
350
64
  3
C9
350
65
  3
D0
350
66
  3
D1
350
67
  3
D2
350
68
  0
LAYOUT
  5
1E
102
{ACAD_REACTORS
330
1A
102
}
330
1A
100
AcDbPlotSettings
  1

  2
none_device
  4

  6

 40
0.0
 41
0.0
 42
0.0
 43
0.0
 44
0.0
 45
0.0
 46
0.0
 47
0.0
 48
0.0
 49
0.0
140
0.0
141
0.0
142
1.0
143
1.0
 70
   688
 72
     1
 73
     0
 74
     5
  7

 75
    16
147
1.0
148
0.0
149
0.0
100
AcDbLayout
  1
Layout1
 70
     1
 71
     1
 10
0.0
 20
0.0
 11
420.0
 21
297.0
 12
0.0
 22
0.0
 32
0.0
 14
1.0000000000E+20
 24
1.0000000000E+20
 34
1.0000000000E+20
 15
-1.0000000000E+20
 25
-1.0000000000E+20
 35
-1.0000000000E+20
146
0.0
 13
0.0
 23
0.0
 33
0.0
 16
1.0
 26
0.0
 36
0.0
 17
0.0
 27
1.0
 37
0.0
 76
     0
330
1B
  0
LAYOUT
  5
26
102
{ACAD_REACTORS
330
1A
102
}
330
1A
100
AcDbPlotSettings
  1

  2
none_device
  4

  6

 40
0.0
 41
0.0
 42
0.0
 43
0.0
 44
0.0
 45
0.0
 46
0.0
 47
0.0
 48
0.0
 49
0.0
140
0.0
141
0.0
142
1.0
143
1.0
 70
   688
 72
     1
 73
     0
 74
     5
  7

 75
    16
147
1.0
148
0.0
149
0.0
100
AcDbLayout
  1
Layout2
 70
     1
 71
     2
 10
0.0
 20
0.0
 11
0.0
 21
0.0
 12
0.0
 22
0.0
 32
0.0
 14
0.0
 24
0.0
 34
0.0
 15
0.0
 25
0.0
 35
0.0
146
0.0
 13
0.0
 23
0.0
 33
0.0
 16
1.0
 26
0.0
 36
0.0
 17
0.0
 27
1.0
 37
0.0
 76
     0
330
23
  0
LAYOUT
  5
22
102
{ACAD_REACTORS
330
1A
102
}
330
1A
100
AcDbPlotSettings
  1

  2
none_device
  4
Letter_(8.50_x_11.00_Inches)
  6

 40
6.35
 41
6.35
 42
6.35000508
 43
6.35000508
 44
215.9
 45
279.4
 46
0.0
 47
0.0
 48
0.0
 49
0.0
140
0.0
141
0.0
142
1.0
143
1.0
 70
  1712
 72
     1
 73
     0
 74
     0
  7

 75
     0
147
1.0
148
0.0
149
0.0
100
AcDbLayout
  1
Model
 70
     1
 71
     0
 10
0.0
 20
0.0
 11
420.0
 21
297.0
 12
0.0
 22
0.0
 32
0.0
 14
0.0
 24
0.0
 34
0.0
 15
420.0
 25
297.0
 35
0.0
146
0.0
 13
0.0
 23
0.0
 33
0.0
 16
1.0
 26
0.0
 36
0.0
 17
0.0
 27
1.0
 37
0.0
 76
     0
330
1F
331
29
  0
MLINESTYLE
  5
18
102
{ACAD_REACTORS
330
17
102
}
330
17
100
AcDbMlineStyle
  2
Standard
 70
     0
  3

 62
   256
 51
90.0
 52
90.0
 71
     2
 49
0.5
 62
   256
  6
BYLAYER
 49
-0.5
 62
   256
  6
BYLAYER
  0
ACDBPLACEHOLDER
  5
F
102
{ACAD_REACTORS
330
E
102
}
330
E
  0
SCALE
  5
48
102
{ACAD_REACTORS
330
47
102
}
330
47
100
AcDbScale
 70
     0
300
1:1
140
1.0
141
1.0
290
     1
  0
SCALE
  5
49
102
{ACAD_REACTORS
330
47
102
}
330
47
100
AcDbScale
 70
     0
300
1:2
140
1.0
141
2.0
290
     0
  0
SCALE
  5
4A
102
{ACAD_REACTORS
330
47
102
}
330
47
100
AcDbScale
 70
     0
300
1:4
140
1.0
141
4.0
290
     0
  0
SCALE
  5
4B
102
{ACAD_REACTORS
330
47
102
}
330
47
100
AcDbScale
 70
     0
300
1:5
140
1.0
141
5.0
290
     0
  0
SCALE
  5
4C
102
{ACAD_REACTORS
330
47
102
}
330
47
100
AcDbScale
 70
     0
300
1:8
140
1.0
141
8.0
290
     0
  0
SCALE
  5
4D
102
{ACAD_REACTORS
330
47
102
}
330
47
100
AcDbScale
 70
     0
300
1:10
140
1.0
141
10.0
290
     0
  0
SCALE
  5
4E
102
{ACAD_REACTORS
330
47
102
}
330
47
100
AcDbScale
 70
     0
300
1:16
140
1.0
141
16.0
290
     0
  0
SCALE
  5
4F
102
{ACAD_REACTORS
330
47
102
}
330
47
100
AcDbScale
 70
     0
300
1:20
140
1.0
141
20.0
290
     0
  0
SCALE
  5
50
102
{ACAD_REACTORS
330
47
102
}
330
47
100
AcDbScale
 70
     0
300
1:30
140
1.0
141
30.0
290
     0
  0
SCALE
  5
51
102
{ACAD_REACTORS
330
47
102
}
330
47
100
AcDbScale
 70
     0
300
1:40
140
1.0
141
40.0
290
     0
  0
SCALE
  5
52
102
{ACAD_REACTORS
330
47
102
}
330
47
100
AcDbScale
 70
     0
300
1:50
140
1.0
141
50.0
290
     0
  0
SCALE
  5
53
102
{ACAD_REACTORS
330
47
102
}
330
47
100
AcDbScale
 70
     0
300
1:100
140
1.0
141
100.0
290
     0
  0
SCALE
  5
54
102
{ACAD_REACTORS
330
47
102
}
330
47
100
AcDbScale
 70
     0
300
2:1
140
2.0
141
1.0
290
     0
  0
SCALE
  5
55
102
{ACAD_REACTORS
330
47
102
}
330
47
100
AcDbScale
 70
     0
300
4:1
140
4.0
141
1.0
290
     0
  0
SCALE
  5
56
102
{ACAD_REACTORS
330
47
102
}
330
47
100
AcDbScale
 70
     0
300
8:1
140
8.0
141
1.0
290
     0
  0
SCALE
  5
57
102
{ACAD_REACTORS
330
47
102
}
330
47
100
AcDbScale
 70
     0
300
10:1
140
10.0
141
1.0
290
     0
  0
SCALE
  5
58
102
{ACAD_REACTORS
330
47
102
}
330
47
100
AcDbScale
 70
     0
300
100:1
140
100.0
141
1.0
290
     0
  0
SCALE
  5
59
102
{ACAD_REACTORS
330
47
102
}
330
47
100
AcDbScale
 70
     0
300
1/128" = 1'-0"
140
0.0078125
141
12.0
290
     0
  0
SCALE
  5
5A
102
{ACAD_REACTORS
330
47
102
}
330
47
100
AcDbScale
 70
     0
300
1/64" = 1'-0"
140
0.015625
141
12.0
290
     0
  0
SCALE
  5
5B
102
{ACAD_REACTORS
330
47
102
}
330
47
100
AcDbScale
 70
     0
300
1/32" = 1'-0"
140
0.03125
141
12.0
290
     0
  0
SCALE
  5
5C
102
{ACAD_REACTORS
330
47
102
}
330
47
100
AcDbScale
 70
     0
300
1/16" = 1'-0"
140
0.0625
141
12.0
290
     0
  0
SCALE
  5
5D
102
{ACAD_REACTORS
330
47
102
}
330
47
100
AcDbScale
 70
     0
300
3/32" = 1'-0"
140
0.09375
141
12.0
290
     0
  0
SCALE
  5
5E
102
{ACAD_REACTORS
330
47
102
}
330
47
100
AcDbScale
 70
     0
300
1/8" = 1'-0"
140
0.125
141
12.0
290
     0
  0
SCALE
  5
5F
102
{ACAD_REACTORS
330
47
102
}
330
47
100
AcDbScale
 70
     0
300
3/16" = 1'-0"
140
0.1875
141
12.0
290
     0
  0
SCALE
  5
60
102
{ACAD_REACTORS
330
47
102
}
330
47
100
AcDbScale
 70
     0
300
1/4" = 1'-0"
140
0.25
141
12.0
290
     0
  0
SCALE
  5
61
102
{ACAD_REACTORS
330
47
102
}
330
47
100
AcDbScale
 70
     0
300
3/8" = 1'-0"
140
0.375
141
12.0
290
     0
  0
SCALE
  5
62
102
{ACAD_REACTORS
330
47
102
}
330
47
100
AcDbScale
 70
     0
300
1/2" = 1'-0"
140
0.5
141
12.0
290
     0
  0
SCALE
  5
63
102
{ACAD_REACTORS
330
47
102
}
330
47
100
AcDbScale
 70
     0
300
3/4" = 1'-0"
140
0.75
141
12.0
290
     0
  0
SCALE
  5
64
102
{ACAD_REACTORS
330
47
102
}
330
47
100
AcDbScale
 70
     0
300
1" = 1'-0"
140
1.0
141
12.0
290
     0
  0
SCALE
  5
65
102
{ACAD_REACTORS
330
47
102
}
330
47
100
AcDbScale
 70
     0
300
1-1/2" = 1'-0"
140
1.5
141
12.0
290
     0
  0
SCALE
  5
66
102
{ACAD_REACTORS
330
47
102
}
330
47
100
AcDbScale
 70
     0
300
3" = 1'-0"
140
3.0
141
12.0
290
     0
  0
SCALE
  5
67
102
{ACAD_REACTORS
330
47
102
}
330
47
100
AcDbScale
 70
     0
300
6" = 1'-0"
140
6.0
141
12.0
290
     0
  0
SCALE
  5
68
102
{ACAD_REACTORS
330
47
102
}
330
47
100
AcDbScale
 70
     0
300
1'-0" = 1'-0"
140
12.0
141
12.0
290
     0
  0
ENDSEC
  0
EOF
