  0
SECTION
  2
HEADER
  9
$ACADVER
  1
AC1015
  9
$ACADMAINTVER
 70
     6
  9
$DWGCODEPAGE
  3
ANSI_1252
  9
$INSBASE
 10
0.0
 20
0.0
 30
0.0
  9
$EXTMIN
 10
0.0
 20
0.0
 30
0.0
  9
$EXTMAX
 10
420.0
 20
297.0
 30
0.0
  9
$LIMMIN
 10
0.0
 20
0.0
  9
$LIMMAX
 10
420.0
 20
297.0
  9
$ORTHOMODE
 70
     0
  9
$REGENMODE
 70
     1
  9
$FILLMODE
 70
     1
  9
$QTEXTMODE
 70
     0
  9
$MIRRTEXT
 70
     1
  9
$LTSCALE
 40
1.0
  9
$ATTMODE
 70
     1
  9
$TEXTSIZE
 40
3.0
  9
$TRACEWID
 40
1.0
  9
$TEXTSTYLE
  7
STANDARD
  9
$CLAYER
  8
0
  9
$CELTYPE
  6
ByLayer
  9
$CECOLOR
 62
   256
  9
$CELTSCALE
 40
1.0
  9
$DISPSILH
 70
     0
  9
$DIMSCALE
 40
1.0
  9
$DIMASZ
 40
2.5
  9
$DIMEXO
 40
1.0
  9
$DIMDLI
 40
3.75
  9
$DIMRND
 40
0.0
  9
$DIMDLE
 40
0.0
  9
$DIMEXE
 40
1.0
  9
$DIMTP
 40
0.0
  9
$DIMTM
 40
0.0
  9
$DIMTXT
 40
3.0
  9
$DIMCEN
 40
2.5
  9
$DIMTSZ
 40
0.0
  9
$DIMTOL
 70
     0
  9
$DIMLIM
 70
     0
  9
$DIMTIH
 70
     1
  9
$DIMTOH
 70
     1
  9
$DIMSE1
 70
     0
  9
$DIMSE2
 70
     0
  9
$DIMTAD
 70
     1
  9
$DIMZIN
 70
     0
  9
$DIMBLK
  1

  9
$DIMASO
 70
     1
  9
$DIMSHO
 70
     1
  9
$DIMPOST
  1

  9
$DIMAPOST
  1

  9
$DIMALT
 70
     0
  9
$DIMALTD
 70
     3
  9
$DIMALTF
 40
0.0393700787
  9
$DIMLFAC
 40
1.0
  9
$DIMTOFL
 70
     1
  9
$DIMTVP
 40
0.0
  9
$DIMTIX
 70
     0
  9
$DIMSOXD
 70
     0
  9
$DIMSAH
 70
     0
  9
$DIMBLK1
  1

  9
$DIMBLK2
  1

  9
$DIMSTYLE
  2
ISO-25
  9
$DIMCLRD
 70
     0
  9
$DIMCLRE
 70
     0
  9
$DIMCLRT
 70
     0
  9
$DIMTFAC
 40
1.0
  9
$DIMGAP
 40
1.524
  9
$DIMJUST
 70
     0
  9
$DIMSD1
 70
     0
  9
$DIMSD2
 70
     0
  9
$DIMTOLJ
 70
     0
  9
$DIMTZIN
 70
     0
  9
$DIMALTZ
 70
     0
  9
$DIMALTTZ
 70
     0
  9
$DIMUPT
 70
     0
  9
$DIMDEC
 70
     3
  9
$DIMTDEC
 70
     3
  9
$DIMALTU
 70
     2
  9
$DIMALTTD
 70
     3
  9
$DIMTXSTY
  7
STANDARD
  9
$DIMAUNIT
 70
     0
  9
$DIMADEC
 70
     3
  9
$DIMALTRND
 40
0.0
  9
$DIMAZIN
 70
     0
  9
$DIMDSEP
 70
    44
  9
$DIMATFIT
 70
     3
  9
$DIMFRAC
 70
     0
  9
$DIMLDRBLK
  1

  9
$DIMLUNIT
 70
     2
  9
$DIMLWD
 70
    -2
  9
$DIMLWE
 70
    -2
  9
$DIMTMOVE
 70
     0
  9
$LUNITS
 70
     2
  9
$LUPREC
 70
     3
  9
$SKETCHINC
 40
1.0
  9
$FILLETRAD
 40
10.0
  9
$AUNITS
 70
     0
  9
$AUPREC
 70
     3
  9
$MENU
  1
.
  9
$ELEVATION
 40
0.0
  9
$PELEVATION
 40
0.0
  9
$THICKNESS
 40
0.0
  9
$LIMCHECK
 70
     0
  9
$CHAMFERA
 40
0.0
  9
$CHAMFERB
 40
0.0
  9
$CHAMFERC
 40
0.0
  9
$CHAMFERD
 40
0.0
  9
$SKPOLY
 70
     0
  9
$TDCREATE
 40
2459769.486340382
  9
$TDUCREATE
 40
2459769.403007049
  9
$TDUPDATE
 40
2459769.486348924
  9
$TDUUPDATE
 40
2459769.40301559
  9
$TDINDWG
 40
0.0000000116
  9
$TDUSRTIMER
 40
0.0000000116
  9
$USRTIMER
 70
     1
  9
$ANGBASE
 50
0.0
  9
$ANGDIR
 70
     0
  9
$PDMODE
 70
     0
  9
$PDSIZE
 40
-1.0
  9
$PLINEWID
 40
0.0
  9
$SPLFRAME
 70
     0
  9
$SPLINETYPE
 70
     6
  9
$SPLINESEGS
 70
     8
  9
$HANDSEED
  5
417
  9
$SURFTAB1
 70
     6
  9
$SURFTAB2
 70
     6
  9
$SURFTYPE
 70
     6
  9
$SURFU
 70
     6
  9
$SURFV
 70
     6
  9
$UCSBASE
  2

  9
$UCSNAME
  2

  9
$UCSORG
 10
0.0
 20
0.0
 30
0.0
  9
$UCSXDIR
 10
1.0
 20
0.0
 30
0.0
  9
$UCSYDIR
 10
0.0
 20
1.0
 30
0.0
  9
$UCSORTHOREF
  2

  9
$UCSORTHOVIEW
 70
     0
  9
$UCSORGTOP
 10
0.0
 20
0.0
 30
0.0
  9
$UCSORGBOTTOM
 10
0.0
 20
0.0
 30
0.0
  9
$UCSORGLEFT
 10
0.0
 20
0.0
 30
0.0
  9
$UCSORGRIGHT
 10
0.0
 20
0.0
 30
0.0
  9
$UCSORGFRONT
 10
0.0
 20
0.0
 30
0.0
  9
$UCSORGBACK
 10
0.0
 20
0.0
 30
0.0
  9
$PUCSBASE
  2

  9
$PUCSNAME
  2

  9
$PUCSORG
 10
0.0
 20
0.0
 30
0.0
  9
$PUCSXDIR
 10
1.0
 20
0.0
 30
0.0
  9
$PUCSYDIR
 10
0.0
 20
1.0
 30
0.0
  9
$PUCSORTHOREF
  2

  9
$PUCSORTHOVIEW
 70
     0
  9
$PUCSORGTOP
 10
0.0
 20
0.0
 30
0.0
  9
$PUCSORGBOTTOM
 10
0.0
 20
0.0
 30
0.0
  9
$PUCSORGLEFT
 10
0.0
 20
0.0
 30
0.0
  9
$PUCSORGRIGHT
 10
0.0
 20
0.0
 30
0.0
  9
$PUCSORGFRONT
 10
0.0
 20
0.0
 30
0.0
  9
$PUCSORGBACK
 10
0.0
 20
0.0
 30
0.0
  9
$USERI1
 70
     0
  9
$USERI2
 70
     0
  9
$USERI3
 70
     0
  9
$USERI4
 70
     0
  9
$USERI5
 70
     0
  9
$USERR1
 40
0.0
  9
$USERR2
 40
0.0
  9
$USERR3
 40
0.0
  9
$USERR4
 40
0.0
  9
$USERR5
 40
0.0
  9
$WORLDVIEW
 70
     1
  9
$SHADEDGE
 70
     3
  9
$SHADEDIF
 70
    70
  9
$TILEMODE
 70
     1
  9
$MAXACTVP
 70
    64
  9
$PINSBASE
 10
0.0
 20
0.0
 30
0.0
  9
$PLIMCHECK
 70
     0
  9
$PEXTMIN
 10
1.0000000000E+20
 20
1.0000000000E+20
 30
1.0000000000E+20
  9
$PEXTMAX
 10
-1.0000000000E+20
 20
-1.0000000000E+20
 30
-1.0000000000E+20
  9
$PLIMMIN
 10
0.0
 20
0.0
  9
$PLIMMAX
 10
420.0
 20
297.0
  9
$UNITMODE
 70
     0
  9
$VISRETAIN
 70
     1
  9
$PLINEGEN
 70
     0
  9
$PSLTSCALE
 70
     1
  9
$TREEDEPTH
 70
  3020
  9
$CMLSTYLE
  2
Standard
  9
$CMLJUST
 70
     0
  9
$CMLSCALE
 40
20.0
  9
$PROXYGRAPHICS
 70
     1
  9
$MEASUREMENT
 70
     1
  9
$CELWEIGHT
370
    -1
  9
$ENDCAPS
280
     0
  9
$JOINSTYLE
280
     0
  9
$LWDISPLAY
290
     1
  9
$INSUNITS
 70
     4
  9
$HYPERLINKBASE
  1

  9
$STYLESHEET
  1

  9
$XEDIT
290
     1
  9
$CEPSNTYPE
380
     0
  9
$PSTYLEMODE
290
     1
  9
$FINGERPRINTGUID
  2
{598F2CAE-470F-4F19-AC3A-9C05C1C0B39E}
  9
$VERSIONGUID
  2
{FAEB1C32-E019-11D5-929B-00C0DF256EC4}
  9
$EXTNAMES
290
     1
  9
$PSVPSCALE
 40
0.0
  9
$OLESTARTUP
290
     0
  0
ENDSEC
  0
SECTION
  2
CLASSES
  0
CLASS
  1
ACDBDICTIONARYWDFLT
  2
AcDbDictionaryWithDefault
  3
ObjectDBX Classes
 90
        0
280
     0
281
     0
  0
CLASS
  1
VISUALSTYLE
  2
AcDbVisualStyle
  3
ObjectDBX Classes
 90
     4095
280
     0
281
     0
  0
CLASS
  1
MATERIAL
  2
AcDbMaterial
  3
ObjectDBX Classes
 90
     1153
280
     0
281
     0
  0
CLASS
  1
SCALE
  2
AcDbScale
  3
ObjectDBX Classes
 90
     1153
280
     0
281
     0
  0
CLASS
  1
TABLESTYLE
  2
AcDbTableStyle
  3
ObjectDBX Classes
 90
     4095
280
     0
281
     0
  0
CLASS
  1
MLEADERSTYLE
  2
AcDbMLeaderStyle
  3
ACDB_MLEADERSTYLE_CLASS
 90
     4095
280
     0
281
     0
  0
CLASS
  1
SUN
  2
AcDbSun
  3
SCENEOE
 90
     1153
280
     0
281
     0
  0
CLASS
  1
ACDBPLACEHOLDER
  2
AcDbPlaceHolder
  3
ObjectDBX Classes
 90
        0
280
     0
281
     0
  0
CLASS
  1
LAYOUT
  2
AcDbLayout
  3
ObjectDBX Classes
 90
        0
280
     0
281
     0
  0
ENDSEC
  0
SECTION
  2
TABLES
  0
TABLE
  2
VPORT
  5
8
330
0
100
AcDbSymbolTable
 70
     1
  0
VPORT
  5
29
330
8
100
AcDbSymbolTableRecord
100
AcDbViewportTableRecord
  2
*Active
 70
     0
 10
0.0
 20
0.0
 11
1.0
 21
1.0
 12
210.0
 22
148.5
 13
0.0
 23
0.0
 14
10.0
 24
10.0
 15
10.0
 25
10.0
 16
0.0
 26
0.0
 36
1.0
 17
0.0
 27
0.0
 37
0.0
 40
297.0
 41
1.4141414141
 42
50.0
 43
0.0
 44
0.0
 50
0.0
 51
0.0
 71
     0
 72
  2000
 73
     1
 74
     3
 75
     0
 76
     0
 77
     0
 78
     0
281
     0
 65
     1
110
0.0
120
0.0
130
0.0
111
1.0
121
0.0
131
0.0
112
0.0
122
1.0
132
0.0
 79
     0
146
0.0
  0
ENDTAB
  0
TABLE
  2
LTYPE
  5
5
330
0
100
AcDbSymbolTable
 70
     8
  0
LTYPE
  5
14
330
5
100
AcDbSymbolTableRecord
100
AcDbLinetypeTableRecord
  2
ByBlock
 70
     0
  3

 72
    65
 73
     0
 40
0.0
  0
LTYPE
  5
15
330
5
100
AcDbSymbolTableRecord
100
AcDbLinetypeTableRecord
  2
ByLayer
 70
     0
  3

 72
    65
 73
     0
 40
0.0
  0
LTYPE
  5
16
330
5
100
AcDbSymbolTableRecord
100
AcDbLinetypeTableRecord
  2
Continuous
 70
     0
  3
Solid line
 72
    65
 73
     0
 40
0.0
  0
LTYPE
  5
6E
330
5
100
AcDbSymbolTableRecord
100
AcDbLinetypeTableRecord
  2
SLD-Durchgehend
 70
     0
  3
SolidWorks Line Style
 72
    65
 73
     0
 40
0.0
  0
LTYPE
  5
6F
330
5
100
AcDbSymbolTableRecord
100
AcDbLinetypeTableRecord
  2
SLD-Gestrichelt
 70
     0
  3
SolidWorks Line Style
 72
    65
 73
     2
 40
1.905
 49
1.27
 74
     0
 49
-0.635
 74
     0
  0
LTYPE
  5
70
330
5
100
AcDbSymbolTableRecord
100
AcDbLinetypeTableRecord
  2
SLD-Phantom
 70
     0
  3
SolidWorks Line Style
 72
    65
 73
     6
 40
12.7
 49
6.35
 74
     0
 49
-1.27
 74
     0
 49
1.27
 74
     0
 49
-1.27
 74
     0
 49
1.27
 74
     0
 49
-1.27
 74
     0
  0
LTYPE
  5
71
330
5
100
AcDbSymbolTableRecord
100
AcDbLinetypeTableRecord
  2
SLD-Kette
 70
     0
  3
SolidWorks Line Style
 72
    65
 73
     4
 40
10.16
 49
6.35
 74
     0
 49
-1.27
 74
     0
 49
1.27
 74
     0
 49
-1.27
 74
     0
  0
LTYPE
  5
72
330
5
100
AcDbSymbolTableRecord
100
AcDbLinetypeTableRecord
  2
SLD-Punktstrich
 70
     0
  3
SolidWorks Line Style
 72
    65
 73
     4
 40
19.05
 49
15.24
 74
     0
 49
-1.27
 74
     0
 49
1.27
 74
     0
 49
-1.27
 74
     0
  0
LTYPE
  5
73
330
5
100
AcDbSymbolTableRecord
100
AcDbLinetypeTableRecord
  2
SLD-Naht
 70
     0
  3
SolidWorks Line Style
 72
    65
 73
     2
 40
0.635
 49
0.0
 74
     0
 49
-0.635
 74
     0
  0
LTYPE
  5
74
330
5
100
AcDbSymbolTableRecord
100
AcDbLinetypeTableRecord
  2
SLD-Dicke-Dünne-Kette
 70
     0
  3
SolidWorks Line Style
 72
    65
 73
     4
 40
10.16
 49
6.35
 74
     0
 49
-1.27
 74
     0
 49
1.27
 74
     0
 49
-1.27
 74
     0
  0
ENDTAB
  0
TABLE
  2
LAYER
  5
2
330
0
100
AcDbSymbolTable
 70
     1
  0
LAYER
  5
10
330
2
100
AcDbSymbolTableRecord
100
AcDbLayerTableRecord
  2
0
 70
     0
 62
     7
  6
Continuous
370
    -3
390
F
  0
ENDTAB
  0
TABLE
  2
STYLE
  5
3
330
0
100
AcDbSymbolTable
 70
     5
  0
STYLE
  5
11
330
3
100
AcDbSymbolTableRecord
100
AcDbTextStyleTableRecord
  2
STANDARD
 70
     0
 40
0.0
 41
1.0
 50
0.0
 71
     0
 42
3.0
  3
ARIAL.TTF
  4

1001
ACAD
1000
ARIAL
1071
       34
  0
STYLE
  5
7B
330
3
100
AcDbSymbolTableRecord
100
AcDbTextStyleTableRecord
  2
SLDTEXTSTYLE0
 70
     0
 40
0.0
 41
0.948
 50
0.0
 71
     0
 42
3.0
  3
ARIAL.TTF
  4

1001
ACAD
1000
Arial
1071
      290
  0
STYLE
  5
128
330
3
100
AcDbSymbolTableRecord
100
AcDbTextStyleTableRecord
  2
SLDTEXTSTYLE1
 70
     0
 40
0.0
 41
1.0
 50
0.0
 71
     0
 42
3.0
  3
HLHI___.TTF
  4

1001
ACAD
1000
Helvetica 65 Medium
1071
 50331938
  0
STYLE
  5
12A
330
3
100
AcDbSymbolTableRecord
100
AcDbTextStyleTableRecord
  2
SLDTEXTSTYLE2
 70
     0
 40
0.0
 41
1.0
 50
0.0
 71
     0
 42
3.0
  3
HLR____.TTF
  4

1001
ACAD
1000
Helvetica 55 Roman
1071
 16777506
  0
STYLE
  5
138
330
3
100
AcDbSymbolTableRecord
100
AcDbTextStyleTableRecord
  2
SLDTEXTSTYLE3
 70
     0
 40
0.0
 41
0.948
 50
0.0
 71
     0
 42
3.0
  3
ARIALBD.TTF
  4

1001
ACAD
1000
Arial
1071
 33554722
  0
ENDTAB
  0
TABLE
  2
VIEW
  5
6
330
0
100
AcDbSymbolTable
 70
     0
  0
ENDTAB
  0
TABLE
  2
UCS
  5
7
330
0
100
AcDbSymbolTable
 70
     0
  0
ENDTAB
  0
TABLE
  2
APPID
  5
9
330
0
100
AcDbSymbolTable
 70
     1
  0
APPID
  5
12
330
9
100
AcDbSymbolTableRecord
100
AcDbRegAppTableRecord
  2
ACAD
 70
     0
  0
ENDTAB
  0
TABLE
  2
DIMSTYLE
  5
A
330
0
100
AcDbSymbolTable
 70
     4
100
AcDbDimStyleTable
  0
DIMSTYLE
105
27
330
A
100
AcDbSymbolTableRecord
100
AcDbDimStyleTableRecord
  2
ISO-25
 70
     0
 41
2.5
 42
0.625
 43
3.75
 44
1.25
 73
     0
 74
     0
 77
     1
 78
     8
140
2.5
141
2.5
143
0.0393700787
147
0.625
171
     3
172
     1
178
     0
271
     2
272
     2
274
     3
278
    44
283
     0
284
     8
340
11
  0
DIMSTYLE
105
19C
330
A
100
AcDbSymbolTableRecord
100
AcDbDimStyleTableRecord
  2
SLDDIMSTYLE0
 70
     0
 41
2.5
 44
0.0
 45
0.000000001
146
2.5
147
0.0
173
     1
178
     0
271
     0
272
     0
276
     2
340
11
  0
DIMSTYLE
105
1A1
102
{ACAD_REACTORS
330
1A0
330
1AB
330
1B5
330
1BF
330
1C9
330
1D3
330
1DC
330
2C1
330
2D8
102
}
330
A
100
AcDbSymbolTableRecord
100
AcDbDimStyleTableRecord
  2
SLDDIMSTYLE1
 70
     0
 41
2.5
 44
0.0
 45
0.000000001
 73
     0
 74
     0
 77
     1
 78
    12
 79
     3
140
3.0
147
0.75
173
     1
178
     0
271
     3
272
     3
276
     2
284
    12
340
7B
  0
DIMSTYLE
105
2CC
102
{ACAD_REACTORS
330
2CB
102
}
330
A
100
AcDbSymbolTableRecord
100
AcDbDimStyleTableRecord
  2
SLDDIMSTYLE2
 70
     0
 41
2.5
 44
0.0
 45
0.000000001
 73
     0
 74
     0
 77
     1
 78
    12
 79
     3
140
3.0
147
0.75
172
     1
173
     1
178
     0
271
     3
272
     3
276
     2
284
    12
289
     0
340
7B
  0
ENDTAB
  0
TABLE
  2
BLOCK_RECORD
  5
1
330
0
100
AcDbSymbolTable
 70
    26
  0
BLOCK_RECORD
  5
1F
330
1
100
AcDbSymbolTableRecord
100
AcDbBlockTableRecord
  2
*Model_Space
340
22
  0
BLOCK_RECORD
  5
1B
330
1
100
AcDbSymbolTableRecord
100
AcDbBlockTableRecord
  2
*Paper_Space
340
1E
  0
BLOCK_RECORD
  5
23
330
1
100
AcDbSymbolTableRecord
100
AcDbBlockTableRecord
  2
*Paper_Space0
340
26
  0
BLOCK_RECORD
  5
75
330
1
100
AcDbSymbolTableRecord
100
AcDbBlockTableRecord
  2
Text Zuluft
340
0
102
{BLKREFS
331
19E
102
}
  0
BLOCK_RECORD
  5
78
330
1
100
AcDbSymbolTableRecord
100
AcDbBlockTableRecord
  2
SW_NOTE_0
340
0
102
{BLKREFS
331
80
102
}
  0
BLOCK_RECORD
  5
81
330
1
100
AcDbSymbolTableRecord
100
AcDbBlockTableRecord
  2
Text Abluft
340
0
102
{BLKREFS
331
19B
102
}
  0
BLOCK_RECORD
  5
84
330
1
100
AcDbSymbolTableRecord
100
AcDbBlockTableRecord
  2
SW_NOTE_1
340
0
102
{BLKREFS
331
8B
102
}
  0
BLOCK_RECORD
  5
8C
330
1
100
AcDbSymbolTableRecord
100
AcDbBlockTableRecord
  2
Änderungsindex a
340
0
  0
BLOCK_RECORD
  5
8F
330
1
100
AcDbSymbolTableRecord
100
AcDbBlockTableRecord
  2
SW_NOTE_2
340
0
102
{BLKREFS
331
94
102
}
  0
BLOCK_RECORD
  5
124
330
1
100
AcDbSymbolTableRecord
100
AcDbBlockTableRecord
  2
SW_NOTE_3
340
0
102
{BLKREFS
331
12D
102
}
  0
BLOCK_RECORD
  5
12F
330
1
100
AcDbSymbolTableRecord
100
AcDbBlockTableRecord
  2
SW_NOTE_4
340
0
102
{BLKREFS
331
134
102
}
  0
BLOCK_RECORD
  5
1A2
330
1
100
AcDbSymbolTableRecord
100
AcDbBlockTableRecord
  2
_D
340
0
  0
BLOCK_RECORD
  5
1AC
330
1
100
AcDbSymbolTableRecord
100
AcDbBlockTableRecord
  2
_D_1
340
0
  0
BLOCK_RECORD
  5
1B6
330
1
100
AcDbSymbolTableRecord
100
AcDbBlockTableRecord
  2
_D_2
340
0
  0
BLOCK_RECORD
  5
1C0
330
1
100
AcDbSymbolTableRecord
100
AcDbBlockTableRecord
  2
_D_3
340
0
  0
BLOCK_RECORD
  5
1CA
330
1
100
AcDbSymbolTableRecord
100
AcDbBlockTableRecord
  2
_D_4
340
0
  0
BLOCK_RECORD
  5
1D4
330
1
100
AcDbSymbolTableRecord
100
AcDbBlockTableRecord
  2
_D_5
340
0
  0
BLOCK_RECORD
  5
1DD
330
1
100
AcDbSymbolTableRecord
100
AcDbBlockTableRecord
  2
_D_6
340
0
  0
BLOCK_RECORD
  5
1E6
330
1
100
AcDbSymbolTableRecord
100
AcDbBlockTableRecord
  2
SW_CENTERMARKSYMBOL_0
340
0
102
{BLKREFS
331
1F1
102
}
  0
BLOCK_RECORD
  5
1F2
330
1
100
AcDbSymbolTableRecord
100
AcDbBlockTableRecord
  2
SW_CENTERMARKSYMBOL_1
340
0
102
{BLKREFS
331
1FD
102
}
  0
BLOCK_RECORD
  5
1FE
330
1
100
AcDbSymbolTableRecord
100
AcDbBlockTableRecord
  2
SW_CENTERMARKSYMBOL_2
340
0
102
{BLKREFS
331
209
102
}
  0
BLOCK_RECORD
  5
2C2
330
1
100
AcDbSymbolTableRecord
100
AcDbBlockTableRecord
  2
_D_7
340
0
  0
BLOCK_RECORD
  5
2CD
330
1
100
AcDbSymbolTableRecord
100
AcDbBlockTableRecord
  2
_D_8
340
0
  0
BLOCK_RECORD
  5
2D9
330
1
100
AcDbSymbolTableRecord
100
AcDbBlockTableRecord
  2
_D_9
340
0
  0
BLOCK_RECORD
  5
2E2
330
1
100
AcDbSymbolTableRecord
100
AcDbBlockTableRecord
  2
SW_CENTERMARKSYMBOL_3
340
0
102
{BLKREFS
331
2ED
102
}
  0
BLOCK_RECORD
  5
2EE
330
1
100
AcDbSymbolTableRecord
100
AcDbBlockTableRecord
  2
SW_CENTERMARKSYMBOL_4
340
0
102
{BLKREFS
331
2F9
102
}
  0
BLOCK_RECORD
  5
2FA
330
1
100
AcDbSymbolTableRecord
100
AcDbBlockTableRecord
  2
SW_CENTERMARKSYMBOL_5
340
0
102
{BLKREFS
331
305
102
}
  0
BLOCK_RECORD
  5
306
330
1
100
AcDbSymbolTableRecord
100
AcDbBlockTableRecord
  2
SW_CENTERMARKSYMBOL_6
340
0
102
{BLKREFS
331
311
102
}
  0
ENDTAB
  0
ENDSEC
  0
SECTION
  2
BLOCKS
  0
BLOCK
  5
20
330
1F
100
AcDbEntity
  8
0
100
AcDbBlockBegin
  2
*Model_Space
 70
     0
 10
0.0
 20
0.0
 30
0.0
  3
*Model_Space
  1

  0
ENDBLK
  5
21
330
1F
100
AcDbEntity
  8
0
100
AcDbBlockEnd
  0
BLOCK
  5
1C
330
1B
100
AcDbEntity
 67
     1
  8
0
100
AcDbBlockBegin
  2
*Paper_Space
 70
     0
 10
0.0
 20
0.0
 30
0.0
  3
*Paper_Space
  1

  0
ENDBLK
  5
1D
330
1B
100
AcDbEntity
 67
     1
  8
0
100
AcDbBlockEnd
  0
BLOCK
  5
24
330
23
100
AcDbEntity
  8
0
100
AcDbBlockBegin
  2
*Paper_Space0
 70
     0
 10
0.0
 20
0.0
 30
0.0
  3
*Paper_Space0
  1

  0
ENDBLK
  5
25
330
23
100
AcDbEntity
  8
0
100
AcDbBlockEnd
  0
BLOCK
  5
76
330
75
100
AcDbEntity
  8
0
100
AcDbBlockBegin
  2
Text Zuluft
 70
     0
 10
0.0
 20
0.0
 30
0.0
  3
Text Zuluft
  1

  0
INSERT
  5
80
330
75
100
AcDbEntity
  8
0
  6
SLD-Durchgehend
 62
     7
370
     0
100
AcDbBlockReference
  2
SW_NOTE_0
 10
0.0
 20
7.9354514905
 30
0.0
  0
ENDBLK
  5
77
330
75
100
AcDbEntity
  8
0
100
AcDbBlockEnd
  0
BLOCK
  5
79
330
78
100
AcDbEntity
  8
0
100
AcDbBlockBegin
  2
SW_NOTE_0
 70
     0
 10
0.0
 20
0.0
 30
0.0
  3
SW_NOTE_0
  1

  0
MTEXT
  5
7C
330
78
100
AcDbEntity
  8
0
  6
SLD-Durchgehend
 62
     0
370
     0
100
AcDbMText
 10
0.0
 20
3.8672032193
 30
0.0
 40
3.0
 41
0.0
 71
     1
 72
     1
  1
G 1/4
  7
SLDTEXTSTYLE0
 73
     1
 44
1.0
  0
MTEXT
  5
7D
330
78
100
AcDbEntity
  8
0
  6
SLD-Durchgehend
 62
     0
370
     0
100
AcDbMText
 10
0.0
 20
-0.1327969707
 30
0.0
 40
3.0
 41
0.0
 71
     1
 72
     1
  1
Zuluft
  7
SLDTEXTSTYLE0
 73
     1
 44
1.0
  0
MTEXT
  5
7E
330
78
100
AcDbEntity
  8
0
  6
SLD-Durchgehend
 62
     0
370
     0
100
AcDbMText
 10
0.0
 20
-4.1327971607
 30
0.0
 40
3.0
 41
0.0
 71
     1
 72
     1
  1
Air supply
  7
SLDTEXTSTYLE0
 73
     1
 44
1.0
  0
MTEXT
  5
7F
330
78
100
AcDbEntity
  8
0
  6
SLD-Durchgehend
 62
     0
370
     0
100
AcDbMText
 10
0.0
 20
-8.1327973507
 30
0.0
 40
3.0
 41
0.0
 71
     1
 72
     1
  1
Arrivée d´air
  7
SLDTEXTSTYLE0
 73
     1
 44
1.0
  0
ENDBLK
  5
7A
330
78
100
AcDbEntity
  8
0
100
AcDbBlockEnd
  0
BLOCK
  5
82
330
81
100
AcDbEntity
  8
0
100
AcDbBlockBegin
  2
Text Abluft
 70
     0
 10
0.0
 20
0.0
 30
0.0
  3
Text Abluft
  1

  0
INSERT
  5
8B
330
81
100
AcDbEntity
  8
0
  6
SLD-Durchgehend
 62
     7
370
     0
100
AcDbBlockReference
  2
SW_NOTE_1
 10
0.0438152488
 20
7.8085249423
 30
0.0
  0
ENDBLK
  5
83
330
81
100
AcDbEntity
  8
0
100
AcDbBlockEnd
  0
BLOCK
  5
85
330
84
100
AcDbEntity
  8
0
100
AcDbBlockBegin
  2
SW_NOTE_1
 70
     0
 10
0.0
 20
0.0
 30
0.0
  3
SW_NOTE_1
  1

  0
MTEXT
  5
87
330
84
100
AcDbEntity
  8
0
  6
SLD-Durchgehend
 62
     0
370
     0
100
AcDbMText
 10
0.0
 20
3.8672032193
 30
0.0
 40
3.0
 41
0.0
 71
     1
 72
     1
  1
G 1/4
  7
SLDTEXTSTYLE0
 73
     1
 44
1.0
  0
MTEXT
  5
88
330
84
100
AcDbEntity
  8
0
  6
SLD-Durchgehend
 62
     0
370
     0
100
AcDbMText
 10
0.0
 20
-0.1327969707
 30
0.0
 40
3.0
 41
0.0
 71
     1
 72
     1
  1
Abluft
  7
SLDTEXTSTYLE0
 73
     1
 44
1.0
  0
MTEXT
  5
89
330
84
100
AcDbEntity
  8
0
  6
SLD-Durchgehend
 62
     0
370
     0
100
AcDbMText
 10
0.0
 20
-4.1327971607
 30
0.0
 40
3.0
 41
0.0
 71
     1
 72
     1
  1
Exhaust
  7
SLDTEXTSTYLE0
 73
     1
 44
1.0
  0
MTEXT
  5
8A
330
84
100
AcDbEntity
  8
0
  6
SLD-Durchgehend
 62
     0
370
     0
100
AcDbMText
 10
0.0
 20
-8.1327973507
 30
0.0
 40
3.0
 41
0.0
 71
     1
 72
     1
  1
Echappement
  7
SLDTEXTSTYLE0
 73
     1
 44
1.0
  0
ENDBLK
  5
86
330
84
100
AcDbEntity
  8
0
100
AcDbBlockEnd
  0
BLOCK
  5
8D
330
8C
100
AcDbEntity
  8
0
100
AcDbBlockBegin
  2
Änderungsindex a
 70
     0
 10
0.0
 20
0.0
 30
0.0
  3
Änderungsindex a
  1

  0
INSERT
  5
94
330
8C
100
AcDbEntity
  8
0
  6
Continuous
 62
     7
370
     0
100
AcDbBlockReference
  2
SW_NOTE_2
 10
-2.6785442717
 20
-4.2179726306
 30
0.0
  0
ENDBLK
  5
8E
330
8C
100
AcDbEntity
  8
0
100
AcDbBlockEnd
  0
BLOCK
  5
90
330
8F
100
AcDbEntity
  8
0
100
AcDbBlockBegin
  2
SW_NOTE_2
 70
     0
 10
0.0
 20
0.0
 30
0.0
  3
SW_NOTE_2
  1

  0
CIRCLE
  5
92
330
8F
100
AcDbEntity
  8
0
  6
SLD-Durchgehend
 62
     0
370
     0
100
AcDbCircle
 10
2.2903442717
 20
4.4413809806
 30
0.0
 40
4.60970460902865
  0
MTEXT
  5
93
330
8F
100
AcDbEntity
  8
0
  6
Continuous
 62
     0
370
     0
100
AcDbMText
 10
0.0
 20
7.7344064386
 30
0.0
 40
6.0
 41
0.0
 71
     1
 72
     1
  1
a
  7
SLDTEXTSTYLE0
 73
     1
 44
1.0
  0
ENDBLK
  5
91
330
8F
100
AcDbEntity
  8
0
100
AcDbBlockEnd
  0
BLOCK
  5
125
330
124
100
AcDbEntity
  8
0
100
AcDbBlockBegin
  2
SW_NOTE_3
 70
     0
 10
0.0
 20
0.0
 30
0.0
  3
SW_NOTE_3
  1

  0
MTEXT
  5
127
330
124
100
AcDbEntity
  8
0
  6
Continuous
 62
     0
370
     0
100
AcDbMText
 10
0.0
 20
2.3874608764
 30
0.0
 40
1.8520833333
 41
0.0
 71
     1
 72
     1
  1
Tel.: +49 6134 2901-0, www.
  7
SLDTEXTSTYLE0
 73
     1
 44
1.0
  0
MTEXT
  5
129
330
124
100
AcDbEntity
  8
0
  6
Continuous
 62
     0
370
     0
100
AcDbMText
 10
31.6226072609
 20
2.2325681125
 30
0.0
 40
1.8520833333
 41
0.0
 71
     1
 72
     1
  1
Netter
  7
SLDTEXTSTYLE1
 73
     1
 44
1.0
  0
MTEXT
  5
12B
330
124
100
AcDbEntity
  8
0
  6
Continuous
 62
     0
370
     0
100
AcDbMText
 10
39.4425168633
 20
2.3157006648
 30
0.0
 40
1.8520833333
 41
0.0
 71
     1
 72
     1
  1
Vibration
  7
SLDTEXTSTYLE2
 73
     1
 44
1.0
  0
MTEXT
  5
12C
330
124
100
AcDbEntity
  8
0
  6
Continuous
 62
     0
370
     0
100
AcDbMText
 10
49.1865314543
 20
2.3874608764
 30
0.0
 40
1.8520833333
 41
0.0
 71
     1
 72
     1
  1
.com
  7
SLDTEXTSTYLE0
 73
     1
 44
1.0
  0
ENDBLK
  5
126
330
124
100
AcDbEntity
  8
0
100
AcDbBlockEnd
  0
BLOCK
  5
130
330
12F
100
AcDbEntity
  8
0
100
AcDbBlockBegin
  2
SW_NOTE_4
 70
     0
 10
0.0
 20
0.0
 30
0.0
  3
SW_NOTE_4
  1

  0
MTEXT
  5
132
330
12F
100
AcDbEntity
  8
0
  6
Continuous
 62
     0
370
     0
100
AcDbMText
 10
0.0
 20
4.8649193548
 30
0.0
 40
3.96875
 41
0.0
 71
     1
 72
     1
  1
Netter
  7
SLDTEXTSTYLE1
 73
     1
 44
1.0
  0
MTEXT
  5
133
330
12F
100
AcDbEntity
  8
0
  6
Continuous
 62
     0
370
     0
100
AcDbMText
 10
16.7569443583
 20
5.0430605384
 30
0.0
 40
3.96875
 41
0.0
 71
     1
 72
     1
  1
Vibration
  7
SLDTEXTSTYLE2
 73
     1
 44
1.0
  0
ENDBLK
  5
131
330
12F
100
AcDbEntity
  8
0
100
AcDbBlockEnd
  0
BLOCK
  5
1A3
330
1A2
100
AcDbEntity
  8
0
100
AcDbBlockBegin
  2
_D
 70
     0
 10
0.0
 20
0.0
 30
0.0
  3
_D
  1

  0
SOLID
  5
1A5
330
1A2
100
AcDbEntity
  8
0
  6
SLD-Durchgehend
 62
     7
370
     0
100
AcDbTrace
 10
47.887220776
 20
149.4498250421
 30
0.0
 11
50.387220776
 21
149.0098250421
 31
0.0
 12
50.387220776
 22
149.8898250421
 32
0.0
 13
50.387220776
 23
149.8898250421
 33
0.0
  0
SOLID
  5
1A6
330
1A2
100
AcDbEntity
  8
0
  6
SLD-Durchgehend
 62
     7
370
     0
100
AcDbTrace
 10
160.887220776
 20
149.4498250421
 30
0.0
 11
158.387220776
 21
149.8898250421
 31
0.0
 12
158.387220776
 22
149.0098250421
 32
0.0
 13
158.387220776
 23
149.0098250421
 33
0.0
  0
LINE
  5
1A7
330
1A2
100
AcDbEntity
  8
0
  6
SLD-Durchgehend
 62
     7
370
     0
100
AcDbLine
 10
47.887220776
 20
169.0465435656
 30
0.0
 11
47.887220776
 21
148.4498250421
 31
0.0
  0
LINE
  5
1A8
330
1A2
100
AcDbEntity
  8
0
  6
SLD-Durchgehend
 62
     7
370
     0
100
AcDbLine
 10
160.887220776
 20
169.0465435656
 30
0.0
 11
160.887220776
 21
148.4498250421
 31
0.0
  0
LINE
  5
1A9
330
1A2
100
AcDbEntity
  8
0
  6
SLD-Durchgehend
 62
     7
370
     0
100
AcDbLine
 10
47.887220776
 20
149.4498250421
 30
0.0
 11
160.887220776
 21
149.4498250421
 31
0.0
  0
MTEXT
  5
1AA
330
1A2
100
AcDbEntity
  8
0
  6
SLD-Durchgehend
 62
     7
370
     0
100
AcDbMText
 10
100.950270776
 20
153.3170284942
 30
0.0
 40
3.0
 41
0.0
 71
     1
 72
     1
  1
113
  7
SLDTEXTSTYLE0
 73
     1
 44
1.0
  0
ENDBLK
  5
1A4
330
1A2
100
AcDbEntity
  8
0
100
AcDbBlockEnd
  0
BLOCK
  5
1AD
330
1AC
100
AcDbEntity
  8
0
100
AcDbBlockBegin
  2
_D_1
 70
     0
 10
0.0
 20
0.0
 30
0.0
  3
_D_1
  1

  0
SOLID
  5
1AF
330
1AC
100
AcDbEntity
  8
0
  6
SLD-Durchgehend
 62
     7
370
     0
100
AcDbTrace
 10
172.3088915392
 20
186.0465435656
 30
0.0
 11
171.8688915392
 21
183.5465435656
 31
0.0
 12
172.7488915392
 22
183.5465435656
 32
0.0
 13
172.7488915392
 23
183.5465435656
 33
0.0
  0
SOLID
  5
1B0
330
1AC
100
AcDbEntity
  8
0
  6
SLD-Durchgehend
 62
     7
370
     0
100
AcDbTrace
 10
172.3088915392
 20
170.0465435656
 30
0.0
 11
172.7488915392
 21
172.5465435656
 31
0.0
 12
171.8688915392
 22
172.5465435656
 32
0.0
 13
171.8688915392
 23
172.5465435656
 33
0.0
  0
LINE
  5
1B1
330
1AC
100
AcDbEntity
  8
0
  6
SLD-Durchgehend
 62
     7
370
     0
100
AcDbLine
 10
161.887220776
 20
186.0465435656
 30
0.0
 11
173.3088915392
 21
186.0465435656
 31
0.0
  0
LINE
  5
1B2
330
1AC
100
AcDbEntity
  8
0
  6
SLD-Durchgehend
 62
     7
370
     0
100
AcDbLine
 10
161.887220776
 20
170.0465435656
 30
0.0
 11
173.3088915392
 21
170.0465435656
 31
0.0
  0
LINE
  5
1B3
330
1AC
100
AcDbEntity
  8
0
  6
SLD-Durchgehend
 62
     7
370
     0
100
AcDbLine
 10
172.3088915392
 20
186.0465435656
 30
0.0
 11
172.3088915392
 21
170.0465435656
 31
0.0
  0
MTEXT
  5
1B4
330
1AC
100
AcDbEntity
  8
0
  6
SLD-Durchgehend
 62
     7
370
     0
100
AcDbMText
 10
168.441688087
 20
175.7563435656
 30
0.0
 40
3.0
 41
0.0
 71
     1
 72
     1
  1
16
  7
SLDTEXTSTYLE0
 11
-7.044195017643634E-15
 21
1.0
 31
0.0
 73
     1
 44
1.0
  0
ENDBLK
  5
1AE
330
1AC
100
AcDbEntity
  8
0
100
AcDbBlockEnd
  0
BLOCK
  5
1B7
330
1B6
100
AcDbEntity
  8
0
100
AcDbBlockBegin
  2
_D_2
 70
     0
 10
0.0
 20
0.0
 30
0.0
  3
_D_2
  1

  0
SOLID
  5
1B9
330
1B6
100
AcDbEntity
  8
0
  6
SLD-Durchgehend
 62
     7
370
     0
100
AcDbTrace
 10
184.887220776
 20
235.0465435656
 30
0.0
 11
184.447220776
 21
232.5465435656
 31
0.0
 12
185.327220776
 22
232.5465435656
 32
0.0
 13
185.327220776
 23
232.5465435656
 33
0.0
  0
SOLID
  5
1BA
330
1B6
100
AcDbEntity
  8
0
  6
SLD-Durchgehend
 62
     7
370
     0
100
AcDbTrace
 10
184.887220776
 20
170.0465435656
 30
0.0
 11
185.327220776
 21
172.5465435656
 31
0.0
 12
184.447220776
 22
172.5465435656
 32
0.0
 13
184.447220776
 23
172.5465435656
 33
0.0
  0
LINE
  5
1BB
330
1B6
100
AcDbEntity
  8
0
  6
SLD-Durchgehend
 62
     7
370
     0
100
AcDbLine
 10
137.887220776
 20
235.0465435656
 30
0.0
 11
185.887220776
 21
235.0465435656
 31
0.0
  0
LINE
  5
1BC
330
1B6
100
AcDbEntity
  8
0
  6
SLD-Durchgehend
 62
     7
370
     0
100
AcDbLine
 10
161.887220776
 20
170.0465435656
 30
0.0
 11
185.887220776
 21
170.0465435656
 31
0.0
  0
LINE
  5
1BD
330
1B6
100
AcDbEntity
  8
0
  6
SLD-Durchgehend
 62
     7
370
     0
100
AcDbLine
 10
184.887220776
 20
235.0465435656
 30
0.0
 11
184.887220776
 21
170.0465435656
 31
0.0
  0
MTEXT
  5
1BE
330
1B6
100
AcDbEntity
  8
0
  6
SLD-Durchgehend
 62
     7
370
     0
100
AcDbMText
 10
181.0200173239
 20
200.2563435656
 30
0.0
 40
3.0
 41
0.0
 71
     1
 72
     1
  1
65
  7
SLDTEXTSTYLE0
 11
-7.044195017643634E-15
 21
1.0
 31
0.0
 73
     1
 44
1.0
  0
ENDBLK
  5
1B8
330
1B6
100
AcDbEntity
  8
0
100
AcDbBlockEnd
  0
BLOCK
  5
1C1
330
1C0
100
AcDbEntity
  8
0
100
AcDbBlockBegin
  2
_D_3
 70
     0
 10
0.0
 20
0.0
 30
0.0
  3
_D_3
  1

  0
SOLID
  5
1C3
330
1C0
100
AcDbEntity
  8
0
  6
SLD-Durchgehend
 62
     7
370
     0
100
AcDbTrace
 10
198.887220776
 20
270.0465435656
 30
0.0
 11
198.447220776
 21
267.5465435656
 31
0.0
 12
199.327220776
 22
267.5465435656
 32
0.0
 13
199.327220776
 23
267.5465435656
 33
0.0
  0
SOLID
  5
1C4
330
1C0
100
AcDbEntity
  8
0
  6
SLD-Durchgehend
 62
     7
370
     0
100
AcDbTrace
 10
198.887220776
 20
170.0465435656
 30
0.0
 11
199.327220776
 21
172.5465435656
 31
0.0
 12
198.447220776
 22
172.5465435656
 32
0.0
 13
198.447220776
 23
172.5465435656
 33
0.0
  0
LINE
  5
1C5
330
1C0
100
AcDbEntity
  8
0
  6
SLD-Durchgehend
 62
     7
370
     0
100
AcDbLine
 10
98.387220776
 20
270.0465435656
 30
0.0
 11
199.887220776
 21
270.0465435656
 31
0.0
  0
LINE
  5
1C6
330
1C0
100
AcDbEntity
  8
0
  6
SLD-Durchgehend
 62
     7
370
     0
100
AcDbLine
 10
161.887220776
 20
170.0465435656
 30
0.0
 11
199.887220776
 21
170.0465435656
 31
0.0
  0
LINE
  5
1C7
330
1C0
100
AcDbEntity
  8
0
  6
SLD-Durchgehend
 62
     7
370
     0
100
AcDbLine
 10
198.887220776
 20
270.0465435656
 30
0.0
 11
198.887220776
 21
170.0465435656
 31
0.0
  0
MTEXT
  5
1C8
330
1C0
100
AcDbEntity
  8
0
  6
SLD-Durchgehend
 62
     7
370
     0
100
AcDbMText
 10
195.0200173239
 20
216.6095935656
 30
0.0
 40
3.0
 41
0.0
 71
     1
 72
     1
  1
100
  7
SLDTEXTSTYLE0
 11
-7.044195017643634E-15
 21
1.0
 31
0.0
 73
     1
 44
1.0
  0
ENDBLK
  5
1C2
330
1C0
100
AcDbEntity
  8
0
100
AcDbBlockEnd
  0
BLOCK
  5
1CB
330
1CA
100
AcDbEntity
  8
0
100
AcDbBlockBegin
  2
_D_4
 70
     0
 10
0.0
 20
0.0
 30
0.0
  3
_D_4
  1

  0
SOLID
  5
1CD
330
1CA
100
AcDbEntity
  8
0
  6
SLD-Durchgehend
 62
     7
370
     0
100
AcDbTrace
 10
71.887220776
 20
277.4656599958
 30
0.0
 11
74.387220776
 21
277.0256599958
 31
0.0
 12
74.387220776
 22
277.9056599958
 32
0.0
 13
74.387220776
 23
277.9056599958
 33
0.0
  0
SOLID
  5
1CE
330
1CA
100
AcDbEntity
  8
0
  6
SLD-Durchgehend
 62
     7
370
     0
100
AcDbTrace
 10
136.887220776
 20
277.4656599958
 30
0.0
 11
134.387220776
 21
277.9056599958
 31
0.0
 12
134.387220776
 22
277.0256599958
 32
0.0
 13
134.387220776
 23
277.0256599958
 33
0.0
  0
LINE
  5
1CF
330
1CA
100
AcDbEntity
  8
0
  6
SLD-Durchgehend
 62
     7
370
     0
100
AcDbLine
 10
71.887220776
 20
236.0465435656
 30
0.0
 11
71.887220776
 21
278.4656599958
 31
0.0
  0
LINE
  5
1D0
330
1CA
100
AcDbEntity
  8
0
  6
SLD-Durchgehend
 62
     7
370
     0
100
AcDbLine
 10
136.887220776
 20
236.0465435656
 30
0.0
 11
136.887220776
 21
278.4656599958
 31
0.0
  0
LINE
  5
1D1
330
1CA
100
AcDbEntity
  8
0
  6
SLD-Durchgehend
 62
     7
370
     0
100
AcDbLine
 10
71.887220776
 20
277.4656599958
 30
0.0
 11
136.887220776
 21
277.4656599958
 31
0.0
  0
MTEXT
  5
1D2
330
1CA
100
AcDbEntity
  8
0
  6
SLD-Durchgehend
 62
     7
370
     0
100
AcDbMText
 10
102.097020776
 20
281.3328634479
 30
0.0
 40
3.0
 41
0.0
 71
     1
 72
     1
  1
65
  7
SLDTEXTSTYLE0
 73
     1
 44
1.0
  0
ENDBLK
  5
1CC
330
1CA
100
AcDbEntity
  8
0
100
AcDbBlockEnd
  0
BLOCK
  5
1D5
330
1D4
100
AcDbEntity
  8
0
100
AcDbBlockBegin
  2
_D_5
 70
     0
 10
0.0
 20
0.0
 30
0.0
  3
_D_5
  1

  0
SOLID
  5
1D7
330
1D4
100
AcDbEntity
  8
0
  6
SLD-Durchgehend
 62
     7
370
     0
100
AcDbTrace
 10
67.3865303829
 20
170.0465435656
 30
0.0
 11
67.8265303829
 21
172.5465435656
 31
0.0
 12
66.9465303829
 22
172.5465435656
 32
0.0
 13
66.9465303829
 23
172.5465435656
 33
0.0
  0
SOLID
  5
1D8
330
1D4
100
AcDbEntity
  8
0
  6
SLD-Durchgehend
 62
     7
370
     0
100
AcDbTrace
 10
67.3865303829
 20
179.0465435656
 30
0.0
 11
66.9465303829
 21
176.5465435656
 31
0.0
 12
67.8265303829
 22
176.5465435656
 32
0.0
 13
67.8265303829
 23
176.5465435656
 33
0.0
  0
LINE
  5
1D9
330
1D4
100
AcDbEntity
  8
0
  6
SLD-Durchgehend
 62
     7
370
     0
100
AcDbLine
 10
76.387220776
 20
179.0465435656
 30
0.0
 11
66.3865303829
 21
179.0465435656
 31
0.0
  0
LINE
  5
1DA
330
1D4
100
AcDbEntity
  8
0
  6
SLD-Durchgehend
 62
     7
370
     0
100
AcDbLine
 10
67.3865303829
 20
170.0465435656
 30
0.0
 11
67.3865303829
 21
179.0465435656
 31
0.0
  0
MTEXT
  5
1DB
330
1D4
100
AcDbEntity
  8
0
  6
SLD-Durchgehend
 62
     7
370
     0
100
AcDbMText
 10
63.5193269307
 20
173.4007102773
 30
0.0
 40
3.0
 41
0.0
 71
     1
 72
     1
  1
9
  7
SLDTEXTSTYLE0
 11
5.053215498074303E-16
 21
1.0
 31
0.0
 73
     1
 44
1.0
  0
ENDBLK
  5
1D6
330
1D4
100
AcDbEntity
  8
0
100
AcDbBlockEnd
  0
BLOCK
  5
1DE
330
1DD
100
AcDbEntity
  8
0
100
AcDbBlockBegin
  2
_D_6
 70
     0
 10
0.0
 20
0.0
 30
0.0
  3
_D_6
  1

  0
SOLID
  5
1E0
330
1DD
100
AcDbEntity
  8
0
  6
SLD-Durchgehend
 62
     7
370
     0
100
AcDbTrace
 10
79.387220776
 20
158.9537472862
 30
0.0
 11
81.887220776
 21
158.5137472862
 31
0.0
 12
81.887220776
 22
159.3937472862
 32
0.0
 13
81.887220776
 23
159.3937472862
 33
0.0
  0
SOLID
  5
1E1
330
1DD
100
AcDbEntity
  8
0
  6
SLD-Durchgehend
 62
     7
370
     0
100
AcDbTrace
 10
129.387220776
 20
158.9537472862
 30
0.0
 11
126.887220776
 21
159.3937472862
 31
0.0
 12
126.887220776
 22
158.5137472862
 32
0.0
 13
126.887220776
 23
158.5137472862
 33
0.0
  0
LINE
  5
1E2
330
1DD
100
AcDbEntity
  8
0
  6
SLD-Durchgehend
 62
     7
370
     0
100
AcDbLine
 10
79.387220776
 20
176.0465435656
 30
0.0
 11
79.387220776
 21
157.9537472862
 31
0.0
  0
LINE
  5
1E3
330
1DD
100
AcDbEntity
  8
0
  6
SLD-Durchgehend
 62
     7
370
     0
100
AcDbLine
 10
129.387220776
 20
176.0465435656
 30
0.0
 11
129.387220776
 21
157.9537472862
 31
0.0
  0
LINE
  5
1E4
330
1DD
100
AcDbEntity
  8
0
  6
SLD-Durchgehend
 62
     7
370
     0
100
AcDbLine
 10
79.387220776
 20
158.9537472862
 30
0.0
 11
129.387220776
 21
158.9537472862
 31
0.0
  0
MTEXT
  5
1E5
330
1DD
100
AcDbEntity
  8
0
  6
SLD-Durchgehend
 62
     7
370
     0
100
AcDbMText
 10
102.0955541994
 20
162.8209507383
 30
0.0
 40
3.0
 41
0.0
 71
     1
 72
     1
  1
50
  7
SLDTEXTSTYLE0
 73
     1
 44
1.0
  0
ENDBLK
  5
1DF
330
1DD
100
AcDbEntity
  8
0
100
AcDbBlockEnd
  0
BLOCK
  5
1E7
330
1E6
100
AcDbEntity
  8
0
100
AcDbBlockBegin
  2
SW_CENTERMARKSYMBOL_0
 70
     0
 10
0.0
 20
0.0
 30
0.0
  3
SW_CENTERMARKSYMBOL_0
  1

  0
LINE
  5
1E9
330
1E6
100
AcDbEntity
  8
0
  6
SLD-Durchgehend
 62
     0
370
     0
100
AcDbLine
 10
0.0
 20
0.0
 30
0.0
 11
0.0
 21
1.0
 31
0.0
  0
LINE
  5
1EA
330
1E6
100
AcDbEntity
  8
0
  6
SLD-Durchgehend
 62
     0
370
     0
100
AcDbLine
 10
0.0
 20
0.0
 30
0.0
 11
-1.0
 21
0.0
 31
0.0
  0
LINE
  5
1EB
330
1E6
100
AcDbEntity
  8
0
  6
SLD-Durchgehend
 62
     0
370
     0
100
AcDbLine
 10
0.0
 20
0.0
 30
0.0
 11
0.0
 21
-1.0
 31
0.0
  0
LINE
  5
1EC
330
1E6
100
AcDbEntity
  8
0
  6
SLD-Durchgehend
 62
     0
370
     0
100
AcDbLine
 10
0.0
 20
0.0
 30
0.0
 11
1.0
 21
0.0
 31
0.0
  0
LINE
  5
1ED
330
1E6
100
AcDbEntity
  8
0
  6
SLD-Durchgehend
 62
     0
370
     0
100
AcDbLine
 10
0.0
 20
2.0
 30
0.0
 11
0.0
 21
23.25
 31
0.0
  0
LINE
  5
1EE
330
1E6
100
AcDbEntity
  8
0
  6
SLD-Durchgehend
 62
     0
370
     0
100
AcDbLine
 10
-2.0
 20
0.0
 30
0.0
 11
-23.25
 21
0.0
 31
0.0
  0
LINE
  5
1EF
330
1E6
100
AcDbEntity
  8
0
  6
SLD-Durchgehend
 62
     0
370
     0
100
AcDbLine
 10
0.0
 20
-2.0
 30
0.0
 11
0.0
 21
-23.25
 31
0.0
  0
LINE
  5
1F0
330
1E6
100
AcDbEntity
  8
0
  6
SLD-Durchgehend
 62
     0
370
     0
100
AcDbLine
 10
2.0
 20
0.0
 30
0.0
 11
23.25
 21
0.0
 31
0.0
  0
ENDBLK
  5
1E8
330
1E6
100
AcDbEntity
  8
0
100
AcDbBlockEnd
  0
BLOCK
  5
1F3
330
1F2
100
AcDbEntity
  8
0
100
AcDbBlockBegin
  2
SW_CENTERMARKSYMBOL_1
 70
     0
 10
0.0
 20
0.0
 30
0.0
  3
SW_CENTERMARKSYMBOL_1
  1

  0
LINE
  5
1F5
330
1F2
100
AcDbEntity
  8
0
  6
SLD-Durchgehend
 62
     0
370
     0
100
AcDbLine
 10
0.0
 20
0.0
 30
0.0
 11
0.0
 21
1.0
 31
0.0
  0
LINE
  5
1F6
330
1F2
100
AcDbEntity
  8
0
  6
SLD-Durchgehend
 62
     0
370
     0
100
AcDbLine
 10
0.0
 20
0.0
 30
0.0
 11
-1.0
 21
0.0
 31
0.0
  0
LINE
  5
1F7
330
1F2
100
AcDbEntity
  8
0
  6
SLD-Durchgehend
 62
     0
370
     0
100
AcDbLine
 10
0.0
 20
0.0
 30
0.0
 11
0.0
 21
-1.0
 31
0.0
  0
LINE
  5
1F8
330
1F2
100
AcDbEntity
  8
0
  6
SLD-Durchgehend
 62
     0
370
     0
100
AcDbLine
 10
0.0
 20
0.0
 30
0.0
 11
1.0
 21
0.0
 31
0.0
  0
LINE
  5
1F9
330
1F2
100
AcDbEntity
  8
0
  6
SLD-Durchgehend
 62
     0
370
     0
100
AcDbLine
 10
0.0
 20
1.0
 30
0.0
 11
0.0
 21
2.0
 31
0.0
  0
LINE
  5
1FA
330
1F2
100
AcDbEntity
  8
0
  6
SLD-Durchgehend
 62
     0
370
     0
100
AcDbLine
 10
-1.0
 20
0.0
 30
0.0
 11
-2.0
 21
0.0
 31
0.0
  0
LINE
  5
1FB
330
1F2
100
AcDbEntity
  8
0
  6
SLD-Durchgehend
 62
     0
370
     0
100
AcDbLine
 10
0.0
 20
-1.0
 30
0.0
 11
0.0
 21
-2.0
 31
0.0
  0
LINE
  5
1FC
330
1F2
100
AcDbEntity
  8
0
  6
SLD-Durchgehend
 62
     0
370
     0
100
AcDbLine
 10
1.0
 20
0.0
 30
0.0
 11
2.0
 21
0.0
 31
0.0
  0
ENDBLK
  5
1F4
330
1F2
100
AcDbEntity
  8
0
100
AcDbBlockEnd
  0
BLOCK
  5
1FF
330
1FE
100
AcDbEntity
  8
0
100
AcDbBlockBegin
  2
SW_CENTERMARKSYMBOL_2
 70
     0
 10
0.0
 20
0.0
 30
0.0
  3
SW_CENTERMARKSYMBOL_2
  1

  0
LINE
  5
201
330
1FE
100
AcDbEntity
  8
0
  6
SLD-Durchgehend
 62
     0
370
     0
100
AcDbLine
 10
0.0
 20
0.0
 30
0.0
 11
0.0
 21
1.0
 31
0.0
  0
LINE
  5
202
330
1FE
100
AcDbEntity
  8
0
  6
SLD-Durchgehend
 62
     0
370
     0
100
AcDbLine
 10
0.0
 20
0.0
 30
0.0
 11
-1.0
 21
0.0
 31
0.0
  0
LINE
  5
203
330
1FE
100
AcDbEntity
  8
0
  6
SLD-Durchgehend
 62
     0
370
     0
100
AcDbLine
 10
0.0
 20
0.0
 30
0.0
 11
0.0
 21
-1.0
 31
0.0
  0
LINE
  5
204
330
1FE
100
AcDbEntity
  8
0
  6
SLD-Durchgehend
 62
     0
370
     0
100
AcDbLine
 10
0.0
 20
0.0
 30
0.0
 11
1.0
 21
0.0
 31
0.0
  0
LINE
  5
205
330
1FE
100
AcDbEntity
  8
0
  6
SLD-Durchgehend
 62
     0
370
     0
100
AcDbLine
 10
0.0
 20
1.0
 30
0.0
 11
0.0
 21
2.0
 31
0.0
  0
LINE
  5
206
330
1FE
100
AcDbEntity
  8
0
  6
SLD-Durchgehend
 62
     0
370
     0
100
AcDbLine
 10
-1.0
 20
0.0
 30
0.0
 11
-2.0
 21
0.0
 31
0.0
  0
LINE
  5
207
330
1FE
100
AcDbEntity
  8
0
  6
SLD-Durchgehend
 62
     0
370
     0
100
AcDbLine
 10
0.0
 20
-1.0
 30
0.0
 11
0.0
 21
-2.0
 31
0.0
  0
LINE
  5
208
330
1FE
100
AcDbEntity
  8
0
  6
SLD-Durchgehend
 62
     0
370
     0
100
AcDbLine
 10
1.0
 20
0.0
 30
0.0
 11
2.0
 21
0.0
 31
0.0
  0
ENDBLK
  5
200
330
1FE
100
AcDbEntity
  8
0
100
AcDbBlockEnd
  0
BLOCK
  5
2C3
330
2C2
100
AcDbEntity
  8
0
100
AcDbBlockBegin
  2
_D_7
 70
     0
 10
0.0
 20
0.0
 30
0.0
  3
_D_7
  1

  0
SOLID
  5
2C5
330
2C2
100
AcDbEntity
  8
0
  6
SLD-Durchgehend
 62
     7
370
     0
100
AcDbTrace
 10
59.387220776
 20
78.747834215
 30
0.0
 11
61.887220776
 21
78.307834215
 31
0.0
 12
61.887220776
 22
79.187834215
 32
0.0
 13
61.887220776
 23
79.187834215
 33
0.0
  0
SOLID
  5
2C6
330
2C2
100
AcDbEntity
  8
0
  6
SLD-Durchgehend
 62
     7
370
     0
100
AcDbTrace
 10
149.387220776
 20
78.747834215
 30
0.0
 11
146.887220776
 21
79.187834215
 31
0.0
 12
146.887220776
 22
78.307834215
 32
0.0
 13
146.887220776
 23
78.307834215
 33
0.0
  0
LINE
  5
2C7
330
2C2
100
AcDbEntity
  8
0
  6
SLD-Durchgehend
 62
     7
370
     0
100
AcDbLine
 10
59.387220776
 20
95.247834215
 30
0.0
 11
59.387220776
 21
77.747834215
 31
0.0
  0
LINE
  5
2C8
330
2C2
100
AcDbEntity
  8
0
  6
SLD-Durchgehend
 62
     7
370
     0
100
AcDbLine
 10
149.387220776
 20
95.247834215
 30
0.0
 11
149.387220776
 21
77.747834215
 31
0.0
  0
LINE
  5
2C9
330
2C2
100
AcDbEntity
  8
0
  6
SLD-Durchgehend
 62
     7
370
     0
100
AcDbLine
 10
59.387220776
 20
78.747834215
 30
0.0
 11
149.387220776
 21
78.747834215
 31
0.0
  0
MTEXT
  5
2CA
330
2C2
100
AcDbEntity
  8
0
  6
SLD-Durchgehend
 62
     7
370
     0
100
AcDbMText
 10
102.097020776
 20
82.6150376671
 30
0.0
 40
3.0
 41
0.0
 71
     1
 72
     1
  1
90
  7
SLDTEXTSTYLE0
 73
     1
 44
1.0
  0
ENDBLK
  5
2C4
330
2C2
100
AcDbEntity
  8
0
100
AcDbBlockEnd
  0
BLOCK
  5
2CE
330
2CD
100
AcDbEntity
  8
0
100
AcDbBlockBegin
  2
_D_8
 70
     0
 10
0.0
 20
0.0
 30
0.0
  3
_D_8
  1

  0
SOLID
  5
2D0
330
2CD
100
AcDbEntity
  8
0
  6
SLD-Durchgehend
 62
     7
370
     0
100
AcDbTrace
 10
37.7631468842
 20
106.247834215
 30
0.0
 11
38.2031468842
 21
108.747834215
 31
0.0
 12
37.3231468842
 22
108.747834215
 32
0.0
 13
37.3231468842
 23
108.747834215
 33
0.0
  0
SOLID
  5
2D1
330
2CD
100
AcDbEntity
  8
0
  6
SLD-Durchgehend
 62
     7
370
     0
100
AcDbTrace
 10
37.7631468842
 20
97.247834215
 30
0.0
 11
37.3231468842
 21
94.747834215
 31
0.0
 12
38.2031468842
 22
94.747834215
 32
0.0
 13
38.2031468842
 23
94.747834215
 33
0.0
  0
LINE
  5
2D2
330
2CD
100
AcDbEntity
  8
0
  6
SLD-Durchgehend
 62
     7
370
     0
100
AcDbLine
 10
46.887220776
 20
106.247834215
 30
0.0
 11
36.7631468842
 21
106.247834215
 31
0.0
  0
LINE
  5
2D3
330
2CD
100
AcDbEntity
  8
0
  6
SLD-Durchgehend
 62
     7
370
     0
100
AcDbLine
 10
46.887220776
 20
97.247834215
 30
0.0
 11
36.7631468842
 21
97.247834215
 31
0.0
  0
LINE
  5
2D4
330
2CD
100
AcDbEntity
  8
0
  6
SLD-Durchgehend
 62
     7
370
     0
100
AcDbLine
 10
37.7631468842
 20
106.247834215
 30
0.0
 11
37.7631468842
 21
109.747834215
 31
0.0
  0
LINE
  5
2D5
330
2CD
100
AcDbEntity
  8
0
  6
SLD-Durchgehend
 62
     7
370
     0
100
AcDbLine
 10
37.7631468842
 20
106.247834215
 30
0.0
 11
37.7631468842
 21
97.247834215
 31
0.0
  0
LINE
  5
2D6
330
2CD
100
AcDbEntity
  8
0
  6
SLD-Durchgehend
 62
     7
370
     0
100
AcDbLine
 10
37.7631468842
 20
97.247834215
 30
0.0
 11
37.7631468842
 21
93.747834215
 31
0.0
  0
MTEXT
  5
2D7
330
2CD
100
AcDbEntity
  8
0
  6
SLD-Durchgehend
 62
     7
370
     0
100
AcDbMText
 10
33.895943432
 20
100.602734215
 30
0.0
 40
3.0
 41
0.0
 71
     1
 72
     1
  1
9
  7
SLDTEXTSTYLE0
 11
-1.326144395554451E-14
 21
1.0
 31
0.0
 73
     1
 44
1.0
  0
ENDBLK
  5
2CF
330
2CD
100
AcDbEntity
  8
0
100
AcDbBlockEnd
  0
BLOCK
  5
2DA
330
2D9
100
AcDbEntity
  8
0
100
AcDbBlockBegin
  2
_D_9
 70
     0
 10
0.0
 20
0.0
 30
0.0
  3
_D_9
  1

  0
SOLID
  5
2DC
330
2D9
100
AcDbEntity
  8
0
  6
SLD-Durchgehend
 62
     7
370
     0
100
AcDbTrace
 10
26.0206931543
 20
114.747834215
 30
0.0
 11
25.5806931543
 21
112.247834215
 31
0.0
 12
26.4606931543
 22
112.247834215
 32
0.0
 13
26.4606931543
 23
112.247834215
 33
0.0
  0
SOLID
  5
2DD
330
2D9
100
AcDbEntity
  8
0
  6
SLD-Durchgehend
 62
     7
370
     0
100
AcDbTrace
 10
26.0206931543
 20
88.747834215
 30
0.0
 11
26.4606931543
 21
91.247834215
 31
0.0
 12
25.5806931543
 22
91.247834215
 32
0.0
 13
25.5806931543
 23
91.247834215
 33
0.0
  0
LINE
  5
2DE
330
2D9
100
AcDbEntity
  8
0
  6
SLD-Durchgehend
 62
     7
370
     0
100
AcDbLine
 10
46.887220776
 20
114.747834215
 30
0.0
 11
25.0206931543
 21
114.747834215
 31
0.0
  0
LINE
  5
2DF
330
2D9
100
AcDbEntity
  8
0
  6
SLD-Durchgehend
 62
     7
370
     0
100
AcDbLine
 10
46.887220776
 20
88.747834215
 30
0.0
 11
25.0206931543
 21
88.747834215
 31
0.0
  0
LINE
  5
2E0
330
2D9
100
AcDbEntity
  8
0
  6
SLD-Durchgehend
 62
     7
370
     0
100
AcDbLine
 10
26.0206931543
 20
114.747834215
 30
0.0
 11
26.0206931543
 21
88.747834215
 31
0.0
  0
MTEXT
  5
2E1
330
2D9
100
AcDbEntity
  8
0
  6
SLD-Durchgehend
 62
     7
370
     0
100
AcDbMText
 10
22.1534897022
 20
99.457634215
 30
0.0
 40
3.0
 41
0.0
 71
     1
 72
     1
  1
26
  7
SLDTEXTSTYLE0
 11
-1.414962237524464E-14
 21
1.0
 31
0.0
 73
     1
 44
1.0
  0
ENDBLK
  5
2DB
330
2D9
100
AcDbEntity
  8
0
100
AcDbBlockEnd
  0
BLOCK
  5
2E3
330
2E2
100
AcDbEntity
  8
0
100
AcDbBlockBegin
  2
SW_CENTERMARKSYMBOL_3
 70
     0
 10
0.0
 20
0.0
 30
0.0
  3
SW_CENTERMARKSYMBOL_3
  1

  0
LINE
  5
2E5
330
2E2
100
AcDbEntity
  8
0
  6
SLD-Durchgehend
 62
     0
370
     0
100
AcDbLine
 10
0.0
 20
0.0
 30
0.0
 11
0.0
 21
1.0
 31
0.0
  0
LINE
  5
2E6
330
2E2
100
AcDbEntity
  8
0
  6
SLD-Durchgehend
 62
     0
370
     0
100
AcDbLine
 10
0.0
 20
0.0
 30
0.0
 11
-1.0
 21
0.0
 31
0.0
  0
LINE
  5
2E7
330
2E2
100
AcDbEntity
  8
0
  6
SLD-Durchgehend
 62
     0
370
     0
100
AcDbLine
 10
0.0
 20
0.0
 30
0.0
 11
0.0
 21
-1.0
 31
0.0
  0
LINE
  5
2E8
330
2E2
100
AcDbEntity
  8
0
  6
SLD-Durchgehend
 62
     0
370
     0
100
AcDbLine
 10
0.0
 20
0.0
 30
0.0
 11
1.0
 21
0.0
 31
0.0
  0
LINE
  5
2E9
330
2E2
100
AcDbEntity
  8
0
  6
SLD-Durchgehend
 62
     0
370
     0
100
AcDbLine
 10
0.0
 20
2.0
 30
0.0
 11
0.0
 21
5.5
 31
0.0
  0
LINE
  5
2EA
330
2E2
100
AcDbEntity
  8
0
  6
SLD-Durchgehend
 62
     0
370
     0
100
AcDbLine
 10
-2.0
 20
0.0
 30
0.0
 11
-5.5
 21
0.0
 31
0.0
  0
LINE
  5
2EB
330
2E2
100
AcDbEntity
  8
0
  6
SLD-Durchgehend
 62
     0
370
     0
100
AcDbLine
 10
0.0
 20
-2.0
 30
0.0
 11
0.0
 21
-5.5
 31
0.0
  0
LINE
  5
2EC
330
2E2
100
AcDbEntity
  8
0
  6
SLD-Durchgehend
 62
     0
370
     0
100
AcDbLine
 10
2.0
 20
0.0
 30
0.0
 11
5.5
 21
0.0
 31
0.0
  0
ENDBLK
  5
2E4
330
2E2
100
AcDbEntity
  8
0
100
AcDbBlockEnd
  0
BLOCK
  5
2EF
330
2EE
100
AcDbEntity
  8
0
100
AcDbBlockBegin
  2
SW_CENTERMARKSYMBOL_4
 70
     0
 10
0.0
 20
0.0
 30
0.0
  3
SW_CENTERMARKSYMBOL_4
  1

  0
LINE
  5
2F1
330
2EE
100
AcDbEntity
  8
0
  6
SLD-Durchgehend
 62
     0
370
     0
100
AcDbLine
 10
0.0
 20
0.0
 30
0.0
 11
0.0
 21
1.0
 31
0.0
  0
LINE
  5
2F2
330
2EE
100
AcDbEntity
  8
0
  6
SLD-Durchgehend
 62
     0
370
     0
100
AcDbLine
 10
0.0
 20
0.0
 30
0.0
 11
-1.0
 21
0.0
 31
0.0
  0
LINE
  5
2F3
330
2EE
100
AcDbEntity
  8
0
  6
SLD-Durchgehend
 62
     0
370
     0
100
AcDbLine
 10
0.0
 20
0.0
 30
0.0
 11
0.0
 21
-1.0
 31
0.0
  0
LINE
  5
2F4
330
2EE
100
AcDbEntity
  8
0
  6
SLD-Durchgehend
 62
     0
370
     0
100
AcDbLine
 10
0.0
 20
0.0
 30
0.0
 11
1.0
 21
0.0
 31
0.0
  0
LINE
  5
2F5
330
2EE
100
AcDbEntity
  8
0
  6
SLD-Durchgehend
 62
     0
370
     0
100
AcDbLine
 10
0.0
 20
2.0
 30
0.0
 11
0.0
 21
5.5
 31
0.0
  0
LINE
  5
2F6
330
2EE
100
AcDbEntity
  8
0
  6
SLD-Durchgehend
 62
     0
370
     0
100
AcDbLine
 10
-2.0
 20
0.0
 30
0.0
 11
-5.5
 21
0.0
 31
0.0
  0
LINE
  5
2F7
330
2EE
100
AcDbEntity
  8
0
  6
SLD-Durchgehend
 62
     0
370
     0
100
AcDbLine
 10
0.0
 20
-2.0
 30
0.0
 11
0.0
 21
-5.5
 31
0.0
  0
LINE
  5
2F8
330
2EE
100
AcDbEntity
  8
0
  6
SLD-Durchgehend
 62
     0
370
     0
100
AcDbLine
 10
2.0
 20
0.0
 30
0.0
 11
5.5
 21
0.0
 31
0.0
  0
ENDBLK
  5
2F0
330
2EE
100
AcDbEntity
  8
0
100
AcDbBlockEnd
  0
BLOCK
  5
2FB
330
2FA
100
AcDbEntity
  8
0
100
AcDbBlockBegin
  2
SW_CENTERMARKSYMBOL_5
 70
     0
 10
0.0
 20
0.0
 30
0.0
  3
SW_CENTERMARKSYMBOL_5
  1

  0
LINE
  5
2FD
330
2FA
100
AcDbEntity
  8
0
  6
SLD-Durchgehend
 62
     0
370
     0
100
AcDbLine
 10
0.0
 20
0.0
 30
0.0
 11
0.0
 21
1.0
 31
0.0
  0
LINE
  5
2FE
330
2FA
100
AcDbEntity
  8
0
  6
SLD-Durchgehend
 62
     0
370
     0
100
AcDbLine
 10
0.0
 20
0.0
 30
0.0
 11
-1.0
 21
0.0
 31
0.0
  0
LINE
  5
2FF
330
2FA
100
AcDbEntity
  8
0
  6
SLD-Durchgehend
 62
     0
370
     0
100
AcDbLine
 10
0.0
 20
0.0
 30
0.0
 11
0.0
 21
-1.0
 31
0.0
  0
LINE
  5
300
330
2FA
100
AcDbEntity
  8
0
  6
SLD-Durchgehend
 62
     0
370
     0
100
AcDbLine
 10
0.0
 20
0.0
 30
0.0
 11
1.0
 21
0.0
 31
0.0
  0
LINE
  5
301
330
2FA
100
AcDbEntity
  8
0
  6
SLD-Durchgehend
 62
     0
370
     0
100
AcDbLine
 10
0.0
 20
2.0
 30
0.0
 11
0.0
 21
10.25
 31
0.0
  0
LINE
  5
302
330
2FA
100
AcDbEntity
  8
0
  6
SLD-Durchgehend
 62
     0
370
     0
100
AcDbLine
 10
-2.0
 20
0.0
 30
0.0
 11
-10.25
 21
0.0
 31
0.0
  0
LINE
  5
303
330
2FA
100
AcDbEntity
  8
0
  6
SLD-Durchgehend
 62
     0
370
     0
100
AcDbLine
 10
0.0
 20
-2.0
 30
0.0
 11
0.0
 21
-10.25
 31
0.0
  0
LINE
  5
304
330
2FA
100
AcDbEntity
  8
0
  6
SLD-Durchgehend
 62
     0
370
     0
100
AcDbLine
 10
2.0
 20
0.0
 30
0.0
 11
10.25
 21
0.0
 31
0.0
  0
ENDBLK
  5
2FC
330
2FA
100
AcDbEntity
  8
0
100
AcDbBlockEnd
  0
BLOCK
  5
307
330
306
100
AcDbEntity
  8
0
100
AcDbBlockBegin
  2
SW_CENTERMARKSYMBOL_6
 70
     0
 10
0.0
 20
0.0
 30
0.0
  3
SW_CENTERMARKSYMBOL_6
  1

  0
LINE
  5
309
330
306
100
AcDbEntity
  8
0
  6
SLD-Durchgehend
 62
     0
370
     0
100
AcDbLine
 10
0.0
 20
0.0
 30
0.0
 11
0.0
 21
1.0
 31
0.0
  0
LINE
  5
30A
330
306
100
AcDbEntity
  8
0
  6
SLD-Durchgehend
 62
     0
370
     0
100
AcDbLine
 10
0.0
 20
0.0
 30
0.0
 11
-1.0
 21
0.0
 31
0.0
  0
LINE
  5
30B
330
306
100
AcDbEntity
  8
0
  6
SLD-Durchgehend
 62
     0
370
     0
100
AcDbLine
 10
0.0
 20
0.0
 30
0.0
 11
0.0
 21
-1.0
 31
0.0
  0
LINE
  5
30C
330
306
100
AcDbEntity
  8
0
  6
SLD-Durchgehend
 62
     0
370
     0
100
AcDbLine
 10
0.0
 20
0.0
 30
0.0
 11
1.0
 21
0.0
 31
0.0
  0
LINE
  5
30D
330
306
100
AcDbEntity
  8
0
  6
SLD-Durchgehend
 62
     0
370
     0
100
AcDbLine
 10
0.0
 20
2.0
 30
0.0
 11
0.0
 21
7.7225
 31
0.0
  0
LINE
  5
30E
330
306
100
AcDbEntity
  8
0
  6
SLD-Durchgehend
 62
     0
370
     0
100
AcDbLine
 10
-2.0
 20
0.0
 30
0.0
 11
-7.7225
 21
0.0
 31
0.0
  0
LINE
  5
30F
330
306
100
AcDbEntity
  8
0
  6
SLD-Durchgehend
 62
     0
370
     0
100
AcDbLine
 10
0.0
 20
-2.0
 30
0.0
 11
0.0
 21
-7.7225
 31
0.0
  0
LINE
  5
310
330
306
100
AcDbEntity
  8
0
  6
SLD-Durchgehend
 62
     0
370
     0
100
AcDbLine
 10
2.0
 20
0.0
 30
0.0
 11
7.7225
 21
0.0
 31
0.0
  0
ENDBLK
  5
308
330
306
100
AcDbEntity
  8
0
100
AcDbBlockEnd
  0
ENDSEC
  0
SECTION
  2
ENTITIES
  0
HATCH
  5
95
330
1F
100
AcDbEntity
  8
0
  6
Continuous
 62
    52
100
AcDbHatch
 10
0.0
 20
0.0
 30
0.0
210
0.0
220
0.0
230
1.0
  2
SOLID
 70
     1
 71
     0
 91
        1
 92
        0
 93
        6
 72
     2
 10
397.2166905884209
 20
27.19368183392314
 40
9.336383935046287
 50
28.83743273930608
 51
198.8193368338523
 73
     1
 72
     1
 10
388.3794255903911
 20
24.18190290159952
 11
388.7816097341537
 21
24.18190290159952
 72
     1
 10
388.7816097341537
 20
24.18190290159952
 11
390.8103449730125
 21
31.54854125382066
 72
     1
 10
390.8103449730125
 20
31.54854125382066
 11
392.6133250240622
 21
31.54854125382066
 72
     2
 10
398.3341692458886
 20
29.54038196427235
 40
6.063065424569007
 50
199.3423480985319
 51
339.1651749394908
 73
     0
 72
     1
 10
404.0007687940603
 20
31.69686333522489
 11
405.3952859047894
 21
31.69686333522489
 97
        0
 75
     0
 76
     1
 98
        1
 10
0.0
 20
0.0
  0
HATCH
  5
96
330
1F
100
AcDbEntity
  8
0
  6
Continuous
 62
     7
100
AcDbHatch
 10
0.0
 20
0.0
 30
0.0
210
0.0
220
0.0
230
1.0
  2
SOLID
 70
     1
 71
     0
 91
        2
 92
        0
 93
        6
 72
     1
 10
390.9093832949075
 20
31.41854125382066
 11
392.7062226385282
 21
31.41854125382066
 72
     2
 10
398.3341692458886
 20
29.54038196427235
 40
5.933065424568984
 50
198.4548941224166
 51
340.0282228512785
 73
     0
 72
     1
 10
403.9104259280544
 20
31.56686333522489
 11
405.6123864120185
 21
31.56686333522489
 72
     2
 10
397.2166905884209
 20
27.19368183392314
 40
9.46638393504625
 50
27.51427472226174
 51
199.3834076115143
 73
     1
 72
     1
 10
388.2868725641771
 20
24.05190290159952
 11
388.8806480560487
 21
24.05190290159952
 72
     1
 10
388.8806480560487
 20
24.05190290159952
 11
390.9093832949075
 21
31.41854125382066
 97
        0
 92
        0
 93
        6
 72
     1
 10
388.7816097341537
 20
24.18190290159952
 11
388.3794255903911
 21
24.18190290159952
 72
     2
 10
397.2166905884209
 20
27.19368183392314
 40
9.336383935046287
 50
161.1806631661485
 51
331.1625672606947
 73
     0
 72
     1
 10
405.3952859047894
 20
31.69686333522489
 11
404.0007687940603
 21
31.69686333522489
 72
     2
 10
398.3341692458886
 20
29.54038196427235
 40
6.063065424569007
 50
20.83482506051003
 51
160.6576519014689
 73
     1
 72
     1
 10
392.6133250240622
 20
31.54854125382066
 11
390.8103449730125
 21
31.54854125382066
 72
     1
 10
390.8103449730125
 20
31.54854125382066
 11
388.7816097341537
 21
24.18190290159952
 97
        0
 75
     0
 76
     1
 98
        1
 10
0.0
 20
0.0
  0
HATCH
  5
97
330
1F
100
AcDbEntity
  8
0
  6
Continuous
 62
     7
100
AcDbHatch
 10
0.0
 20
0.0
 30
0.0
210
0.0
220
0.0
230
1.0
  2
SOLID
 70
     1
 71
     0
 91
        1
 92
        0
 93
       10
 72
     1
 10
391.2557525416791
 20
31.17133921476775
 11
389.4249433061572
 21
24.10134359540109
 72
     1
 10
389.4249433061572
 20
24.10134359540109
 11
391.9979725360537
 21
24.10134359540109
 72
     1
 10
391.9979725360537
 20
24.10134359540109
 11
392.9875987755306
 21
27.90826414852663
 72
     1
 10
392.9875987755306
 20
27.90826414852663
 11
394.5215202651154
 21
24.1013435954011
 72
     1
 10
394.5215202651154
 20
24.1013435954011
 11
397.1935124966802
 21
24.1013435954011
 72
     1
 10
397.1935124966802
 20
24.1013435954011
 11
398.8758772296985
 21
31.07245782716463
 72
     1
 10
398.8758772296985
 20
31.07245782716463
 11
396.4512925023055
 21
31.07245782716463
 72
     1
 10
396.4512925023055
 20
31.07245782716463
 11
395.5606280054266
 21
27.16665660141341
 72
     1
 10
395.5606280054266
 20
27.16665660141341
 11
393.8782632724091
 21
31.17133921476775
 72
     1
 10
393.8782632724091
 20
31.17133921476775
 11
391.2557525416791
 21
31.17133921476775
 97
        0
 75
     0
 76
     1
 98
        1
 10
0.0
 20
0.0
  0
HATCH
  5
98
330
1F
100
AcDbEntity
  8
0
  6
Continuous
 62
     7
100
AcDbHatch
 10
0.0
 20
0.0
 30
0.0
210
0.0
220
0.0
230
1.0
  2
SOLID
 70
     1
 71
     0
 91
        2
 92
        0
 93
        3
 72
     1
 10
393.1360432780339
 20
26.3261669517193
 11
392.5549013500252
 21
24.05190290159952
 72
     1
 10
392.5549013500252
 20
24.05190290159952
 11
394.0761880166766
 21
24.05190290159952
 72
     1
 10
394.0761880166766
 20
24.05190290159952
 11
393.1360432780339
 21
26.3261669517193
 97
        0
 92
        0
 93
        3
 72
     1
 10
393.8817783160101
 20
24.18190290159951
 11
392.7222972997866
 21
24.18190290159952
 72
     1
 10
392.7222972997866
 20
24.18190290159952
 11
393.1652269908361
 21
25.91528165906799
 72
     1
 10
393.1652269908361
 20
25.91528165906799
 11
393.8817783160101
 21
24.18190290159951
 97
        0
 75
     0
 76
     1
 98
        1
 10
0.0
 20
0.0
  0
HATCH
  5
99
330
1F
100
AcDbEntity
  8
0
  6
Continuous
 62
    52
100
AcDbHatch
 10
0.0
 20
0.0
 30
0.0
210
0.0
220
0.0
230
1.0
  2
SOLID
 70
     1
 71
     0
 91
        1
 92
        0
 93
        3
 72
     1
 10
393.1652269908361
 20
25.91528165906799
 11
392.7222972997866
 21
24.18190290159952
 72
     1
 10
392.7222972997866
 20
24.18190290159952
 11
393.8817783160101
 21
24.18190290159951
 72
     1
 10
393.8817783160101
 20
24.18190290159951
 11
393.1652269908361
 21
25.91528165906799
 97
        0
 75
     0
 76
     1
 98
        1
 10
0.0
 20
0.0
  0
HATCH
  5
9A
330
1F
100
AcDbEntity
  8
0
  6
Continuous
 62
     7
100
AcDbHatch
 10
0.0
 20
0.0
 30
0.0
210
0.0
220
0.0
230
1.0
  2
SOLID
 70
     1
 71
     0
 91
        1
 92
        0
 93
        8
 72
     1
 10
399.4696539806409
 20
31.12189852096661
 11
398.7274339862658
 21
28.25434757518244
 72
     1
 10
398.7274339862658
 20
28.25434757518244
 11
399.1727662347047
 21
24.00246292277559
 72
     1
 10
399.1727662347047
 20
24.00246292277559
 11
402.3395709564733
 21
24.00246292277559
 72
     1
 10
402.3395709564733
 20
24.00246292277559
 11
406.5454846776286
 21
31.07245782718087
 72
     1
 10
406.5454846776286
 20
31.07245782718087
 11
403.7745294443889
 21
31.07245782718087
 72
     1
 10
403.7745294443889
 20
31.07245782718087
 11
401.5478694612618
 21
27.0677752138452
 72
     1
 10
401.5478694612618
 20
27.0677752138452
 11
401.0530569710604
 21
31.12189852096661
 72
     1
 10
401.0530569710604
 20
31.12189852096661
 11
399.4696539806409
 21
31.12189852096661
 97
        0
 75
     0
 76
     1
 98
        1
 10
0.0
 20
0.0
  0
HATCH
  5
9B
330
1F
100
AcDbEntity
  8
0
  6
Continuous
 62
     7
100
AcDbHatch
 10
0.0
 20
0.0
 30
0.0
210
0.0
220
0.0
230
1.0
  2
SOLID
 70
     1
 71
     0
 91
        2
 92
        0
 93
        3
 72
     2
 10
398.60159497708
 20
26.88049322517953
 40
8.003675602344106
 50
339.303884922883
 51
377.0191257258724
 73
     1
 72
     1
 10
406.2547664701381
 20
29.22309631691353
 11
403.0323094500141
 21
24.05190290159952
 72
     1
 10
403.0323094500141
 20
24.05190290159952
 11
406.0887773529079
 21
24.05190290159952
 97
        0
 92
        0
 93
        3
 72
     1
 10
403.2664948845861
 20
24.18190290159952
 11
406.2102984795193
 21
28.90593107979706
 72
     2
 10
398.60159497708
 20
26.88049322517953
 40
7.873675602344119
 50
345.0935417050616
 51
380.0436402959713
 73
     0
 72
     1
 10
405.99837655804
 20
24.18190290159952
 11
403.2664948845861
 21
24.18190290159952
 97
        0
 75
     0
 76
     1
 98
        1
 10
0.0
 20
0.0
  0
HATCH
  5
9C
330
1F
100
AcDbEntity
  8
0
  6
Continuous
 62
    52
100
AcDbHatch
 10
0.0
 20
0.0
 30
0.0
210
0.0
220
0.0
230
1.0
  2
SOLID
 70
     1
 71
     0
 91
        1
 92
        0
 93
        3
 72
     2
 10
398.60159497708
 20
26.88049322517953
 40
7.873675602344119
 50
339.9563597040303
 51
374.90645829494
 73
     1
 72
     1
 10
406.2102984795193
 20
28.90593107979706
 11
403.2664948845861
 21
24.18190290159952
 72
     1
 10
403.2664948845861
 20
24.18190290159952
 11
405.99837655804
 21
24.18190290159952
 97
        0
 75
     0
 76
     1
 98
        1
 10
0.0
 20
0.0
  0
LINE
  5
9D
330
1F
100
AcDbEntity
  8
0
  6
SLD-Durchgehend
 62
     7
370
     0
100
AcDbLine
 10
222.0
 20
45.0
 30
0.0
 11
222.0
 21
10.0
 31
0.0
  0
LINE
  5
9E
330
1F
100
AcDbEntity
  8
0
  6
SLD-Durchgehend
 62
     7
370
     0
100
AcDbLine
 10
410.0
 20
65.0
 30
0.0
 11
410.0
 21
10.0
 31
0.0
  0
LINE
  5
9F
330
1F
100
AcDbEntity
  8
0
  6
SLD-Durchgehend
 62
     7
370
     0
100
AcDbLine
 10
222.0
 20
10.0
 30
0.0
 11
410.0
 21
10.0
 31
0.0
  0
LINE
  5
A0
330
1F
100
AcDbEntity
  8
0
  6
SLD-Durchgehend
 62
     7
370
     0
100
AcDbLine
 10
222.0
 20
10.0
 30
0.0
 11
410.0
 21
10.0
 31
0.0
  0
LINE
  5
A1
330
1F
100
AcDbEntity
  8
0
  6
SLD-Durchgehend
 62
     7
370
     0
100
AcDbLine
 10
410.0
 20
45.0
 30
0.0
 11
410.0
 21
10.0
 31
0.0
  0
LINE
  5
A2
330
1F
100
AcDbEntity
  8
0
  6
SLD-Durchgehend
 62
     7
370
     0
100
AcDbLine
 10
222.0
 20
45.0
 30
0.0
 11
410.0
 21
45.0
 31
0.0
  0
LINE
  5
A3
330
1F
100
AcDbEntity
  8
0
  6
SLD-Durchgehend
 62
     7
370
     0
100
AcDbLine
 10
345.0
 20
45.0
 30
0.0
 11
345.0
 21
10.0
 31
0.0
  0
LINE
  5
A4
330
1F
100
AcDbEntity
  8
0
  6
SLD-Durchgehend
 62
     7
370
     0
100
AcDbLine
 10
274.0
 20
45.0
 30
0.0
 11
274.0
 21
10.0
 31
0.0
  0
LINE
  5
A5
330
1F
100
AcDbEntity
  8
0
  6
SLD-Durchgehend
 62
     7
370
     0
100
AcDbLine
 10
222.0
 20
24.5
 30
0.0
 11
274.0
 21
24.5
 31
0.0
  0
LINE
  5
A6
330
1F
100
AcDbEntity
  8
0
  6
SLD-Durchgehend
 62
     7
370
     0
100
AcDbLine
 10
222.0
 20
17.25
 30
0.0
 11
274.0
 21
17.25
 31
0.0
  0
LINE
  5
A7
330
1F
100
AcDbEntity
  8
0
  6
SLD-Durchgehend
 62
     7
370
     0
100
AcDbLine
 10
388.2868725642
 20
24.0519029016
 30
0.0
 11
388.880648056
 21
24.0519029016
 31
0.0
  0
LINE
  5
A8
330
1F
100
AcDbEntity
  8
0
  6
SLD-Durchgehend
 62
     7
370
     0
100
AcDbLine
 10
388.880648056
 20
24.0519029016
 30
0.0
 11
390.9093832949
 21
31.4185412538
 31
0.0
  0
LINE
  5
A9
330
1F
100
AcDbEntity
  8
0
  6
SLD-Durchgehend
 62
     7
370
     0
100
AcDbLine
 10
390.9093832949
 20
31.4185412538
 30
0.0
 11
392.7062226385
 21
31.4185412538
 31
0.0
  0
LINE
  5
AA
330
1F
100
AcDbEntity
  8
0
  6
SLD-Durchgehend
 62
     7
370
     0
100
AcDbLine
 10
403.9104259281
 20
31.5668633352
 30
0.0
 11
405.612386412
 21
31.5668633352
 31
0.0
  0
LINE
  5
AB
330
1F
100
AcDbEntity
  8
0
  6
SLD-Durchgehend
 62
     7
370
     0
100
AcDbLine
 10
391.2557525417
 20
31.1713392148
 30
0.0
 11
393.8782632724
 21
31.1713392148
 31
0.0
  0
LINE
  5
AC
330
1F
100
AcDbEntity
  8
0
  6
SLD-Durchgehend
 62
     7
370
     0
100
AcDbLine
 10
393.8782632724
 20
31.1713392148
 30
0.0
 11
395.5606280054
 21
27.1666566014
 31
0.0
  0
LINE
  5
AD
330
1F
100
AcDbEntity
  8
0
  6
SLD-Durchgehend
 62
     7
370
     0
100
AcDbLine
 10
395.5606280054
 20
27.1666566014
 30
0.0
 11
396.4512925023
 21
31.0724578272
 31
0.0
  0
LINE
  5
AE
330
1F
100
AcDbEntity
  8
0
  6
SLD-Durchgehend
 62
     7
370
     0
100
AcDbLine
 10
396.4512925023
 20
31.0724578272
 30
0.0
 11
398.8758772297
 21
31.0724578272
 31
0.0
  0
LINE
  5
AF
330
1F
100
AcDbEntity
  8
0
  6
SLD-Durchgehend
 62
     7
370
     0
100
AcDbLine
 10
398.8758772297
 20
31.0724578272
 30
0.0
 11
397.1935124967
 21
24.1013435954
 31
0.0
  0
LINE
  5
B0
330
1F
100
AcDbEntity
  8
0
  6
SLD-Durchgehend
 62
     7
370
     0
100
AcDbLine
 10
397.1935124967
 20
24.1013435954
 30
0.0
 11
394.5215202651
 21
24.1013435954
 31
0.0
  0
LINE
  5
B1
330
1F
100
AcDbEntity
  8
0
  6
SLD-Durchgehend
 62
     7
370
     0
100
AcDbLine
 10
394.5215202651
 20
24.1013435954
 30
0.0
 11
392.9875987755
 21
27.9082641485
 31
0.0
  0
LINE
  5
B2
330
1F
100
AcDbEntity
  8
0
  6
SLD-Durchgehend
 62
     7
370
     0
100
AcDbLine
 10
392.9875987755
 20
27.9082641485
 30
0.0
 11
391.9979725361
 21
24.1013435954
 31
0.0
  0
LINE
  5
B3
330
1F
100
AcDbEntity
  8
0
  6
SLD-Durchgehend
 62
     7
370
     0
100
AcDbLine
 10
391.9979725361
 20
24.1013435954
 30
0.0
 11
389.4249433062
 21
24.1013435954
 31
0.0
  0
LINE
  5
B4
330
1F
100
AcDbEntity
  8
0
  6
SLD-Durchgehend
 62
     7
370
     0
100
AcDbLine
 10
389.4249433062
 20
24.1013435954
 30
0.0
 11
391.2557525417
 21
31.1713392148
 31
0.0
  0
LINE
  5
B5
330
1F
100
AcDbEntity
  8
0
  6
SLD-Durchgehend
 62
     7
370
     0
100
AcDbLine
 10
393.136043278
 20
26.3261669517
 30
0.0
 11
394.0761880167
 21
24.0519029016
 31
0.0
  0
LINE
  5
B6
330
1F
100
AcDbEntity
  8
0
  6
SLD-Durchgehend
 62
     7
370
     0
100
AcDbLine
 10
394.0761880167
 20
24.0519029016
 30
0.0
 11
392.55490135
 21
24.0519029016
 31
0.0
  0
LINE
  5
B7
330
1F
100
AcDbEntity
  8
0
  6
SLD-Durchgehend
 62
     7
370
     0
100
AcDbLine
 10
392.55490135
 20
24.0519029016
 30
0.0
 11
393.136043278
 21
26.3261669517
 31
0.0
  0
LINE
  5
B8
330
1F
100
AcDbEntity
  8
0
  6
SLD-Durchgehend
 62
     7
370
     0
100
AcDbLine
 10
399.4696539806
 20
31.121898521
 30
0.0
 11
401.0530569711
 21
31.121898521
 31
0.0
  0
LINE
  5
B9
330
1F
100
AcDbEntity
  8
0
  6
SLD-Durchgehend
 62
     7
370
     0
100
AcDbLine
 10
401.0530569711
 20
31.121898521
 30
0.0
 11
401.5478694613
 21
27.0677752138
 31
0.0
  0
LINE
  5
BA
330
1F
100
AcDbEntity
  8
0
  6
SLD-Durchgehend
 62
     7
370
     0
100
AcDbLine
 10
222.0
 20
10.0
 30
0.0
 11
410.0
 21
10.0
 31
0.0
  0
LINE
  5
BB
330
1F
100
AcDbEntity
  8
0
  6
SLD-Durchgehend
 62
     7
370
     0
100
AcDbLine
 10
401.5478694613
 20
27.0677752138
 30
0.0
 11
403.7745294444
 21
31.0724578272
 31
0.0
  0
LINE
  5
BC
330
1F
100
AcDbEntity
  8
0
  6
SLD-Durchgehend
 62
     7
370
     0
100
AcDbLine
 10
403.7745294444
 20
31.0724578272
 30
0.0
 11
406.5454846776
 21
31.0724578272
 31
0.0
  0
LINE
  5
BD
330
1F
100
AcDbEntity
  8
0
  6
SLD-Durchgehend
 62
     7
370
     0
100
AcDbLine
 10
406.5454846776
 20
31.0724578272
 30
0.0
 11
402.3395709565
 21
24.0024629228
 31
0.0
  0
LINE
  5
BE
330
1F
100
AcDbEntity
  8
0
  6
SLD-Durchgehend
 62
     7
370
     0
100
AcDbLine
 10
402.3395709565
 20
24.0024629228
 30
0.0
 11
399.1727662347
 21
24.0024629228
 31
0.0
  0
LINE
  5
BF
330
1F
100
AcDbEntity
  8
0
  6
SLD-Durchgehend
 62
     7
370
     0
100
AcDbLine
 10
399.1727662347
 20
24.0024629228
 30
0.0
 11
398.7274339863
 21
28.2543475752
 31
0.0
  0
LINE
  5
C0
330
1F
100
AcDbEntity
  8
0
  6
SLD-Durchgehend
 62
     7
370
     0
100
AcDbLine
 10
398.7274339863
 20
28.2543475752
 30
0.0
 11
399.4696539806
 21
31.121898521
 31
0.0
  0
LINE
  5
C1
330
1F
100
AcDbEntity
  8
0
  6
SLD-Durchgehend
 62
     7
370
     0
100
AcDbLine
 10
403.03230945
 20
24.0519029016
 30
0.0
 11
406.2547664701
 21
29.2230963169
 31
0.0
  0
LINE
  5
C2
330
1F
100
AcDbEntity
  8
0
  6
SLD-Durchgehend
 62
     7
370
     0
100
AcDbLine
 10
403.03230945
 20
24.0519029016
 30
0.0
 11
406.0887773529
 21
24.0519029016
 31
0.0
  0
LINE
  5
C3
330
1F
100
AcDbEntity
  8
0
  6
SLD-Durchgehend
 62
     7
370
     0
100
AcDbLine
 10
403.2664948846
 20
24.1819029016
 30
0.0
 11
405.998376558
 21
24.1819029016
 31
0.0
  0
LINE
  5
C4
330
1F
100
AcDbEntity
  8
0
  6
SLD-Durchgehend
 62
     7
370
     0
100
AcDbLine
 10
222.0
 20
10.0
 30
0.0
 11
410.0
 21
10.0
 31
0.0
  0
LINE
  5
C5
330
1F
100
AcDbEntity
  8
0
  6
SLD-Durchgehend
 62
     7
370
     0
100
AcDbLine
 10
410.0
 20
42.5
 30
0.0
 11
410.0
 21
10.0
 31
0.0
  0
LINE
  5
C6
330
1F
100
AcDbEntity
  8
0
  6
SLD-Durchgehend
 62
     7
370
     0
100
AcDbLine
 10
403.2664948846
 20
24.1819029016
 30
0.0
 11
406.2102984795
 21
28.9059310798
 31
0.0
  0
LINE
  5
C7
330
1F
100
AcDbEntity
  8
0
  6
SLD-Durchgehend
 62
     7
370
     0
100
AcDbLine
 10
404.0007687941
 20
31.6968633352
 30
0.0
 11
405.3952859048
 21
31.6968633352
 31
0.0
  0
LINE
  5
C8
330
1F
100
AcDbEntity
  8
0
  6
SLD-Durchgehend
 62
     7
370
     0
100
AcDbLine
 10
388.3794255904
 20
24.1819029016
 30
0.0
 11
388.7816097342
 21
24.1819029016
 31
0.0
  0
LINE
  5
C9
330
1F
100
AcDbEntity
  8
0
  6
SLD-Durchgehend
 62
     7
370
     0
100
AcDbLine
 10
388.7816097342
 20
24.1819029016
 30
0.0
 11
390.810344973
 21
31.5485412538
 31
0.0
  0
LINE
  5
CA
330
1F
100
AcDbEntity
  8
0
  6
SLD-Durchgehend
 62
     7
370
     0
100
AcDbLine
 10
390.810344973
 20
31.5485412538
 30
0.0
 11
392.6133250241
 21
31.5485412538
 31
0.0
  0
LINE
  5
CB
330
1F
100
AcDbEntity
  8
0
  6
SLD-Durchgehend
 62
     7
370
     0
100
AcDbLine
 10
393.1652269908
 20
25.9152816591
 30
0.0
 11
393.881778316
 21
24.1819029016
 31
0.0
  0
LINE
  5
CC
330
1F
100
AcDbEntity
  8
0
  6
SLD-Durchgehend
 62
     7
370
     0
100
AcDbLine
 10
393.881778316
 20
24.1819029016
 30
0.0
 11
392.7222972998
 21
24.1819029016
 31
0.0
  0
LINE
  5
CD
330
1F
100
AcDbEntity
  8
0
  6
SLD-Durchgehend
 62
     7
370
     0
100
AcDbLine
 10
392.7222972998
 20
24.1819029016
 30
0.0
 11
393.1652269908
 21
25.9152816591
 31
0.0
  0
LINE
  5
CE
330
1F
100
AcDbEntity
  8
0
  6
SLD-Durchgehend
 62
     7
370
     0
100
AcDbLine
 10
410.0
 20
50.5
 30
0.0
 11
410.0
 21
42.5
 31
0.0
  0
LINE
  5
CF
330
1F
100
AcDbEntity
  8
0
  6
SLD-Durchgehend
 62
     7
370
     0
100
AcDbLine
 10
410.0
 20
73.0
 30
0.0
 11
410.0
 21
65.0
 31
0.0
  0
LINE
  5
D0
330
1F
100
AcDbEntity
  8
0
  6
SLD-Durchgehend
 62
     7
370
     0
100
AcDbLine
 10
260.0
 20
10.0
 30
0.0
 11
260.0
 21
5.0
 31
0.0
  0
LINE
  5
D1
330
1F
100
AcDbEntity
  8
0
  6
SLD-Durchgehend
 62
     7
370
     0
100
AcDbLine
 10
410.0
 20
287.0
 30
0.0
 11
10.0
 21
287.0
 31
0.0
  0
LINE
  5
D2
330
1F
100
AcDbEntity
  8
0
  6
SLD-Durchgehend
 62
     7
370
     0
100
AcDbLine
 10
10.0
 20
10.0
 30
0.0
 11
410.0
 21
10.0
 31
0.0
  0
LINE
  5
D3
330
1F
100
AcDbEntity
  8
0
  6
SLD-Durchgehend
 62
     7
370
     0
100
AcDbLine
 10
5.0
 20
5.0
 30
0.0
 11
415.0
 21
5.0
 31
0.0
  0
LINE
  5
D4
330
1F
100
AcDbEntity
  8
0
  6
SLD-Durchgehend
 62
     7
370
     0
100
AcDbLine
 10
415.0
 20
292.0
 30
0.0
 11
5.0
 21
292.0
 31
0.0
  0
LINE
  5
D5
330
1F
100
AcDbEntity
  8
0
  6
SLD-Durchgehend
 62
     7
370
     0
100
AcDbLine
 10
310.0
 20
10.0
 30
0.0
 11
310.0
 21
5.0
 31
0.0
  0
LINE
  5
D6
330
1F
100
AcDbEntity
  8
0
  6
SLD-Durchgehend
 62
     7
370
     0
100
AcDbLine
 10
5.0
 20
292.0
 30
0.0
 11
5.0
 21
5.0
 31
0.0
  0
LINE
  5
D7
330
1F
100
AcDbEntity
  8
0
  6
SLD-Durchgehend
 62
     7
370
     0
100
AcDbLine
 10
10.0
 20
287.0
 30
0.0
 11
10.0
 21
191.5
 31
0.0
  0
LINE
  5
D8
330
1F
100
AcDbEntity
  8
0
  6
SLD-Durchgehend
 62
     7
370
     0
100
AcDbLine
 10
60.0
 20
10.0
 30
0.0
 11
60.0
 21
5.0
 31
0.0
  0
LINE
  5
D9
330
1F
100
AcDbEntity
  8
0
  6
SLD-Durchgehend
 62
     7
370
     0
100
AcDbLine
 10
10.0
 20
56.166
 30
0.0
 11
5.0
 21
56.166
 31
0.0
  0
LINE
  5
DA
330
1F
100
AcDbEntity
  8
0
  6
SLD-Durchgehend
 62
     7
370
     0
100
AcDbLine
 10
10.0
 20
102.332
 30
0.0
 11
5.0
 21
102.332
 31
0.0
  0
LINE
  5
DB
330
1F
100
AcDbEntity
  8
0
  6
SLD-Durchgehend
 62
     7
370
     0
100
AcDbLine
 10
10.0
 20
148.498
 30
0.0
 11
5.0
 21
148.498
 31
0.0
  0
LINE
  5
DC
330
1F
100
AcDbEntity
  8
0
  6
SLD-Durchgehend
 62
     7
370
     0
100
AcDbLine
 10
110.0
 20
10.0
 30
0.0
 11
110.0
 21
5.0
 31
0.0
  0
LINE
  5
DD
330
1F
100
AcDbEntity
  8
0
  6
SLD-Durchgehend
 62
     7
370
     0
100
AcDbLine
 10
360.0
 20
10.0
 30
0.0
 11
360.0
 21
5.0
 31
0.0
  0
LINE
  5
DE
330
1F
100
AcDbEntity
  8
0
  6
SLD-Durchgehend
 62
     7
370
     0
100
AcDbLine
 10
210.0
 20
10.0
 30
0.0
 11
210.0
 21
5.0
 31
0.0
  0
LINE
  5
DF
330
1F
100
AcDbEntity
  8
0
  6
SLD-Durchgehend
 62
     7
370
     0
100
AcDbLine
 10
160.0
 20
10.0
 30
0.0
 11
160.0
 21
5.0
 31
0.0
  0
LINE
  5
E0
330
1F
100
AcDbEntity
  8
0
  6
SLD-Durchgehend
 62
     7
370
     0
100
AcDbLine
 10
10.0
 20
194.664
 30
0.0
 11
5.0
 21
194.664
 31
0.0
  0
LINE
  5
E1
330
1F
100
AcDbEntity
  8
0
  6
SLD-Durchgehend
 62
     7
370
     0
100
AcDbLine
 10
10.0
 20
240.83
 30
0.0
 11
5.0
 21
240.83
 31
0.0
  0
LINE
  5
E2
330
1F
100
AcDbEntity
  8
0
  6
SLD-Durchgehend
 62
     7
370
     0
100
AcDbLine
 10
60.0
 20
292.0
 30
0.0
 11
60.0
 21
287.0
 31
0.0
  0
LINE
  5
E3
330
1F
100
AcDbEntity
  8
0
  6
SLD-Durchgehend
 62
     7
370
     0
100
AcDbLine
 10
110.0
 20
292.0
 30
0.0
 11
110.0
 21
287.0
 31
0.0
  0
LINE
  5
E4
330
1F
100
AcDbEntity
  8
0
  6
SLD-Durchgehend
 62
     7
370
     0
100
AcDbLine
 10
210.0
 20
292.0
 30
0.0
 11
210.0
 21
287.0
 31
0.0
  0
LINE
  5
E5
330
1F
100
AcDbEntity
  8
0
  6
SLD-Durchgehend
 62
     7
370
     0
100
AcDbLine
 10
160.0
 20
292.0
 30
0.0
 11
160.0
 21
287.0
 31
0.0
  0
LINE
  5
E6
330
1F
100
AcDbEntity
  8
0
  6
SLD-Durchgehend
 62
     7
370
     0
100
AcDbLine
 10
410.0
 20
287.0
 30
0.0
 11
410.0
 21
10.0
 31
0.0
  0
LINE
  5
E7
330
1F
100
AcDbEntity
  8
0
  6
SLD-Durchgehend
 62
     7
370
     0
100
AcDbLine
 10
415.0
 20
292.0
 30
0.0
 11
415.0
 21
5.0
 31
0.0
  0
LINE
  5
E8
330
1F
100
AcDbEntity
  8
0
  6
SLD-Durchgehend
 62
     7
370
     0
100
AcDbLine
 10
415.0
 20
56.166
 30
0.0
 11
410.0
 21
56.166
 31
0.0
  0
LINE
  5
E9
330
1F
100
AcDbEntity
  8
0
  6
SLD-Durchgehend
 62
     7
370
     0
100
AcDbLine
 10
415.0
 20
102.332
 30
0.0
 11
410.0
 21
102.332
 31
0.0
  0
LINE
  5
EA
330
1F
100
AcDbEntity
  8
0
  6
SLD-Durchgehend
 62
     7
370
     0
100
AcDbLine
 10
415.0
 20
148.498
 30
0.0
 11
410.0
 21
148.498
 31
0.0
  0
LINE
  5
EB
330
1F
100
AcDbEntity
  8
0
  6
SLD-Durchgehend
 62
     7
370
     0
100
AcDbLine
 10
260.0
 20
292.0
 30
0.0
 11
260.0
 21
287.0
 31
0.0
  0
LINE
  5
EC
330
1F
100
AcDbEntity
  8
0
  6
SLD-Durchgehend
 62
     7
370
     0
100
AcDbLine
 10
310.0
 20
292.0
 30
0.0
 11
310.0
 21
287.0
 31
0.0
  0
LINE
  5
ED
330
1F
100
AcDbEntity
  8
0
  6
SLD-Durchgehend
 62
     7
370
     0
100
AcDbLine
 10
415.0
 20
194.664
 30
0.0
 11
410.0
 21
194.664
 31
0.0
  0
LINE
  5
EE
330
1F
100
AcDbEntity
  8
0
  6
SLD-Durchgehend
 62
     7
370
     0
100
AcDbLine
 10
415.0
 20
240.83
 30
0.0
 11
410.0
 21
240.83
 31
0.0
  0
LINE
  5
EF
330
1F
100
AcDbEntity
  8
0
  6
SLD-Durchgehend
 62
     7
370
     0
100
AcDbLine
 10
360.0
 20
292.0
 30
0.0
 11
360.0
 21
287.0
 31
0.0
  0
LINE
  5
F0
330
1F
100
AcDbEntity
  8
0
  6
SLD-Durchgehend
 62
     7
370
     0
100
AcDbLine
 10
222.0
 20
5.0
 30
0.0
 11
222.0
 21
0.0
 31
0.0
  0
LINE
  5
F1
330
1F
100
AcDbEntity
  8
0
  6
SLD-Durchgehend
 62
     7
370
     0
100
AcDbLine
 10
120.0
 20
5.0
 30
0.0
 11
120.0
 21
0.0
 31
0.0
  0
LINE
  5
F2
330
1F
100
AcDbEntity
  8
0
  6
SLD-Durchgehend
 62
     7
370
     0
100
AcDbLine
 10
120.0
 20
292.0
 30
0.0
 11
120.0
 21
297.0
 31
0.0
  0
LINE
  5
F3
330
1F
100
AcDbEntity
  8
0
  6
SLD-Durchgehend
 62
     7
370
     0
100
AcDbLine
 10
222.0
 20
292.0
 30
0.0
 11
222.0
 21
297.0
 31
0.0
  0
LINE
  5
F4
330
1F
100
AcDbEntity
  8
0
  6
SLD-Durchgehend
 62
     7
370
     0
100
AcDbLine
 10
5.0
 20
148.5
 30
0.0
 11
0.0
 21
148.5
 31
0.0
  0
LINE
  5
F5
330
1F
100
AcDbEntity
  8
0
  6
SLD-Durchgehend
 62
     7
370
     0
100
AcDbLine
 10
10.0
 20
185.5
 30
0.0
 11
10.0
 21
111.5
 31
0.0
  0
LINE
  5
F6
330
1F
100
AcDbEntity
  8
0
  6
SLD-Durchgehend
 62
     7
370
     0
100
AcDbLine
 10
10.0
 20
105.5
 30
0.0
 11
10.0
 21
10.0
 31
0.0
  0
LINE
  5
F7
330
1F
100
AcDbEntity
  8
0
  6
SLD-Durchgehend
 62
     7
370
     0
100
AcDbLine
 10
222.0
 20
31.75
 30
0.0
 11
274.0
 21
31.75
 31
0.0
  0
LINE
  5
F8
330
1F
100
AcDbEntity
  8
0
  6
SLD-Durchgehend
 62
     7
370
     0
100
AcDbLine
 10
0.0
 20
0.0
 30
0.0
 11
420.0
 21
0.0
 31
0.0
  0
LINE
  5
F9
330
1F
100
AcDbEntity
  8
0
  6
SLD-Durchgehend
 62
     7
370
     0
100
AcDbLine
 10
0.0
 20
0.0
 30
0.0
 11
0.0
 21
297.0
 31
0.0
  0
LINE
  5
FA
330
1F
100
AcDbEntity
  8
0
  6
SLD-Durchgehend
 62
     7
370
     0
100
AcDbLine
 10
0.0
 20
297.0
 30
0.0
 11
420.0
 21
297.0
 31
0.0
  0
LINE
  5
FB
330
1F
100
AcDbEntity
  8
0
  6
SLD-Durchgehend
 62
     7
370
     0
100
AcDbLine
 10
420.0
 20
0.0
 30
0.0
 11
420.0
 21
297.0
 31
0.0
  0
CIRCLE
  5
FC
330
1F
100
AcDbEntity
  8
0
  6
SLD-Durchgehend
 62
     7
370
     0
100
AcDbCircle
 10
10.0
 20
188.5
 30
0.0
 40
3.000000000000001
  0
CIRCLE
  5
FD
330
1F
100
AcDbEntity
  8
0
  6
SLD-Durchgehend
 62
     7
370
     0
100
AcDbCircle
 10
10.0
 20
108.5
 30
0.0
 40
3.000000000000005
  0
ARC
  5
FE
330
1F
100
AcDbEntity
  8
0
  6
SLD-Durchgehend
 62
     7
370
     0
100
AcDbCircle
 10
397.2166905884
 20
27.1936818339
 30
0.0
 40
9.466383935046306
100
AcDbArc
 50
27.5142747223
 51
199.3834076115
  0
ARC
  5
FF
330
1F
100
AcDbEntity
  8
0
  6
SLD-Durchgehend
 62
     7
370
     0
100
AcDbCircle
 10
398.3341692459
 20
29.5403819643
 30
0.0
 40
5.933065424568992
100
AcDbArc
 50
19.9717771487
 51
161.5451058776
  0
ARC
  5
100
330
1F
100
AcDbEntity
  8
0
  6
SLD-Durchgehend
 62
     7
370
     0
100
AcDbCircle
 10
398.6015949771
 20
26.8804932252
 30
0.0
 40
8.003675602344112
100
AcDbArc
 50
339.3038849229
 51
17.0191257259
  0
CIRCLE
  5
101
330
1F
100
AcDbEntity
  8
0
  6
SLD-Durchgehend
 62
     7
370
     0
100
AcDbCircle
 10
407.3866676737
 20
30.5286123403
 30
0.0
 40
0.6921638106894162
  0
ARC
  5
102
330
1F
100
AcDbEntity
  8
0
  6
SLD-Durchgehend
 62
     7
370
     0
100
AcDbCircle
 10
398.6015949771
 20
26.8804932252
 30
0.0
 40
7.873675602344121
100
AcDbArc
 50
339.956359704
 51
14.9064582949
  0
ARC
  5
103
330
1F
100
AcDbEntity
  8
0
  6
SLD-Durchgehend
 62
     7
370
     0
100
AcDbCircle
 10
398.3341692459
 20
29.5403819643
 30
0.0
 40
6.063065424569016
100
AcDbArc
 50
20.8348250605
 51
160.6576519015
  0
ARC
  5
104
330
1F
100
AcDbEntity
  8
0
  6
SLD-Durchgehend
 62
     7
370
     0
100
AcDbCircle
 10
397.2166905884
 20
27.1936818339
 30
0.0
 40
9.336383935046333
100
AcDbArc
 50
28.8374327393
 51
198.8193368339
  0
MTEXT
  5
105
330
1F
100
AcDbEntity
  8
0
  6
Continuous
 62
     7
370
     0
100
AcDbMText
 10
5.7028577714
 20
34.989604144
 30
0.0
 40
4.0
 41
0.0
 71
     1
 72
     1
  1
A
  7
SLDTEXTSTYLE0
 73
     1
 44
1.0
  0
MTEXT
  5
106
330
1F
100
AcDbEntity
  8
0
  6
Continuous
 62
     7
370
     0
100
AcDbMText
 10
33.5
 20
9.489604144
 30
0.0
 40
4.0
 41
0.0
 71
     1
 72
     1
  1
8
  7
SLDTEXTSTYLE0
 73
     1
 44
1.0
  0
MTEXT
  5
107
330
1F
100
AcDbEntity
  8
0
  6
Continuous
 62
     7
370
     0
100
AcDbMText
 10
5.7622862171
 20
80.989604144
 30
0.0
 40
4.0
 41
0.0
 71
     1
 72
     1
  1
B
  7
SLDTEXTSTYLE0
 73
     1
 44
1.0
  0
MTEXT
  5
108
330
1F
100
AcDbEntity
  8
0
  6
Continuous
 62
     7
370
     0
100
AcDbMText
 10
5.6317379175
 20
126.8054731028
 30
0.0
 40
4.0
 41
0.0
 71
     1
 72
     1
  1
C
  7
SLDTEXTSTYLE0
 73
     1
 44
1.0
  0
MTEXT
  5
109
330
1F
100
AcDbEntity
  8
0
  6
Continuous
 62
     7
370
     0
100
AcDbMText
 10
133.5
 20
9.489604144
 30
0.0
 40
4.0
 41
0.0
 71
     1
 72
     1
  1
6
  7
SLDTEXTSTYLE0
 73
     1
 44
1.0
  0
MTEXT
  5
10A
330
1F
100
AcDbEntity
  8
0
  6
Continuous
 62
     7
370
     0
100
AcDbMText
 10
83.5
 20
9.489604144
 30
0.0
 40
4.0
 41
0.0
 71
     1
 72
     1
  1
7
  7
SLDTEXTSTYLE0
 73
     1
 44
1.0
  0
MTEXT
  5
10B
330
1F
100
AcDbEntity
  8
0
  6
Continuous
 62
     7
370
     0
100
AcDbMText
 10
183.5
 20
9.489604144
 30
0.0
 40
4.0
 41
0.0
 71
     1
 72
     1
  1
5
  7
SLDTEXTSTYLE0
 73
     1
 44
1.0
  0
MTEXT
  5
10C
330
1F
100
AcDbEntity
  8
0
  6
Continuous
 62
     7
370
     0
100
AcDbMText
 10
5.5396723969
 20
173.989604144
 30
0.0
 40
4.0
 41
0.0
 71
     1
 72
     1
  1
D
  7
SLDTEXTSTYLE0
 73
     1
 44
1.0
  0
MTEXT
  5
10D
330
1F
100
AcDbEntity
  8
0
  6
Continuous
 62
     7
370
     0
100
AcDbMText
 10
5.7692745255
 20
219.989604144
 30
0.0
 40
4.0
 41
0.0
 71
     1
 72
     1
  1
E
  7
SLDTEXTSTYLE0
 73
     1
 44
1.0
  0
MTEXT
  5
10E
330
1F
100
AcDbEntity
  8
0
  6
Continuous
 62
     7
370
     0
100
AcDbMText
 10
6.0
 20
265.989604144
 30
0.0
 40
4.0
 41
0.0
 71
     1
 72
     1
  1
F
  7
SLDTEXTSTYLE0
 73
     1
 44
1.0
  0
MTEXT
  5
10F
330
1F
100
AcDbEntity
  8
0
  6
Continuous
 62
     7
370
     0
100
AcDbMText
 10
33.5
 20
291.489604144
 30
0.0
 40
4.0
 41
0.0
 71
     1
 72
     1
  1
8
  7
SLDTEXTSTYLE0
 73
     1
 44
1.0
  0
MTEXT
  5
110
330
1F
100
AcDbEntity
  8
0
  6
Continuous
 62
     7
370
     0
100
AcDbMText
 10
83.5
 20
291.489604144
 30
0.0
 40
4.0
 41
0.0
 71
     1
 72
     1
  1
7
  7
SLDTEXTSTYLE0
 73
     1
 44
1.0
  0
MTEXT
  5
111
330
1F
100
AcDbEntity
  8
0
  6
Continuous
 62
     7
370
     0
100
AcDbMText
 10
133.5
 20
291.489604144
 30
0.0
 40
4.0
 41
0.0
 71
     1
 72
     1
  1
6
  7
SLDTEXTSTYLE0
 73
     1
 44
1.0
  0
MTEXT
  5
112
330
1F
100
AcDbEntity
  8
0
  6
Continuous
 62
     7
370
     0
100
AcDbMText
 10
183.5
 20
291.489604144
 30
0.0
 40
4.0
 41
0.0
 71
     1
 72
     1
  1
5
  7
SLDTEXTSTYLE0
 73
     1
 44
1.0
  0
MTEXT
  5
113
330
1F
100
AcDbEntity
  8
0
  6
Continuous
 62
     7
370
     0
100
AcDbMText
 10
410.7729847128
 20
34.9442010866
 30
0.0
 40
4.0
 41
0.0
 71
     1
 72
     1
  1
A
  7
SLDTEXTSTYLE0
 73
     1
 44
1.0
  0
MTEXT
  5
114
330
1F
100
AcDbEntity
  8
0
  6
Continuous
 62
     7
370
     0
100
AcDbMText
 10
410.7121909102
 20
81.1364716754
 30
0.0
 40
4.0
 41
0.0
 71
     1
 72
     1
  1
B
  7
SLDTEXTSTYLE0
 73
     1
 44
1.0
  0
MTEXT
  5
115
330
1F
100
AcDbEntity
  8
0
  6
Continuous
 62
     7
370
     0
100
AcDbMText
 10
410.6203893089
 20
126.989604144
 30
0.0
 40
4.0
 41
0.0
 71
     1
 72
     1
  1
C
  7
SLDTEXTSTYLE0
 73
     1
 44
1.0
  0
MTEXT
  5
116
330
1F
100
AcDbEntity
  8
0
  6
Continuous
 62
     7
370
     0
100
AcDbMText
 10
233.5
 20
291.489604144
 30
0.0
 40
4.0
 41
0.0
 71
     1
 72
     1
  1
4
  7
SLDTEXTSTYLE0
 73
     1
 44
1.0
  0
MTEXT
  5
117
330
1F
100
AcDbEntity
  8
0
  6
Continuous
 62
     7
370
     0
100
AcDbMText
 10
284.0
 20
291.489604144
 30
0.0
 40
4.0
 41
0.0
 71
     1
 72
     1
  1
3
  7
SLDTEXTSTYLE0
 73
     1
 44
1.0
  0
MTEXT
  5
118
330
1F
100
AcDbEntity
  8
0
  6
Continuous
 62
     7
370
     0
100
AcDbMText
 10
334.0
 20
291.489604144
 30
0.0
 40
4.0
 41
0.0
 71
     1
 72
     1
  1
2
  7
SLDTEXTSTYLE0
 73
     1
 44
1.0
  0
MTEXT
  5
119
330
1F
100
AcDbEntity
  8
0
  6
Continuous
 62
     7
370
     0
100
AcDbMText
 10
410.5396138496
 20
174.1137585664
 30
0.0
 40
4.0
 41
0.0
 71
     1
 72
     1
  1
D
  7
SLDTEXTSTYLE0
 73
     1
 44
1.0
  0
MTEXT
  5
11A
330
1F
100
AcDbEntity
  8
0
  6
Continuous
 62
     7
370
     0
100
AcDbMText
 10
410.7442616209
 20
220.1816801137
 30
0.0
 40
4.0
 41
0.0
 71
     1
 72
     1
  1
E
  7
SLDTEXTSTYLE0
 73
     1
 44
1.0
  0
MTEXT
  5
11B
330
1F
100
AcDbEntity
  8
0
  6
Continuous
 62
     7
370
     0
100
AcDbMText
 10
384.0
 20
291.489604144
 30
0.0
 40
4.0
 41
0.0
 71
     1
 72
     1
  1
1
  7
SLDTEXTSTYLE0
 73
     1
 44
1.0
  0
MTEXT
  5
11C
330
1F
100
AcDbEntity
  8
0
  6
Continuous
 62
     7
370
     0
100
AcDbMText
 10
411.0
 20
265.989604144
 30
0.0
 40
4.0
 41
0.0
 71
     1
 72
     1
  1
F
  7
SLDTEXTSTYLE0
 73
     1
 44
1.0
  0
MTEXT
  5
11D
330
1F
100
AcDbEntity
  8
0
  6
Continuous
 62
     7
370
     0
100
AcDbMText
 10
233.8998971425
 20
9.6619578374
 30
0.0
 40
4.0
 41
0.0
 71
     1
 72
     1
  1
4
  7
SLDTEXTSTYLE0
 73
     1
 44
1.0
  0
MTEXT
  5
11E
330
1F
100
AcDbEntity
  8
0
  6
Continuous
 62
     7
370
     0
100
AcDbMText
 10
284.3998971425
 20
9.6619578374
 30
0.0
 40
4.0
 41
0.0
 71
     1
 72
     1
  1
3
  7
SLDTEXTSTYLE0
 73
     1
 44
1.0
  0
MTEXT
  5
11F
330
1F
100
AcDbEntity
  8
0
  6
Continuous
 62
     7
370
     0
100
AcDbMText
 10
334.3998971425
 20
9.6619578374
 30
0.0
 40
4.0
 41
0.0
 71
     1
 72
     1
  1
2
  7
SLDTEXTSTYLE0
 73
     1
 44
1.0
  0
MTEXT
  5
120
330
1F
100
AcDbEntity
  8
0
  6
Continuous
 62
     7
370
     0
100
AcDbMText
 10
384.3998971425
 20
9.6619578374
 30
0.0
 40
4.0
 41
0.0
 71
     1
 72
     1
  1
1
  7
SLDTEXTSTYLE0
 73
     1
 44
1.0
  0
MTEXT
  5
121
330
1F
100
AcDbEntity
  8
0
  6
Continuous
 62
     7
370
     0
100
AcDbMText
 10
235.333368457
 20
13.9532375323
 30
0.0
 40
3.0
 41
0.0
 71
     1
 72
     1
  1
01803000
  7
SLDTEXTSTYLE0
 73
     1
 44
1.0
  0
MTEXT
  5
122
330
1F
100
AcDbEntity
  8
0
  6
Continuous
 62
     7
370
     0
100
AcDbMText
 10
277.5042038186
 20
17.4849420031
 30
0.0
 40
4.0
 41
0.0
 71
     1
 72
     1
  1
Vibrateur à bille
  7
SLDTEXTSTYLE0
 73
     1
 44
1.0
  0
MTEXT
  5
123
330
1F
100
AcDbEntity
  8
0
  6
Continuous
 62
     7
370
     0
100
AcDbMText
 10
223.3772893016
 20
16.5178662951
 30
0.0
 40
2.0
 41
0.0
 71
     1
 72
     1
  1
Bestell Nr.: / Part no.: / No d`article:
  7
SLDTEXTSTYLE0
 73
     1
 44
1.0
  0
INSERT
  5
12D
330
1F
100
AcDbEntity
  8
0
  6
Continuous
 62
     7
370
     0
100
AcDbBlockReference
  2
SW_NOTE_3
 10
347.2177413053
 20
17.0976931256
 30
0.0
  0
MTEXT
  5
12E
330
1F
100
AcDbEntity
  8
0
  6
Continuous
 62
     7
370
     0
100
AcDbMText
 10
347.2177413053
 20
22.8281708005
 30
0.0
 40
1.8520833333
 41
0.0
 71
     1
 72
     1
  1
Fritz-Lenges-Straße 3,  55252 Mainz-Kastel
  7
SLDTEXTSTYLE0
 73
     1
 44
1.0
  0
INSERT
  5
134
330
1F
100
AcDbEntity
  8
0
  6
Continuous
 62
     7
370
     0
100
AcDbBlockReference
  2
SW_NOTE_4
 10
347.2177413053
 20
23.0066254519
 30
0.0
  0
MTEXT
  5
135
330
1F
100
AcDbEntity
  8
0
  6
Continuous
 62
     7
370
     0
100
AcDbMText
 10
407.0748866834
 20
30.8708309295
 30
0.0
 40
0.65
 41
0.0
 71
     1
 72
     1
  1
R
  7
SLDTEXTSTYLE0
 73
     1
 44
1.0
  0
MTEXT
  5
136
330
1F
100
AcDbEntity
  8
0
  6
Continuous
 62
     7
370
     0
100
AcDbMText
 10
277.5042038186
 20
24.4879186679
 30
0.0
 40
4.0
 41
0.0
 71
     1
 72
     1
  1
Ball vibrator
  7
SLDTEXTSTYLE0
 73
     1
 44
1.0
  0
MTEXT
  5
137
330
1F
100
AcDbEntity
  8
0
  6
Continuous
 62
     7
370
     0
100
AcDbMText
 10
277.5042038186
 20
31.495794101
 30
0.0
 40
4.0
 41
0.0
 71
     1
 72
     1
  1
Kugelvibrator
  7
SLDTEXTSTYLE0
 73
     1
 44
1.0
  0
MTEXT
  5
139
330
1F
100
AcDbEntity
  8
0
  6
Continuous
 62
     7
370
     0
100
AcDbMText
 10
277.5042038186
 20
40.9994003142
 30
0.0
 40
4.0
 41
0.0
 71
     1
 72
     1
  1
NCB 3
  7
SLDTEXTSTYLE3
 73
     1
 44
1.0
  0
MTEXT
  5
13A
330
1F
100
AcDbEntity
  8
0
  6
Continuous
 62
     7
370
     0
100
AcDbMText
 10
223.3772893016
 20
23.7813752683
 30
0.0
 40
2.0
 41
0.0
 71
     1
 72
     1
  1
Angebot Nr.: / Quotation no.: / Offre no.:
  7
SLDTEXTSTYLE0
 73
     1
 44
1.0
  0
MTEXT
  5
13B
330
1F
100
AcDbEntity
  8
0
  6
Continuous
 62
     7
370
     0
100
AcDbMText
 10
225.29574253
 20
36.1700862926
 30
0.0
 40
2.5
 41
0.0
 71
     1
 72
     1
  1
tous droits réservés
  7
SLDTEXTSTYLE0
 73
     1
 44
1.0
  0
MTEXT
  5
13C
330
1F
100
AcDbEntity
  8
0
  6
Continuous
 62
     7
370
     0
100
AcDbMText
 10
225.29574253
 20
40.2315981188
 30
0.0
 40
2.5
 41
0.0
 71
     1
 72
     1
  1
all rights reserved
  7
SLDTEXTSTYLE0
 73
     1
 44
1.0
  0
MTEXT
  5
13D
330
1F
100
AcDbEntity
  8
0
  6
Continuous
 62
     7
370
     0
100
AcDbMText
 10
225.29574253
 20
44.0417302482
 30
0.0
 40
2.5
 41
0.0
 71
     1
 72
     1
  1
alle Schutzrechte vorbehalten
  7
SLDTEXTSTYLE0
 73
     1
 44
1.0
  0
MTEXT
  5
13E
330
1F
100
AcDbEntity
  8
0
  6
Continuous
 62
     7
370
     0
100
AcDbMText
 10
223.3772893016
 20
31.3281263199
 30
0.0
 40
2.0
 41
0.0
 71
     1
 72
     1
  1
Datum: / Date: / Date:
  7
SLDTEXTSTYLE0
 73
     1
 44
1.0
  0
MTEXT
  5
13F
330
1F
100
AcDbEntity
  8
0
  6
Continuous
 62
     7
370
     0
100
AcDbMText
 10
235.333368457
 20
28.459898148
 30
0.0
 40
3.0
 41
0.0
 71
     1
 72
     1
  1
24.06.2022
  7
SLDTEXTSTYLE0
 73
     1
 44
1.0
  0
LINE
  5
140
330
1F
100
AcDbEntity
  8
0
  6
SLD-Durchgehend
 62
     7
370
    15
100
AcDbLine
 10
101.137220776
 20
235.5465435656
 30
0.0
 11
101.137220776
 21
266.5465435656
 31
0.0
  0
LINE
  5
141
330
1F
100
AcDbEntity
  8
0
  6
SLD-Durchgehend
 62
     7
370
    15
100
AcDbLine
 10
81.637220776
 20
243.0465435656
 30
0.0
 11
81.637220776
 21
235.5465435656
 31
0.0
  0
LINE
  5
142
330
1F
100
AcDbEntity
  8
0
  6
SLD-Durchgehend
 62
     7
370
    15
100
AcDbLine
 10
81.637220776
 20
251.0465435656
 30
0.0
 11
81.637220776
 21
245.0465435656
 31
0.0
  0
LINE
  5
143
330
1F
100
AcDbEntity
  8
0
  6
SLD-Durchgehend
 62
     7
370
    15
100
AcDbLine
 10
81.637220776
 20
259.0465435656
 30
0.0
 11
81.637220776
 21
253.0465435656
 31
0.0
  0
LINE
  5
144
330
1F
100
AcDbEntity
  8
0
  6
SLD-Durchgehend
 62
     7
370
    15
100
AcDbLine
 10
81.637220776
 20
266.5465435656
 30
0.0
 11
81.637220776
 21
261.0465435656
 31
0.0
  0
ARC
  5
145
330
1F
100
AcDbEntity
  8
0
  6
SLD-Durchgehend
 62
     7
370
    15
100
AcDbCircle
 10
82.137220776
 20
266.5465435656
 30
0.0
 40
0.5000000000000142
100
AcDbArc
 50
90.0
 51
180.0
  0
ARC
  5
146
330
1F
100
AcDbEntity
  8
0
  6
SLD-Durchgehend
 62
     7
370
    15
100
AcDbCircle
 10
100.637220776
 20
266.5465435656
 30
0.0
 40
0.5
100
AcDbArc
 50
0.0
 51
90.0
  0
ARC
  5
147
330
1F
100
AcDbEntity
  8
0
  6
SLD-Durchgehend
 62
     7
370
    15
100
AcDbCircle
 10
82.137220776
 20
235.5465435656
 30
0.0
 40
0.5
100
AcDbArc
 50
180.0
 51
270.0
  0
ARC
  5
148
330
1F
100
AcDbEntity
  8
0
  6
SLD-Durchgehend
 62
     7
370
    15
100
AcDbCircle
 10
100.637220776
 20
235.5465435656
 30
0.0
 40
0.5000000000000142
100
AcDbArc
 50
270.0
 51
0.0
  0
LINE
  5
149
330
1F
100
AcDbEntity
  8
0
  6
SLD-Durchgehend
 62
     7
370
    15
100
AcDbLine
 10
82.887220776
 20
253.0465435656
 30
0.0
 11
82.887220776
 21
251.0465435656
 31
0.0
  0
LINE
  5
14A
330
1F
100
AcDbEntity
  8
0
  6
SLD-Durchgehend
 62
     7
370
    15
100
AcDbLine
 10
82.887220776
 20
245.0465435656
 30
0.0
 11
82.887220776
 21
243.0465435656
 31
0.0
  0
LINE
  5
14B
330
1F
100
AcDbEntity
  8
0
  6
SLD-Durchgehend
 62
     7
370
    15
100
AcDbLine
 10
82.887220776
 20
261.0465435656
 30
0.0
 11
82.887220776
 21
259.0465435656
 31
0.0
  0
LINE
  5
14C
330
1F
100
AcDbEntity
  8
0
  6
SLD-Durchgehend
 62
     7
370
    15
100
AcDbLine
 10
91.387220776
 20
245.0465435656
 30
0.0
 11
91.387220776
 21
243.0465435656
 31
0.0
  0
LINE
  5
14D
330
1F
100
AcDbEntity
  8
0
  6
SLD-Durchgehend
 62
     7
370
    15
100
AcDbLine
 10
81.637220776
 20
245.0465435656
 30
0.0
 11
91.387220776
 21
245.0465435656
 31
0.0
  0
LINE
  5
14E
330
1F
100
AcDbEntity
  8
0
  6
SLD-Durchgehend
 62
     7
370
    15
100
AcDbLine
 10
81.637220776
 20
243.0465435656
 30
0.0
 11
91.387220776
 21
243.0465435656
 31
0.0
  0
LINE
  5
14F
330
1F
100
AcDbEntity
  8
0
  6
SLD-Durchgehend
 62
     7
370
    15
100
AcDbLine
 10
81.637220776
 20
251.0465435656
 30
0.0
 11
91.387220776
 21
251.0465435656
 31
0.0
  0
LINE
  5
150
330
1F
100
AcDbEntity
  8
0
  6
SLD-Durchgehend
 62
     7
370
    15
100
AcDbLine
 10
81.637220776
 20
253.0465435656
 30
0.0
 11
91.387220776
 21
253.0465435656
 31
0.0
  0
LINE
  5
151
330
1F
100
AcDbEntity
  8
0
  6
SLD-Durchgehend
 62
     7
370
    15
100
AcDbLine
 10
81.637220776
 20
259.0465435656
 30
0.0
 11
91.387220776
 21
259.0465435656
 31
0.0
  0
LINE
  5
152
330
1F
100
AcDbEntity
  8
0
  6
SLD-Durchgehend
 62
     7
370
    15
100
AcDbLine
 10
81.637220776
 20
261.0465435656
 30
0.0
 11
91.387220776
 21
261.0465435656
 31
0.0
  0
LINE
  5
153
330
1F
100
AcDbEntity
  8
0
  6
SLD-Durchgehend
 62
     7
370
    15
100
AcDbLine
 10
91.387220776
 20
251.0465435656
 30
0.0
 11
91.387220776
 21
253.0465435656
 31
0.0
  0
LINE
  5
154
330
1F
100
AcDbEntity
  8
0
  6
SLD-Durchgehend
 62
     7
370
    15
100
AcDbLine
 10
91.387220776
 20
259.0465435656
 30
0.0
 11
91.387220776
 21
261.0465435656
 31
0.0
  0
LINE
  5
155
330
1F
100
AcDbEntity
  8
0
  6
SLD-Durchgehend
 62
     7
370
    15
100
AcDbLine
 10
82.137220776
 20
267.0465435656
 30
0.0
 11
100.637220776
 21
267.0465435656
 31
0.0
  0
LINE
  5
156
330
1F
100
AcDbEntity
  8
0
  6
SLD-Durchgehend
 62
     7
370
    15
100
AcDbLine
 10
85.387220776
 20
270.0465435656
 30
0.0
 11
91.387220776
 21
270.0465435656
 31
0.0
  0
LINE
  5
157
330
1F
100
AcDbEntity
  8
0
  6
SLD-Durchgehend
 62
     7
370
    15
100
AcDbLine
 10
91.387220776
 20
270.0465435656
 30
0.0
 11
97.387220776
 21
270.0465435656
 31
0.0
  0
ARC
  5
158
330
1F
100
AcDbEntity
  8
0
  6
SLD-Durchgehend
 62
     7
370
    15
100
AcDbCircle
 10
98.387220776
 20
267.5465435656
 30
0.0
 40
0.5000000000000284
100
AcDbArc
 50
180.0
 51
270.0
  0
ARC
  5
159
330
1F
100
AcDbEntity
  8
0
  6
SLD-Durchgehend
 62
     7
370
    15
100
AcDbCircle
 10
84.387220776
 20
267.5465435656
 30
0.0
 40
0.5000000000000142
100
AcDbArc
 50
270.0
 51
0.0
  0
ARC
  5
15A
330
1F
100
AcDbEntity
  8
0
  6
SLD-Durchgehend
 62
     7
370
    15
100
AcDbCircle
 10
85.387220776
 20
269.5465435656
 30
0.0
 40
0.5
100
AcDbArc
 50
90.0
 51
180.0
  0
LINE
  5
15B
330
1F
100
AcDbEntity
  8
0
  6
SLD-Durchgehend
 62
     7
370
    15
100
AcDbLine
 10
84.887220776
 20
267.5465435656
 30
0.0
 11
84.887220776
 21
269.5465435656
 31
0.0
  0
ARC
  5
15C
330
1F
100
AcDbEntity
  8
0
  6
SLD-Durchgehend
 62
     7
370
    15
100
AcDbCircle
 10
97.387220776
 20
269.5465435656
 30
0.0
 40
0.5
100
AcDbArc
 50
0.0
 51
90.0
  0
LINE
  5
15D
330
1F
100
AcDbEntity
  8
0
  6
SLD-Durchgehend
 62
     7
370
    15
100
AcDbLine
 10
97.887220776
 20
269.5465435656
 30
0.0
 11
97.887220776
 21
267.5465435656
 31
0.0
  0
CIRCLE
  5
15E
330
1F
100
AcDbEntity
  8
0
  6
SLD-Durchgehend
 62
     7
370
    15
100
AcDbCircle
 10
104.387220776
 20
202.5465435656
 30
0.0
 40
22.24019237886463
  0
LINE
  5
15F
330
1F
100
AcDbEntity
  8
0
  6
SLD-Durchgehend
 62
     7
370
    15
100
AcDbLine
 10
125.887220776
 20
223.0465435656
 30
0.0
 11
127.887220776
 21
223.0465435656
 31
0.0
  0
LINE
  5
160
330
1F
100
AcDbEntity
  8
0
  6
SLD-Durchgehend
 62
     7
370
    15
100
AcDbLine
 10
128.887220776
 20
217.0465435656
 30
0.0
 11
125.887220776
 21
223.0465435656
 31
0.0
  0
LINE
  5
161
330
1F
100
AcDbEntity
  8
0
  6
SLD-Durchgehend
 62
     7
370
    15
100
AcDbLine
 10
131.887220776
 20
223.0465435656
 30
0.0
 11
128.887220776
 21
217.0465435656
 31
0.0
  0
LINE
  5
162
330
1F
100
AcDbEntity
  8
0
  6
SLD-Durchgehend
 62
     7
370
    15
100
AcDbLine
 10
129.887220776
 20
223.0465435656
 30
0.0
 11
131.887220776
 21
223.0465435656
 31
0.0
  0
LINE
  5
163
330
1F
100
AcDbEntity
  8
0
  6
SLD-Durchgehend
 62
     7
370
    15
100
AcDbLine
 10
129.887220776
 20
231.0465435656
 30
0.0
 11
129.887220776
 21
223.0465435656
 31
0.0
  0
LINE
  5
164
330
1F
100
AcDbEntity
  8
0
  6
SLD-Durchgehend
 62
     7
370
    15
100
AcDbLine
 10
80.887220776
 20
217.0465435656
 30
0.0
 11
80.887220776
 21
225.0465435656
 31
0.0
  0
LINE
  5
165
330
1F
100
AcDbEntity
  8
0
  6
SLD-Durchgehend
 62
     7
370
    15
100
AcDbLine
 10
80.887220776
 20
225.0465435656
 30
0.0
 11
82.887220776
 21
225.0465435656
 31
0.0
  0
LINE
  5
166
330
1F
100
AcDbEntity
  8
0
  6
SLD-Durchgehend
 62
     7
370
    15
100
AcDbLine
 10
82.887220776
 20
225.0465435656
 30
0.0
 11
79.887220776
 21
231.0465435656
 31
0.0
  0
LINE
  5
167
330
1F
100
AcDbEntity
  8
0
  6
SLD-Durchgehend
 62
     7
370
    15
100
AcDbLine
 10
79.887220776
 20
231.0465435656
 30
0.0
 11
76.887220776
 21
225.0465435656
 31
0.0
  0
LINE
  5
168
330
1F
100
AcDbEntity
  8
0
  6
SLD-Durchgehend
 62
     7
370
    15
100
AcDbLine
 10
76.887220776
 20
225.0465435656
 30
0.0
 11
78.887220776
 21
225.0465435656
 31
0.0
  0
LINE
  5
169
330
1F
100
AcDbEntity
  8
0
  6
SLD-Durchgehend
 62
     7
370
    15
100
AcDbLine
 10
78.887220776
 20
225.0465435656
 30
0.0
 11
78.887220776
 21
217.0465435656
 31
0.0
  0
LINE
  5
16A
330
1F
100
AcDbEntity
  8
0
  6
SLD-Durchgehend
 62
     7
370
    15
100
AcDbLine
 10
78.887220776
 20
217.0465435656
 30
0.0
 11
80.887220776
 21
217.0465435656
 31
0.0
  0
CIRCLE
  5
16B
330
1F
100
AcDbEntity
  8
0
  6
SLD-Durchgehend
 62
     7
370
    15
100
AcDbCircle
 10
79.387220776
 20
179.0465435656
 30
0.0
 40
1.000000000000014
  0
CIRCLE
  5
16C
330
1F
100
AcDbEntity
  8
0
  6
SLD-Durchgehend
 62
     7
370
    15
100
AcDbCircle
 10
129.387220776
 20
179.0465435656
 30
0.0
 40
1.0
  0
CIRCLE
  5
16D
330
1F
100
AcDbEntity
  8
0
  6
SLD-Durchgehend
 62
     7
370
    15
100
AcDbCircle
 10
104.387220776
 20
202.5465435656
 30
0.0
 40
22.25
  0
LINE
  5
16E
330
1F
100
AcDbEntity
  8
0
  6
SLD-Durchgehend
 62
     7
370
    15
100
AcDbLine
 10
47.887220776
 20
186.0465435656
 30
0.0
 11
47.887220776
 21
170.0465435656
 31
0.0
  0
LINE
  5
16F
330
1F
100
AcDbEntity
  8
0
  6
SLD-Durchgehend
 62
     7
370
    15
100
AcDbLine
 10
47.887220776
 20
186.0465435656
 30
0.0
 11
69.387220776
 21
186.0465435656
 31
0.0
  0
ARC
  5
170
330
1F
100
AcDbEntity
  8
0
  6
SLD-Durchgehend
 62
     7
370
    15
100
AcDbCircle
 10
69.387220776
 20
188.5465435656
 30
0.0
 40
2.5
100
AcDbArc
 50
270.0
 51
0.0
  0
LINE
  5
171
330
1F
100
AcDbEntity
  8
0
  6
SLD-Durchgehend
 62
     7
370
    15
100
AcDbLine
 10
71.887220776
 20
188.5465435656
 30
0.0
 11
71.887220776
 21
235.0465435656
 31
0.0
  0
LINE
  5
172
330
1F
100
AcDbEntity
  8
0
  6
SLD-Durchgehend
 62
     7
370
    15
100
AcDbLine
 10
136.887220776
 20
235.0465435656
 30
0.0
 11
71.887220776
 21
235.0465435656
 31
0.0
  0
LINE
  5
173
330
1F
100
AcDbEntity
  8
0
  6
SLD-Durchgehend
 62
     7
370
    15
100
AcDbLine
 10
136.887220776
 20
235.0465435656
 30
0.0
 11
136.887220776
 21
188.5465435656
 31
0.0
  0
ARC
  5
174
330
1F
100
AcDbEntity
  8
0
  6
SLD-Durchgehend
 62
     7
370
    15
100
AcDbCircle
 10
139.387220776
 20
188.5465435656
 30
0.0
 40
2.5
100
AcDbArc
 50
180.0
 51
270.0
  0
LINE
  5
175
330
1F
100
AcDbEntity
  8
0
  6
SLD-Durchgehend
 62
     7
370
    15
100
AcDbLine
 10
139.387220776
 20
186.0465435656
 30
0.0
 11
160.887220776
 21
186.0465435656
 31
0.0
  0
LINE
  5
176
330
1F
100
AcDbEntity
  8
0
  6
SLD-Durchgehend
 62
     7
370
    15
100
AcDbLine
 10
160.887220776
 20
170.0465435656
 30
0.0
 11
160.887220776
 21
186.0465435656
 31
0.0
  0
LINE
  5
177
330
1F
100
AcDbEntity
  8
0
  6
SLD-Durchgehend
 62
     7
370
    15
100
AcDbLine
 10
129.387220776
 20
170.0465435656
 30
0.0
 11
160.887220776
 21
170.0465435656
 31
0.0
  0
LINE
  5
178
330
1F
100
AcDbEntity
  8
0
  6
SLD-Durchgehend
 62
     7
370
    15
100
AcDbLine
 10
129.387220776
 20
170.0465435656
 30
0.0
 11
129.387220776
 21
170.5465435656
 31
0.0
  0
LINE
  5
179
330
1F
100
AcDbEntity
  8
0
  6
SLD-Durchgehend
 62
     7
370
    15
100
AcDbLine
 10
129.387220776
 20
170.5465435656
 30
0.0
 11
79.387220776
 21
170.5465435656
 31
0.0
  0
LINE
  5
17A
330
1F
100
AcDbEntity
  8
0
  6
SLD-Durchgehend
 62
     7
370
    15
100
AcDbLine
 10
79.387220776
 20
170.5465435656
 30
0.0
 11
79.387220776
 21
170.0465435656
 31
0.0
  0
LINE
  5
17B
330
1F
100
AcDbEntity
  8
0
  6
SLD-Durchgehend
 62
     7
370
    15
100
AcDbLine
 10
47.887220776
 20
170.0465435656
 30
0.0
 11
79.387220776
 21
170.0465435656
 31
0.0
  0
LINE
  5
17C
330
1F
100
AcDbEntity
  8
0
  6
SLD-Durchgehend
 62
     7
370
    15
100
AcDbLine
 10
127.887220776
 20
231.0465435656
 30
0.0
 11
129.887220776
 21
231.0465435656
 31
0.0
  0
LINE
  5
17D
330
1F
100
AcDbEntity
  8
0
  6
SLD-Durchgehend
 62
     7
370
    15
100
AcDbLine
 10
127.887220776
 20
223.0465435656
 30
0.0
 11
127.887220776
 21
231.0465435656
 31
0.0
  0
LINE
  5
17E
330
1F
100
AcDbEntity
  8
0
  6
SLD-Durchgehend
 62
     8
370
     0
100
AcDbLine
 10
101.137220776
 20
266.5465435656
 30
0.0
 11
81.637220776
 21
266.5465435656
 31
0.0
  0
LINE
  5
17F
330
1F
100
AcDbEntity
  8
0
  6
SLD-Durchgehend
 62
     8
370
     0
100
AcDbLine
 10
81.637220776
 20
235.5465435656
 30
0.0
 11
101.137220776
 21
235.5465435656
 31
0.0
  0
LWPOLYLINE
  5
180
330
1F
100
AcDbEntity
  8
0
  6
SLD-Durchgehend
 62
     8
370
     0
100
AcDbPolyline
 90
        9
 70
   128
 43
0.0
 10
90.887220776
 20
267.0465435656
 10
90.9359933565
 20
267.0561509254
 10
90.9828916341
 20
267.0846037994
 10
91.0261133343
 20
267.1308087595
 10
91.0639974713
 20
267.192990175
 10
91.0950881791
 20
267.2687584491
 10
91.1181906591
 20
267.3552018494
 10
91.1324170961
 20
267.4489984046
 10
91.137220776
 20
267.5465435656
  0
LINE
  5
181
330
1F
100
AcDbEntity
  8
0
  6
SLD-Durchgehend
 62
     8
370
     0
100
AcDbLine
 10
91.637220776
 20
267.5465435656
 30
0.0
 11
91.137220776
 21
267.5465435656
 31
0.0
  0
LWPOLYLINE
  5
182
330
1F
100
AcDbEntity
  8
0
  6
SLD-Durchgehend
 62
     8
370
     0
100
AcDbPolyline
 90
        9
 70
   128
 43
0.0
 10
91.887220776
 20
267.0465435656
 10
91.8384481955
 20
267.0561509254
 10
91.7915499179
 20
267.0846037994
 10
91.7483282177
 20
267.1308087595
 10
91.7104440807
 20
267.192990175
 10
91.6793533729
 20
267.2687584491
 10
91.6562508929
 20
267.3552018494
 10
91.6420244559
 20
267.4489984046
 10
91.637220776
 20
267.5465435656
  0
LINE
  5
183
330
1F
100
AcDbEntity
  8
0
  6
SLD-Durchgehend
 62
     8
370
     0
100
AcDbLine
 10
91.637220776
 20
267.5465435656
 30
0.0
 11
97.637220776
 21
267.5465435656
 31
0.0
  0
LWPOLYLINE
  5
184
330
1F
100
AcDbEntity
  8
0
  6
SLD-Durchgehend
 62
     8
370
     0
100
AcDbPolyline
 90
        9
 70
   128
 43
0.0
 10
97.887220776
 20
267.0465435656
 10
97.8384481955
 20
267.0561509254
 10
97.7915499179
 20
267.0846037994
 10
97.7483282177
 20
267.1308087595
 10
97.7104440807
 20
267.192990175
 10
97.6793533729
 20
267.2687584491
 10
97.6562508929
 20
267.3552018494
 10
97.6420244559
 20
267.4489984046
 10
97.637220776
 20
267.5465435656
  0
LWPOLYLINE
  5
185
330
1F
100
AcDbEntity
  8
0
  6
SLD-Durchgehend
 62
     8
370
     0
100
AcDbPolyline
 90
        9
 70
   128
 43
0.0
 10
84.887220776
 20
267.0465435656
 10
84.9359933565
 20
267.0561509254
 10
84.9828916341
 20
267.0846037994
 10
85.0261133343
 20
267.1308087595
 10
85.0639974713
 20
267.192990175
 10
85.0950881791
 20
267.2687584491
 10
85.1181906591
 20
267.3552018494
 10
85.1324170961
 20
267.4489984046
 10
85.137220776
 20
267.5465435656
  0
LINE
  5
186
330
1F
100
AcDbEntity
  8
0
  6
SLD-Durchgehend
 62
     8
370
     0
100
AcDbLine
 10
85.137220776
 20
267.5465435656
 30
0.0
 11
91.137220776
 21
267.5465435656
 31
0.0
  0
LINE
  5
187
330
1F
100
AcDbEntity
  8
0
  6
SLD-Durchgehend
 62
     8
370
     0
100
AcDbLine
 10
91.137220776
 20
267.5465435656
 30
0.0
 11
91.137220776
 21
269.5465435656
 31
0.0
  0
LINE
  5
188
330
1F
100
AcDbEntity
  8
0
  6
SLD-Durchgehend
 62
     8
370
     0
100
AcDbLine
 10
91.137220776
 20
269.5465435656
 30
0.0
 11
91.637220776
 21
269.5465435656
 31
0.0
  0
LINE
  5
189
330
1F
100
AcDbEntity
  8
0
  6
SLD-Durchgehend
 62
     8
370
     0
100
AcDbLine
 10
91.637220776
 20
269.5465435656
 30
0.0
 11
91.637220776
 21
267.5465435656
 31
0.0
  0
LWPOLYLINE
  5
18A
330
1F
100
AcDbEntity
  8
0
  6
SLD-Durchgehend
 62
     8
370
     0
100
AcDbPolyline
 90
        9
 70
   128
 43
0.0
 10
91.137220776
 20
269.5465435656
 10
91.1420244559
 20
269.6440887266
 10
91.1562508929
 20
269.7378852818
 10
91.1793533729
 20
269.8243286821
 10
91.2104440807
 20
269.9000969562
 10
91.2483282177
 20
269.9622783718
 10
91.2915499179
 20
270.0084833319
 10
91.3384481955
 20
270.0369362058
 10
91.387220776
 20
270.0465435656
  0
LWPOLYLINE
  5
18B
330
1F
100
AcDbEntity
  8
0
  6
SLD-Durchgehend
 62
     8
370
     0
100
AcDbPolyline
 90
        9
 70
   128
 43
0.0
 10
91.637220776
 20
269.5465435656
 10
91.6324170961
 20
269.6440887266
 10
91.6181906591
 20
269.7378852818
 10
91.5950881791
 20
269.8243286821
 10
91.5639974713
 20
269.9000969562
 10
91.5261133343
 20
269.9622783718
 10
91.4828916341
 20
270.0084833319
 10
91.4359933565
 20
270.0369362058
 10
91.387220776
 20
270.0465435656
  0
LINE
  5
18C
330
1F
100
AcDbEntity
  8
0
  6
SLD-Durchgehend
 62
     8
370
     0
100
AcDbLine
 10
85.137220776
 20
269.5465435656
 30
0.0
 11
85.137220776
 21
267.5465435656
 31
0.0
  0
LINE
  5
18D
330
1F
100
AcDbEntity
  8
0
  6
SLD-Durchgehend
 62
     8
370
     0
100
AcDbLine
 10
91.137220776
 20
269.5465435656
 30
0.0
 11
85.137220776
 21
269.5465435656
 31
0.0
  0
LWPOLYLINE
  5
18E
330
1F
100
AcDbEntity
  8
0
  6
SLD-Durchgehend
 62
     8
370
     0
100
AcDbPolyline
 90
        9
 70
   128
 43
0.0
 10
85.137220776
 20
269.5465435656
 10
85.1420244559
 20
269.6440887266
 10
85.1562508929
 20
269.7378852818
 10
85.1793533729
 20
269.8243286821
 10
85.2104440807
 20
269.9000969562
 10
85.2483282177
 20
269.9622783718
 10
85.2915499179
 20
270.0084833319
 10
85.3384481955
 20
270.0369362058
 10
85.387220776
 20
270.0465435656
  0
LINE
  5
18F
330
1F
100
AcDbEntity
  8
0
  6
SLD-Durchgehend
 62
     8
370
     0
100
AcDbLine
 10
97.637220776
 20
269.5465435656
 30
0.0
 11
91.637220776
 21
269.5465435656
 31
0.0
  0
LWPOLYLINE
  5
190
330
1F
100
AcDbEntity
  8
0
  6
SLD-Durchgehend
 62
     8
370
     0
100
AcDbPolyline
 90
        9
 70
   128
 43
0.0
 10
97.637220776
 20
269.5465435656
 10
97.6324170961
 20
269.6440887266
 10
97.6181906591
 20
269.7378852818
 10
97.5950881791
 20
269.8243286821
 10
97.5639974713
 20
269.9000969562
 10
97.5261133343
 20
269.9622783718
 10
97.4828916341
 20
270.0084833319
 10
97.4359933565
 20
270.0369362058
 10
97.387220776
 20
270.0465435656
  0
LINE
  5
191
330
1F
100
AcDbEntity
  8
0
  6
SLD-Durchgehend
 62
     8
370
     0
100
AcDbLine
 10
97.637220776
 20
267.5465435656
 30
0.0
 11
97.637220776
 21
269.5465435656
 31
0.0
  0
LINE
  5
192
330
1F
100
AcDbEntity
  8
0
  6
SLD-Durchgehend
 62
     8
370
     0
100
AcDbLine
 10
97.887220776
 20
267.5465435656
 30
0.0
 11
97.637220776
 21
267.5465435656
 31
0.0
  0
LINE
  5
193
330
1F
100
AcDbEntity
  8
0
  6
SLD-Durchgehend
 62
     8
370
     0
100
AcDbLine
 10
85.137220776
 20
267.5465435656
 30
0.0
 11
84.887220776
 21
267.5465435656
 31
0.0
  0
LINE
  5
194
330
1F
100
AcDbEntity
  8
0
  6
SLD-Durchgehend
 62
     8
370
     0
100
AcDbLine
 10
84.887220776
 20
269.5465435656
 30
0.0
 11
85.137220776
 21
269.5465435656
 31
0.0
  0
LINE
  5
195
330
1F
100
AcDbEntity
  8
0
  6
SLD-Durchgehend
 62
     8
370
     0
100
AcDbLine
 10
97.637220776
 20
269.5465435656
 30
0.0
 11
97.887220776
 21
269.5465435656
 31
0.0
  0
CIRCLE
  5
196
330
1F
100
AcDbEntity
  8
0
  6
SLD-Durchgehend
 62
     8
370
     0
100
AcDbCircle
 10
104.387220776
 20
202.5465435656
 30
0.0
 40
5.999999999999972
  0
CIRCLE
  5
197
330
1F
100
AcDbEntity
  8
0
  6
SLD-Durchgehend
 62
     8
370
     0
100
AcDbCircle
 10
104.387220776
 20
202.5465435656
 30
0.0
 40
15.06682392020488
  0
CIRCLE
  5
198
330
1F
100
AcDbEntity
  8
0
  6
SLD-Durchgehend
 62
     8
370
     0
100
AcDbCircle
 10
104.387220776
 20
202.5465435656
 30
0.0
 40
19.95965881556566
  0
CIRCLE
  5
199
330
1F
100
AcDbEntity
  8
0
  6
SLD-Durchgehend
 62
     8
370
     0
100
AcDbCircle
 10
104.387220776
 20
202.5465435656
 30
0.0
 40
19.35344103291655
  0
CIRCLE
  5
19A
330
1F
100
AcDbEntity
  8
0
  6
SLD-Durchgehend
 62
     8
370
     0
100
AcDbCircle
 10
104.387220776
 20
202.5465435656
 30
0.0
 40
15.60468635614924
  0
INSERT
  5
19B
330
1F
100
AcDbEntity
  8
0
  6
Continuous
 62
     7
100
AcDbBlockReference
  2
Text Abluft
 10
43.7852486131
 20
253.4855314046
 30
0.0
  0
LEADER
  5
19D
330
1F
100
AcDbEntity
  8
0
  6
Continuous
 62
     7
100
AcDbLeader
  3
SLDDIMSTYLE0
 76
     2
 10
89.2327307783
 20
235.0465435656
 30
0.0
 10
54.8125349669
 20
248.2492400729
 30
0.0
212
11.02728635382899
222
-5.236291331772975
232
0.0
  0
INSERT
  5
19E
330
1F
100
AcDbEntity
  8
0
  6
Continuous
 62
     7
100
AcDbBlockReference
  2
Text Zuluft
 10
146.2851514395
 20
252.3523194277
 30
0.0
  0
LEADER
  5
19F
330
1F
100
AcDbEntity
  8
0
  6
Continuous
 62
     7
100
AcDbLeader
  3
SLDDIMSTYLE0
 76
     2
 10
121.4754100602
 20
235.0465435656
 30
0.0
 10
146.2851514395
 20
252.3523194277
 30
0.0
  0
DIMENSION
  5
1A0
330
1F
100
AcDbEntity
  8
0
  6
SLD-Durchgehend
 62
     7
370
     0
100
AcDbDimension
  2
_D
 10
160.887220776
 20
149.4498250421
 30
0.0
 11
104.387220776
 21
149.4498250421
 31
0.0
 70
   160
  1
<>
 71
     2
 42
-1.0
  3
SLDDIMSTYLE1
100
AcDbAlignedDimension
 13
47.887220776
 23
170.0465435656
 33
0.0
 14
160.887220776
 24
170.0465435656
 34
0.0
 50
0.0
100
AcDbRotatedDimension
  0
DIMENSION
  5
1AB
330
1F
100
AcDbEntity
  8
0
  6
SLD-Durchgehend
 62
     7
370
     0
100
AcDbDimension
  2
_D_1
 10
172.3088915392
 20
170.0465435656
 30
0.0
 11
172.3088915392
 21
178.0465435656
 31
0.0
 70
   160
  1
<>
 71
     2
 42
-1.0
  3
SLDDIMSTYLE1
100
AcDbAlignedDimension
 13
160.887220776
 23
186.0465435656
 33
0.0
 14
160.887220776
 24
170.0465435656
 34
0.0
 50
90.0
100
AcDbRotatedDimension
  0
DIMENSION
  5
1B5
330
1F
100
AcDbEntity
  8
0
  6
SLD-Durchgehend
 62
     7
370
     0
100
AcDbDimension
  2
_D_2
 10
184.887220776
 20
170.0465435656
 30
0.0
 11
184.887220776
 21
202.5465435656
 31
0.0
 70
   160
  1
<>
 71
     2
 42
-1.0
  3
SLDDIMSTYLE1
100
AcDbAlignedDimension
 13
136.887220776
 23
235.0465435656
 33
0.0
 14
160.887220776
 24
170.0465435656
 34
0.0
 50
90.0
100
AcDbRotatedDimension
  0
DIMENSION
  5
1BF
330
1F
100
AcDbEntity
  8
0
  6
SLD-Durchgehend
 62
     7
370
     0
100
AcDbDimension
  2
_D_3
 10
198.887220776
 20
170.0465435656
 30
0.0
 11
198.887220776
 21
220.0465435656
 31
0.0
 70
   160
  1
<>
 71
     2
 42
-1.0
  3
SLDDIMSTYLE1
100
AcDbAlignedDimension
 13
97.387220776
 23
270.0465435656
 33
0.0
 14
160.887220776
 24
170.0465435656
 34
0.0
 50
90.0
100
AcDbRotatedDimension
  0
DIMENSION
  5
1C9
330
1F
100
AcDbEntity
  8
0
  6
SLD-Durchgehend
 62
     7
370
     0
100
AcDbDimension
  2
_D_4
 10
136.887220776
 20
277.4656599958
 30
0.0
 11
104.387220776
 21
277.4656599958
 31
0.0
 70
   160
  1
<>
 71
     2
 42
-1.0
  3
SLDDIMSTYLE1
100
AcDbAlignedDimension
 13
71.887220776
 23
235.0465435656
 33
0.0
 14
136.887220776
 24
235.0465435656
 34
0.0
100
AcDbRotatedDimension
  0
DIMENSION
  5
1D3
330
1F
100
AcDbEntity
  8
0
  6
SLD-Durchgehend
 62
     7
370
     0
100
AcDbDimension
  2
_D_5
 10
67.3865303829
 20
179.0465435656
 30
0.0
 11
67.3865303829
 21
174.5465435656
 31
0.0
 70
   160
  1
<>
 71
     2
 42
-1.0
  3
SLDDIMSTYLE1
100
AcDbAlignedDimension
 13
79.387220776
 23
170.0465435656
 33
0.0
 14
77.387220776
 24
179.0465435656
 34
0.0
 50
90.0
100
AcDbRotatedDimension
  0
DIMENSION
  5
1DC
330
1F
100
AcDbEntity
  8
0
  6
SLD-Durchgehend
 62
     7
370
     0
100
AcDbDimension
  2
_D_6
 10
129.387220776
 20
158.9537472862
 30
0.0
 11
104.387220776
 21
158.9537472862
 31
0.0
 70
   160
  1
<>
 71
     2
 42
-1.0
  3
SLDDIMSTYLE1
100
AcDbAlignedDimension
 13
79.387220776
 23
177.0465435656
 33
0.0
 14
129.387220776
 24
177.0465435656
 34
0.0
100
AcDbRotatedDimension
  0
INSERT
  5
1F1
330
1F
100
AcDbEntity
  8
0
  6
SLD-Durchgehend
 62
     7
370
     0
100
AcDbBlockReference
  2
SW_CENTERMARKSYMBOL_0
 10
104.387220776
 20
202.5465435656
 30
0.0
  0
INSERT
  5
1FD
330
1F
100
AcDbEntity
  8
0
  6
SLD-Durchgehend
 62
     7
370
     0
100
AcDbBlockReference
  2
SW_CENTERMARKSYMBOL_1
 10
79.387220776
 20
179.0465435656
 30
0.0
  0
INSERT
  5
209
330
1F
100
AcDbEntity
  8
0
  6
SLD-Durchgehend
 62
     7
370
     0
100
AcDbBlockReference
  2
SW_CENTERMARKSYMBOL_2
 10
129.387220776
 20
179.0465435656
 30
0.0
  0
LINE
  5
20A
330
1F
100
AcDbEntity
  8
0
  6
SLD-Punktstrich
 62
     7
370
     0
100
AcDbLine
 10
91.387220776
 20
256.7965435656
 30
0.0
 11
91.387220776
 21
233.5465435656
 31
0.0
  0
LINE
  5
20B
330
1F
100
AcDbEntity
  8
0
  6
SLD-Durchgehend
 62
     7
370
    15
100
AcDbLine
 10
258.5492721662
 20
261.0465435656
 30
0.0
 11
258.5492721662
 21
266.5465435656
 31
0.0
  0
LINE
  5
20C
330
1F
100
AcDbEntity
  8
0
  6
SLD-Durchgehend
 62
     7
370
    15
100
AcDbLine
 10
258.5492721662
 20
253.0465435656
 30
0.0
 11
258.5492721662
 21
259.0465435656
 31
0.0
  0
LINE
  5
20D
330
1F
100
AcDbEntity
  8
0
  6
SLD-Durchgehend
 62
     7
370
    15
100
AcDbLine
 10
258.5492721662
 20
245.0465435656
 30
0.0
 11
258.5492721662
 21
251.0465435656
 31
0.0
  0
LINE
  5
20E
330
1F
100
AcDbEntity
  8
0
  6
SLD-Durchgehend
 62
     7
370
    15
100
AcDbLine
 10
258.5492721662
 20
235.5465435656
 30
0.0
 11
258.5492721662
 21
243.0465435656
 31
0.0
  0
LINE
  5
20F
330
1F
100
AcDbEntity
  8
0
  6
SLD-Durchgehend
 62
     7
370
    15
100
AcDbLine
 10
239.0492721662
 20
243.0465435656
 30
0.0
 11
239.0492721662
 21
235.5465435656
 31
0.0
  0
LINE
  5
210
330
1F
100
AcDbEntity
  8
0
  6
SLD-Durchgehend
 62
     7
370
    15
100
AcDbLine
 10
239.0492721662
 20
251.0465435656
 30
0.0
 11
239.0492721662
 21
245.0465435656
 31
0.0
  0
LINE
  5
211
330
1F
100
AcDbEntity
  8
0
  6
SLD-Durchgehend
 62
     7
370
    15
100
AcDbLine
 10
239.0492721662
 20
259.0465435656
 30
0.0
 11
239.0492721662
 21
253.0465435656
 31
0.0
  0
LINE
  5
212
330
1F
100
AcDbEntity
  8
0
  6
SLD-Durchgehend
 62
     7
370
    15
100
AcDbLine
 10
239.0492721662
 20
266.5465435656
 30
0.0
 11
239.0492721662
 21
261.0465435656
 31
0.0
  0
ARC
  5
213
330
1F
100
AcDbEntity
  8
0
  6
SLD-Durchgehend
 62
     7
370
    15
100
AcDbCircle
 10
239.5492721662
 20
235.5465435656
 30
0.0
 40
0.5
100
AcDbArc
 50
180.0
 51
270.0
  0
ARC
  5
214
330
1F
100
AcDbEntity
  8
0
  6
SLD-Durchgehend
 62
     7
370
    15
100
AcDbCircle
 10
258.0492721662
 20
235.5465435656
 30
0.0
 40
0.5000000000000568
100
AcDbArc
 50
270.0
 51
0.0
  0
ARC
  5
215
330
1F
100
AcDbEntity
  8
0
  6
SLD-Durchgehend
 62
     7
370
    15
100
AcDbCircle
 10
239.5492721662
 20
266.5465435656
 30
0.0
 40
0.5
100
AcDbArc
 50
90.0
 51
180.0
  0
ARC
  5
216
330
1F
100
AcDbEntity
  8
0
  6
SLD-Durchgehend
 62
     7
370
    15
100
AcDbCircle
 10
258.0492721662
 20
266.5465435656
 30
0.0
 40
0.5
100
AcDbArc
 50
0.0
 51
90.0
  0
ARC
  5
217
330
1F
100
AcDbEntity
  8
0
  6
SLD-Durchgehend
 62
     7
370
    15
100
AcDbCircle
 10
240.8710689359
 20
267.5465435656
 30
0.0
 40
0.5
100
AcDbArc
 50
270.0
 51
0.0
  0
ARC
  5
218
330
1F
100
AcDbEntity
  8
0
  6
SLD-Durchgehend
 62
     7
370
    15
100
AcDbCircle
 10
256.7274753964
 20
267.5465435656
 30
0.0
 40
0.5
100
AcDbArc
 50
180.0
 51
270.0
  0
LINE
  5
219
330
1F
100
AcDbEntity
  8
0
  6
SLD-Durchgehend
 62
     7
370
    15
100
AcDbLine
 10
241.3710689359
 20
269.5465435656
 30
0.0
 11
241.3710689359
 21
267.5465435656
 31
0.0
  0
ARC
  5
21A
330
1F
100
AcDbEntity
  8
0
  6
SLD-Durchgehend
 62
     7
370
    15
100
AcDbCircle
 10
241.8710689359
 20
269.5465435656
 30
0.0
 40
0.5
100
AcDbArc
 50
90.0
 51
180.0
  0
LINE
  5
21B
330
1F
100
AcDbEntity
  8
0
  6
SLD-Durchgehend
 62
     7
370
    15
100
AcDbLine
 10
256.2274753964
 20
267.5465435656
 30
0.0
 11
256.2274753964
 21
269.5465435656
 31
0.0
  0
ARC
  5
21C
330
1F
100
AcDbEntity
  8
0
  6
SLD-Durchgehend
 62
     7
370
    15
100
AcDbCircle
 10
255.7274753964
 20
269.5465435656
 30
0.0
 40
0.5
100
AcDbArc
 50
0.0
 51
90.0
  0
LINE
  5
21D
330
1F
100
AcDbEntity
  8
0
  6
SLD-Durchgehend
 62
     7
370
    15
100
AcDbLine
 10
235.7992721662
 20
209.0465435656
 30
0.0
 11
235.5992721662
 21
209.0465435656
 31
0.0
  0
LINE
  5
21E
330
1F
100
AcDbEntity
  8
0
  6
SLD-Durchgehend
 62
     7
370
    15
100
AcDbLine
 10
235.7992721662
 20
234.0465435656
 30
0.0
 11
235.5992721662
 21
234.0465435656
 31
0.0
  0
LINE
  5
21F
330
1F
100
AcDbEntity
  8
0
  6
SLD-Durchgehend
 62
     7
370
    15
100
AcDbLine
 10
235.5992721662
 20
234.0465435656
 30
0.0
 11
235.5992721662
 21
209.0465435656
 31
0.0
  0
LINE
  5
220
330
1F
100
AcDbEntity
  8
0
  6
SLD-Durchgehend
 62
     7
370
    15
100
AcDbLine
 10
258.5492721662
 20
245.0465435656
 30
0.0
 11
258.5492721662
 21
243.0465435656
 31
0.0
  0
LINE
  5
221
330
1F
100
AcDbEntity
  8
0
  6
SLD-Durchgehend
 62
     7
370
    15
100
AcDbLine
 10
239.0492721662
 20
245.0465435656
 30
0.0
 11
258.5492721662
 21
245.0465435656
 31
0.0
  0
LINE
  5
222
330
1F
100
AcDbEntity
  8
0
  6
SLD-Durchgehend
 62
     7
370
    15
100
AcDbLine
 10
239.0492721662
 20
243.0465435656
 30
0.0
 11
239.0492721662
 21
245.0465435656
 31
0.0
  0
LINE
  5
223
330
1F
100
AcDbEntity
  8
0
  6
SLD-Durchgehend
 62
     7
370
    15
100
AcDbLine
 10
239.0492721662
 20
243.0465435656
 30
0.0
 11
258.5492721662
 21
243.0465435656
 31
0.0
  0
LINE
  5
224
330
1F
100
AcDbEntity
  8
0
  6
SLD-Durchgehend
 62
     7
370
    15
100
AcDbLine
 10
239.0492721662
 20
251.0465435656
 30
0.0
 11
258.5492721662
 21
251.0465435656
 31
0.0
  0
LINE
  5
225
330
1F
100
AcDbEntity
  8
0
  6
SLD-Durchgehend
 62
     7
370
    15
100
AcDbLine
 10
258.5492721662
 20
251.0465435656
 30
0.0
 11
258.5492721662
 21
253.0465435656
 31
0.0
  0
LINE
  5
226
330
1F
100
AcDbEntity
  8
0
  6
SLD-Durchgehend
 62
     7
370
    15
100
AcDbLine
 10
239.0492721662
 20
253.0465435656
 30
0.0
 11
258.5492721662
 21
253.0465435656
 31
0.0
  0
LINE
  5
227
330
1F
100
AcDbEntity
  8
0
  6
SLD-Durchgehend
 62
     7
370
    15
100
AcDbLine
 10
239.0492721662
 20
253.0465435656
 30
0.0
 11
239.0492721662
 21
251.0465435656
 31
0.0
  0
LINE
  5
228
330
1F
100
AcDbEntity
  8
0
  6
SLD-Durchgehend
 62
     7
370
    15
100
AcDbLine
 10
239.0492721662
 20
259.0465435656
 30
0.0
 11
258.5492721662
 21
259.0465435656
 31
0.0
  0
LINE
  5
229
330
1F
100
AcDbEntity
  8
0
  6
SLD-Durchgehend
 62
     7
370
    15
100
AcDbLine
 10
258.5492721662
 20
259.0465435656
 30
0.0
 11
258.5492721662
 21
261.0465435656
 31
0.0
  0
LINE
  5
22A
330
1F
100
AcDbEntity
  8
0
  6
SLD-Durchgehend
 62
     7
370
    15
100
AcDbLine
 10
239.0492721662
 20
261.0465435656
 30
0.0
 11
258.5492721662
 21
261.0465435656
 31
0.0
  0
LINE
  5
22B
330
1F
100
AcDbEntity
  8
0
  6
SLD-Durchgehend
 62
     7
370
    15
100
AcDbLine
 10
239.0492721662
 20
261.0465435656
 30
0.0
 11
239.0492721662
 21
259.0465435656
 31
0.0
  0
LINE
  5
22C
330
1F
100
AcDbEntity
  8
0
  6
SLD-Durchgehend
 62
     7
370
    15
100
AcDbLine
 10
239.5492721662
 20
267.0465435656
 30
0.0
 11
258.0492721662
 21
267.0465435656
 31
0.0
  0
LINE
  5
22D
330
1F
100
AcDbEntity
  8
0
  6
SLD-Durchgehend
 62
     7
370
    15
100
AcDbLine
 10
240.2992721662
 20
253.0465435656
 30
0.0
 11
240.2992721662
 21
251.0465435656
 31
0.0
  0
LINE
  5
22E
330
1F
100
AcDbEntity
  8
0
  6
SLD-Durchgehend
 62
     7
370
    15
100
AcDbLine
 10
257.2992721662
 20
253.0465435656
 30
0.0
 11
257.2992721662
 21
251.0465435656
 31
0.0
  0
LINE
  5
22F
330
1F
100
AcDbEntity
  8
0
  6
SLD-Durchgehend
 62
     7
370
    15
100
AcDbLine
 10
257.2992721662
 20
243.0465435656
 30
0.0
 11
257.2992721662
 21
245.0465435656
 31
0.0
  0
LINE
  5
230
330
1F
100
AcDbEntity
  8
0
  6
SLD-Durchgehend
 62
     7
370
    15
100
AcDbLine
 10
240.2992721662
 20
243.0465435656
 30
0.0
 11
240.2992721662
 21
245.0465435656
 31
0.0
  0
LINE
  5
231
330
1F
100
AcDbEntity
  8
0
  6
SLD-Durchgehend
 62
     7
370
    15
100
AcDbLine
 10
240.2992721662
 20
261.0465435656
 30
0.0
 11
240.2992721662
 21
259.0465435656
 31
0.0
  0
LINE
  5
232
330
1F
100
AcDbEntity
  8
0
  6
SLD-Durchgehend
 62
     7
370
    15
100
AcDbLine
 10
257.2992721662
 20
261.0465435656
 30
0.0
 11
257.2992721662
 21
259.0465435656
 31
0.0
  0
LINE
  5
233
330
1F
100
AcDbEntity
  8
0
  6
SLD-Durchgehend
 62
     7
370
    15
100
AcDbLine
 10
245.335170551
 20
270.0465435656
 30
0.0
 11
252.2633737813
 21
270.0465435656
 31
0.0
  0
LINE
  5
234
330
1F
100
AcDbEntity
  8
0
  6
SLD-Durchgehend
 62
     7
370
    15
100
AcDbLine
 10
241.8710689359
 20
270.0465435656
 30
0.0
 11
245.335170551
 21
270.0465435656
 31
0.0
  0
LINE
  5
235
330
1F
100
AcDbEntity
  8
0
  6
SLD-Durchgehend
 62
     7
370
    15
100
AcDbLine
 10
252.2633737813
 20
270.0465435656
 30
0.0
 11
255.7274753964
 21
270.0465435656
 31
0.0
  0
LINE
  5
236
330
1F
100
AcDbEntity
  8
0
  6
SLD-Durchgehend
 62
     7
370
    15
100
AcDbLine
 10
244.2992721662
 20
170.0465435656
 30
0.0
 11
244.2992721662
 21
186.0465435656
 31
0.0
  0
LINE
  5
237
330
1F
100
AcDbEntity
  8
0
  6
SLD-Durchgehend
 62
     7
370
    15
100
AcDbLine
 10
235.7992721662
 20
186.0465435656
 30
0.0
 11
244.2992721662
 21
186.0465435656
 31
0.0
  0
LINE
  5
238
330
1F
100
AcDbEntity
  8
0
  6
SLD-Durchgehend
 62
     7
370
    15
100
AcDbLine
 10
235.7992721662
 20
186.0465435656
 30
0.0
 11
235.7992721662
 21
170.0465435656
 31
0.0
  0
LINE
  5
239
330
1F
100
AcDbEntity
  8
0
  6
SLD-Durchgehend
 62
     7
370
    15
100
AcDbLine
 10
244.2992721662
 20
170.0465435656
 30
0.0
 11
235.7992721662
 21
170.0465435656
 31
0.0
  0
LINE
  5
23A
330
1F
100
AcDbEntity
  8
0
  6
SLD-Durchgehend
 62
     7
370
    15
100
AcDbLine
 10
261.7992721662
 20
186.0465435656
 30
0.0
 11
261.7992721662
 21
170.0465435656
 31
0.0
  0
LINE
  5
23B
330
1F
100
AcDbEntity
  8
0
  6
SLD-Durchgehend
 62
     7
370
    15
100
AcDbLine
 10
253.2992721662
 20
170.0465435656
 30
0.0
 11
253.2992721662
 21
186.0465435656
 31
0.0
  0
LINE
  5
23C
330
1F
100
AcDbEntity
  8
0
  6
SLD-Durchgehend
 62
     7
370
    15
100
AcDbLine
 10
253.2992721662
 20
186.0465435656
 30
0.0
 11
261.7992721662
 21
186.0465435656
 31
0.0
  0
LINE
  5
23D
330
1F
100
AcDbEntity
  8
0
  6
SLD-Durchgehend
 62
     7
370
    15
100
AcDbLine
 10
261.7992721662
 20
170.0465435656
 30
0.0
 11
253.2992721662
 21
170.0465435656
 31
0.0
  0
LINE
  5
23E
330
1F
100
AcDbEntity
  8
0
  6
SLD-Durchgehend
 62
     7
370
    15
100
AcDbLine
 10
253.2992721662
 20
186.0465435656
 30
0.0
 11
244.2992721662
 21
186.0465435656
 31
0.0
  0
LINE
  5
23F
330
1F
100
AcDbEntity
  8
0
  6
SLD-Durchgehend
 62
     7
370
    15
100
AcDbLine
 10
253.2992721662
 20
170.0465435656
 30
0.0
 11
244.2992721662
 21
170.0465435656
 31
0.0
  0
LINE
  5
240
330
1F
100
AcDbEntity
  8
0
  6
SLD-Durchgehend
 62
     7
370
    15
100
AcDbLine
 10
261.7992721662
 20
188.5465435656
 30
0.0
 11
261.7992721662
 21
186.0465435656
 31
0.0
  0
LINE
  5
241
330
1F
100
AcDbEntity
  8
0
  6
SLD-Durchgehend
 62
     7
370
    15
100
AcDbLine
 10
235.7992721662
 20
186.0465435656
 30
0.0
 11
235.7992721662
 21
188.5465435656
 31
0.0
  0
LINE
  5
242
330
1F
100
AcDbEntity
  8
0
  6
SLD-Durchgehend
 62
     7
370
    15
100
AcDbLine
 10
235.7992721662
 20
235.0465435656
 30
0.0
 11
261.7992721662
 21
235.0465435656
 31
0.0
  0
LINE
  5
243
330
1F
100
AcDbEntity
  8
0
  6
SLD-Durchgehend
 62
     7
370
    15
100
AcDbLine
 10
261.7992721662
 20
188.5465435656
 30
0.0
 11
261.7992721662
 21
235.0465435656
 31
0.0
  0
LINE
  5
244
330
1F
100
AcDbEntity
  8
0
  6
SLD-Durchgehend
 62
     7
370
    15
100
AcDbLine
 10
235.7992721662
 20
188.5465435656
 30
0.0
 11
235.7992721662
 21
235.0465435656
 31
0.0
  0
LINE
  5
245
330
1F
100
AcDbEntity
  8
0
  6
SLD-Durchgehend
 62
     8
370
     0
100
AcDbLine
 10
258.5492721662
 20
266.5465435656
 30
0.0
 11
239.0492721662
 21
266.5465435656
 31
0.0
  0
LINE
  5
246
330
1F
100
AcDbEntity
  8
0
  6
SLD-Durchgehend
 62
     8
370
     0
100
AcDbLine
 10
239.0492721662
 20
235.5465435656
 30
0.0
 11
258.5492721662
 21
235.5465435656
 31
0.0
  0
ARC
  5
247
330
1F
100
AcDbEntity
  8
0
  6
SLD-Durchgehend
 62
     8
370
     0
100
AcDbCircle
 10
244.4330607554
 20
267.5152935656
 30
0.0
 40
0.470136837349919
100
AcDbArc
 50
274.4019496523
 51
3.8112610495
  0
LINE
  5
248
330
1F
100
AcDbEntity
  8
0
  6
SLD-Durchgehend
 62
     8
370
     0
100
AcDbLine
 10
244.9021578491
 20
267.5465435656
 30
0.0
 11
245.335170551
 21
267.5465435656
 31
0.0
  0
LINE
  5
249
330
1F
100
AcDbEntity
  8
0
  6
SLD-Durchgehend
 62
     8
370
     0
100
AcDbLine
 10
245.335170551
 20
267.0465435656
 30
0.0
 11
245.335170551
 21
267.5465435656
 31
0.0
  0
LINE
  5
24A
330
1F
100
AcDbEntity
  8
0
  6
SLD-Durchgehend
 62
     8
370
     0
100
AcDbLine
 10
245.335170551
 20
267.5465435656
 30
0.0
 11
252.2633737813
 21
267.5465435656
 31
0.0
  0
LINE
  5
24B
330
1F
100
AcDbEntity
  8
0
  6
SLD-Durchgehend
 62
     8
370
     0
100
AcDbLine
 10
252.2633737813
 20
267.0465435656
 30
0.0
 11
252.2633737813
 21
267.5465435656
 31
0.0
  0
LINE
  5
24C
330
1F
100
AcDbEntity
  8
0
  6
SLD-Durchgehend
 62
     8
370
     0
100
AcDbLine
 10
252.6963864832
 20
267.5465435656
 30
0.0
 11
252.2633737813
 21
267.5465435656
 31
0.0
  0
ARC
  5
24D
330
1F
100
AcDbEntity
  8
0
  6
SLD-Durchgehend
 62
     8
370
     0
100
AcDbCircle
 10
253.1654835769
 20
267.5152935656
 30
0.0
 40
0.4701368373498645
100
AcDbArc
 50
176.1887389505
 51
265.5980503477
  0
LINE
  5
24E
330
1F
100
AcDbEntity
  8
0
  6
SLD-Durchgehend
 62
     8
370
     0
100
AcDbLine
 10
241.438056234
 20
267.5465435656
 30
0.0
 11
244.9021578491
 21
267.5465435656
 31
0.0
  0
ARC
  5
24F
330
1F
100
AcDbEntity
  8
0
  6
SLD-Durchgehend
 62
     8
370
     0
100
AcDbCircle
 10
240.9689591403
 20
267.5152935656
 30
0.0
 40
0.47013683734998
100
AcDbArc
 50
274.4019496523
 51
3.8112610494
  0
LINE
  5
250
330
1F
100
AcDbEntity
  8
0
  6
SLD-Durchgehend
 62
     8
370
     0
100
AcDbLine
 10
245.335170551
 20
269.5465435656
 30
0.0
 11
245.335170551
 21
267.5465435656
 31
0.0
  0
LINE
  5
251
330
1F
100
AcDbEntity
  8
0
  6
SLD-Durchgehend
 62
     8
370
     0
100
AcDbLine
 10
244.9021578491
 20
267.5465435656
 30
0.0
 11
244.9021578491
 21
269.5465435656
 31
0.0
  0
LINE
  5
252
330
1F
100
AcDbEntity
  8
0
  6
SLD-Durchgehend
 62
     8
370
     0
100
AcDbLine
 10
245.335170551
 20
269.5465435656
 30
0.0
 11
244.9021578491
 21
269.5465435656
 31
0.0
  0
ARC
  5
253
330
1F
100
AcDbEntity
  8
0
  6
SLD-Durchgehend
 62
     8
370
     0
100
AcDbCircle
 10
245.3712549429
 20
269.5777935656
 30
0.0
 40
0.4701368373499255
100
AcDbArc
 50
94.4019496523
 51
183.8112610495
  0
LINE
  5
254
330
1F
100
AcDbEntity
  8
0
  6
SLD-Durchgehend
 62
     8
370
     0
100
AcDbLine
 10
245.335170551
 20
269.5465435656
 30
0.0
 11
245.335170551
 21
270.0465435656
 31
0.0
  0
LINE
  5
255
330
1F
100
AcDbEntity
  8
0
  6
SLD-Durchgehend
 62
     8
370
     0
100
AcDbLine
 10
252.2633737813
 20
269.5465435656
 30
0.0
 11
245.335170551
 21
269.5465435656
 31
0.0
  0
LINE
  5
256
330
1F
100
AcDbEntity
  8
0
  6
SLD-Durchgehend
 62
     8
370
     0
100
AcDbLine
 10
252.2633737813
 20
269.5465435656
 30
0.0
 11
252.2633737813
 21
270.0465435656
 31
0.0
  0
LINE
  5
257
330
1F
100
AcDbEntity
  8
0
  6
SLD-Durchgehend
 62
     8
370
     0
100
AcDbLine
 10
252.2633737813
 20
267.5465435656
 30
0.0
 11
252.2633737813
 21
269.5465435656
 31
0.0
  0
LINE
  5
258
330
1F
100
AcDbEntity
  8
0
  6
SLD-Durchgehend
 62
     8
370
     0
100
AcDbLine
 10
252.6963864832
 20
267.5465435656
 30
0.0
 11
256.1604880983
 21
267.5465435656
 31
0.0
  0
ARC
  5
259
330
1F
100
AcDbEntity
  8
0
  6
SLD-Durchgehend
 62
     8
370
     0
100
AcDbCircle
 10
256.629585192
 20
267.5152935656
 30
0.0
 40
0.4701368373498254
100
AcDbArc
 50
176.1887389505
 51
265.5980503477
  0
ARC
  5
25A
330
1F
100
AcDbEntity
  8
0
  6
SLD-Durchgehend
 62
     8
370
     0
100
AcDbCircle
 10
252.2272893895
 20
269.5777935656
 30
0.0
 40
0.4701368373498034
100
AcDbArc
 50
356.1887389505
 51
85.5980503477
  0
LINE
  5
25B
330
1F
100
AcDbEntity
  8
0
  6
SLD-Durchgehend
 62
     8
370
     0
100
AcDbLine
 10
252.2633737813
 20
269.5465435656
 30
0.0
 11
252.6963864832
 21
269.5465435656
 31
0.0
  0
LINE
  5
25C
330
1F
100
AcDbEntity
  8
0
  6
SLD-Durchgehend
 62
     8
370
     0
100
AcDbLine
 10
252.6963864832
 20
269.5465435656
 30
0.0
 11
252.6963864832
 21
267.5465435656
 31
0.0
  0
LINE
  5
25D
330
1F
100
AcDbEntity
  8
0
  6
SLD-Durchgehend
 62
     8
370
     0
100
AcDbLine
 10
244.9021578491
 20
269.5465435656
 30
0.0
 11
241.438056234
 21
269.5465435656
 31
0.0
  0
ARC
  5
25E
330
1F
100
AcDbEntity
  8
0
  6
SLD-Durchgehend
 62
     8
370
     0
100
AcDbCircle
 10
241.9071533277
 20
269.5777935656
 30
0.0
 40
0.4701368373499233
100
AcDbArc
 50
94.4019496523
 51
183.8112610495
  0
LINE
  5
25F
330
1F
100
AcDbEntity
  8
0
  6
SLD-Durchgehend
 62
     8
370
     0
100
AcDbLine
 10
241.438056234
 20
269.5465435656
 30
0.0
 11
241.438056234
 21
267.5465435656
 31
0.0
  0
LINE
  5
260
330
1F
100
AcDbEntity
  8
0
  6
SLD-Durchgehend
 62
     8
370
     0
100
AcDbLine
 10
256.1604880983
 20
269.5465435656
 30
0.0
 11
252.6963864832
 21
269.5465435656
 31
0.0
  0
ARC
  5
261
330
1F
100
AcDbEntity
  8
0
  6
SLD-Durchgehend
 62
     8
370
     0
100
AcDbCircle
 10
255.6913910046
 20
269.5777935656
 30
0.0
 40
0.4701368373499822
100
AcDbArc
 50
356.1887389506
 51
85.5980503477
  0
LINE
  5
262
330
1F
100
AcDbEntity
  8
0
  6
SLD-Durchgehend
 62
     8
370
     0
100
AcDbLine
 10
256.1604880983
 20
267.5465435656
 30
0.0
 11
256.1604880983
 21
269.5465435656
 31
0.0
  0
LINE
  5
263
330
1F
100
AcDbEntity
  8
0
  6
SLD-Durchgehend
 62
     8
370
     0
100
AcDbLine
 10
241.438056234
 20
267.5465435656
 30
0.0
 11
241.3710689359
 21
267.5465435656
 31
0.0
  0
LINE
  5
264
330
1F
100
AcDbEntity
  8
0
  6
SLD-Durchgehend
 62
     8
370
     0
100
AcDbLine
 10
256.2274753964
 20
267.5465435656
 30
0.0
 11
256.1604880983
 21
267.5465435656
 31
0.0
  0
LINE
  5
265
330
1F
100
AcDbEntity
  8
0
  6
SLD-Durchgehend
 62
     8
370
     0
100
AcDbLine
 10
241.3710689359
 20
269.5465435656
 30
0.0
 11
241.438056234
 21
269.5465435656
 31
0.0
  0
LINE
  5
266
330
1F
100
AcDbEntity
  8
0
  6
SLD-Durchgehend
 62
     8
370
     0
100
AcDbLine
 10
256.1604880983
 20
269.5465435656
 30
0.0
 11
256.2274753964
 21
269.5465435656
 31
0.0
  0
LINE
  5
267
330
1F
100
AcDbEntity
  8
0
  6
SLD-Durchgehend
 62
     8
370
     0
100
AcDbLine
 10
235.7992721662
 20
188.5465435656
 30
0.0
 11
261.7992721662
 21
188.5465435656
 31
0.0
  0
LINE
  5
268
330
1F
100
AcDbEntity
  8
0
  6
SLD-Punktstrich
 62
     7
370
     0
100
AcDbLine
 10
248.7992721662
 20
168.0465435656
 30
0.0
 11
248.7992721662
 21
188.0465435656
 31
0.0
  0
LINE
  5
269
330
1F
100
AcDbEntity
  8
0
  6
SLD-Durchgehend
 62
     7
370
    15
100
AcDbLine
 10
79.387220776
 20
88.547834215
 30
0.0
 11
79.387220776
 21
88.747834215
 31
0.0
  0
LINE
  5
26A
330
1F
100
AcDbEntity
  8
0
  6
SLD-Durchgehend
 62
     7
370
    15
100
AcDbLine
 10
129.387220776
 20
88.747834215
 30
0.0
 11
129.387220776
 21
88.547834215
 31
0.0
  0
LINE
  5
26B
330
1F
100
AcDbEntity
  8
0
  6
SLD-Durchgehend
 62
     7
370
    15
100
AcDbLine
 10
79.387220776
 20
88.547834215
 30
0.0
 11
129.387220776
 21
88.547834215
 31
0.0
  0
ARC
  5
26C
330
1F
100
AcDbEntity
  8
0
  6
SLD-Durchgehend
 62
     7
370
    15
100
AcDbCircle
 10
117.387220776
 20
108.6760374452
 30
0.0
 40
0.5000000000000112
100
AcDbArc
 50
60.0
 51
120.0
  0
LINE
  5
26D
330
1F
100
AcDbEntity
  8
0
  6
SLD-Durchgehend
 62
     7
370
    15
100
AcDbLine
 10
111.137220776
 20
105.644948532
 30
0.0
 11
117.137220776
 21
109.1090501471
 31
0.0
  0
LINE
  5
26E
330
1F
100
AcDbEntity
  8
0
  6
SLD-Durchgehend
 62
     7
370
    15
100
AcDbLine
 10
117.637220776
 20
109.1090501471
 30
0.0
 11
123.637220776
 21
105.644948532
 31
0.0
  0
ARC
  5
26F
330
1F
100
AcDbEntity
  8
0
  6
SLD-Durchgehend
 62
     7
370
    15
100
AcDbCircle
 10
123.387220776
 20
105.2119358301
 30
0.0
 40
0.5000000000000164
100
AcDbArc
 50
0.0
 51
60.0
  0
ARC
  5
270
330
1F
100
AcDbEntity
  8
0
  6
SLD-Durchgehend
 62
     7
370
    15
100
AcDbCircle
 10
111.387220776
 20
105.2119358301
 30
0.0
 40
0.500000000000006
100
AcDbArc
 50
120.0
 51
180.0
  0
LINE
  5
271
330
1F
100
AcDbEntity
  8
0
  6
SLD-Durchgehend
 62
     7
370
    15
100
AcDbLine
 10
110.887220776
 20
98.2837325998
 30
0.0
 11
110.887220776
 21
105.2119358301
 31
0.0
  0
LINE
  5
272
330
1F
100
AcDbEntity
  8
0
  6
SLD-Durchgehend
 62
     7
370
    15
100
AcDbLine
 10
123.887220776
 20
105.2119358301
 30
0.0
 11
123.887220776
 21
98.2837325998
 31
0.0
  0
LINE
  5
273
330
1F
100
AcDbEntity
  8
0
  6
SLD-Durchgehend
 62
     7
370
    15
100
AcDbLine
 10
123.637220776
 20
97.8507198979
 30
0.0
 11
117.637220776
 21
94.3866182828
 31
0.0
  0
LINE
  5
274
330
1F
100
AcDbEntity
  8
0
  6
SLD-Durchgehend
 62
     7
370
    15
100
AcDbLine
 10
117.137220776
 20
94.3866182828
 30
0.0
 11
111.137220776
 21
97.8507198979
 31
0.0
  0
ARC
  5
275
330
1F
100
AcDbEntity
  8
0
  6
SLD-Durchgehend
 62
     7
370
    15
100
AcDbCircle
 10
123.387220776
 20
98.2837325998
 30
0.0
 40
0.5000000000000022
100
AcDbArc
 50
300.0
 51
0.0
  0
ARC
  5
276
330
1F
100
AcDbEntity
  8
0
  6
SLD-Durchgehend
 62
     7
370
    15
100
AcDbCircle
 10
111.387220776
 20
98.2837325998
 30
0.0
 40
0.5000000000000142
100
AcDbArc
 50
180.0
 51
240.0
  0
ARC
  5
277
330
1F
100
AcDbEntity
  8
0
  6
SLD-Durchgehend
 62
     7
370
    15
100
AcDbCircle
 10
117.387220776
 20
94.8196309847
 30
0.0
 40
0.5000000000000359
100
AcDbArc
 50
240.0
 51
300.0
  0
CIRCLE
  5
278
330
1F
100
AcDbEntity
  8
0
  6
SLD-Durchgehend
 62
     7
370
    15
100
AcDbCircle
 10
117.387220776
 20
101.747834215
 30
0.0
 40
9.750000000000014
  0
LINE
  5
279
330
1F
100
AcDbEntity
  8
0
  6
SLD-Durchgehend
 62
     7
370
    15
100
AcDbLine
 10
136.887220776
 20
88.747834215
 30
0.0
 11
136.887220776
 21
114.747834215
 31
0.0
  0
LINE
  5
27A
330
1F
100
AcDbEntity
  8
0
  6
SLD-Durchgehend
 62
     7
370
    15
100
AcDbLine
 10
71.887220776
 20
88.747834215
 30
0.0
 11
136.887220776
 21
88.747834215
 31
0.0
  0
LINE
  5
27B
330
1F
100
AcDbEntity
  8
0
  6
SLD-Durchgehend
 62
     7
370
    15
100
AcDbLine
 10
71.887220776
 20
88.747834215
 30
0.0
 11
71.887220776
 21
114.747834215
 31
0.0
  0
LINE
  5
27C
330
1F
100
AcDbEntity
  8
0
  6
SLD-Durchgehend
 62
     7
370
    15
100
AcDbLine
 10
71.887220776
 20
114.747834215
 30
0.0
 11
136.887220776
 21
114.747834215
 31
0.0
  0
CIRCLE
  5
27D
330
1F
100
AcDbEntity
  8
0
  6
SLD-Durchgehend
 62
     7
370
    15
100
AcDbCircle
 10
90.387220776
 20
101.747834215
 30
0.0
 40
6.722500000000011
  0
CIRCLE
  5
27E
330
1F
100
AcDbEntity
  8
0
  6
SLD-Durchgehend
 62
     7
370
    15
100
AcDbCircle
 10
90.387220776
 20
101.747834215
 30
0.0
 40
5.722500000000011
  0
CIRCLE
  5
27F
330
1F
100
AcDbEntity
  8
0
  6
SLD-Durchgehend
 62
     7
370
    15
100
AcDbCircle
 10
90.387220776
 20
101.747834215
 30
0.0
 40
4.999999999999986
  0
CIRCLE
  5
280
330
1F
100
AcDbEntity
  8
0
  6
SLD-Durchgehend
 62
     7
370
    15
100
AcDbCircle
 10
90.387220776
 20
101.747834215
 30
0.0
 40
2.0
  0
CIRCLE
  5
281
330
1F
100
AcDbEntity
  8
0
  6
SLD-Durchgehend
 62
     7
370
    15
100
AcDbCircle
 10
90.387220776
 20
101.747834215
 30
0.0
 40
0.8000000000000114
  0
LINE
  5
282
330
1F
100
AcDbEntity
  8
0
  6
SLD-Durchgehend
 62
     7
370
    15
100
AcDbLine
 10
139.387220776
 20
88.747834215
 30
0.0
 11
136.887220776
 21
88.747834215
 31
0.0
  0
LINE
  5
283
330
1F
100
AcDbEntity
  8
0
  6
SLD-Durchgehend
 62
     7
370
    15
100
AcDbLine
 10
136.887220776
 20
114.747834215
 30
0.0
 11
139.387220776
 21
114.747834215
 31
0.0
  0
LINE
  5
284
330
1F
100
AcDbEntity
  8
0
  6
SLD-Durchgehend
 62
     7
370
    15
100
AcDbLine
 10
71.887220776
 20
88.747834215
 30
0.0
 11
69.387220776
 21
88.747834215
 31
0.0
  0
LINE
  5
285
330
1F
100
AcDbEntity
  8
0
  6
SLD-Durchgehend
 62
     7
370
    15
100
AcDbLine
 10
69.387220776
 20
114.747834215
 30
0.0
 11
71.887220776
 21
114.747834215
 31
0.0
  0
LINE
  5
286
330
1F
100
AcDbEntity
  8
0
  6
SLD-Durchgehend
 62
     7
370
    15
100
AcDbLine
 10
160.887220776
 20
106.247834215
 30
0.0
 11
149.387220776
 21
106.247834215
 31
0.0
  0
ARC
  5
287
330
1F
100
AcDbEntity
  8
0
  6
SLD-Durchgehend
 62
     7
370
    15
100
AcDbCircle
 10
149.387220776
 20
101.747834215
 30
0.0
 40
4.5
100
AcDbArc
 50
90.0
 51
270.0
  0
LINE
  5
288
330
1F
100
AcDbEntity
  8
0
  6
SLD-Durchgehend
 62
     7
370
    15
100
AcDbLine
 10
149.387220776
 20
97.247834215
 30
0.0
 11
160.887220776
 21
97.247834215
 31
0.0
  0
LINE
  5
289
330
1F
100
AcDbEntity
  8
0
  6
SLD-Durchgehend
 62
     7
370
    15
100
AcDbLine
 10
160.887220776
 20
88.747834215
 30
0.0
 11
160.887220776
 21
97.247834215
 31
0.0
  0
LINE
  5
28A
330
1F
100
AcDbEntity
  8
0
  6
SLD-Durchgehend
 62
     7
370
    15
100
AcDbLine
 10
160.887220776
 20
106.247834215
 30
0.0
 11
160.887220776
 21
114.747834215
 31
0.0
  0
LINE
  5
28B
330
1F
100
AcDbEntity
  8
0
  6
SLD-Durchgehend
 62
     7
370
    15
100
AcDbLine
 10
160.887220776
 20
88.747834215
 30
0.0
 11
139.387220776
 21
88.747834215
 31
0.0
  0
LINE
  5
28C
330
1F
100
AcDbEntity
  8
0
  6
SLD-Durchgehend
 62
     7
370
    15
100
AcDbLine
 10
160.887220776
 20
114.747834215
 30
0.0
 11
139.387220776
 21
114.747834215
 31
0.0
  0
LINE
  5
28D
330
1F
100
AcDbEntity
  8
0
  6
SLD-Durchgehend
 62
     7
370
    15
100
AcDbLine
 10
47.887220776
 20
88.747834215
 30
0.0
 11
47.887220776
 21
97.247834215
 31
0.0
  0
LINE
  5
28E
330
1F
100
AcDbEntity
  8
0
  6
SLD-Durchgehend
 62
     7
370
    15
100
AcDbLine
 10
47.887220776
 20
97.247834215
 30
0.0
 11
59.387220776
 21
97.247834215
 31
0.0
  0
ARC
  5
28F
330
1F
100
AcDbEntity
  8
0
  6
SLD-Durchgehend
 62
     7
370
    15
100
AcDbCircle
 10
59.387220776
 20
101.747834215
 30
0.0
 40
4.499999999999986
100
AcDbArc
 50
270.0
 51
90.0
  0
LINE
  5
290
330
1F
100
AcDbEntity
  8
0
  6
SLD-Durchgehend
 62
     7
370
    15
100
AcDbLine
 10
59.387220776
 20
106.247834215
 30
0.0
 11
47.887220776
 21
106.247834215
 31
0.0
  0
LINE
  5
291
330
1F
100
AcDbEntity
  8
0
  6
SLD-Durchgehend
 62
     7
370
    15
100
AcDbLine
 10
47.887220776
 20
106.247834215
 30
0.0
 11
47.887220776
 21
114.747834215
 31
0.0
  0
LINE
  5
292
330
1F
100
AcDbEntity
  8
0
  6
SLD-Durchgehend
 62
     7
370
    15
100
AcDbLine
 10
69.387220776
 20
88.747834215
 30
0.0
 11
47.887220776
 21
88.747834215
 31
0.0
  0
LINE
  5
293
330
1F
100
AcDbEntity
  8
0
  6
SLD-Durchgehend
 62
     7
370
    15
100
AcDbLine
 10
69.387220776
 20
114.747834215
 30
0.0
 11
47.887220776
 21
114.747834215
 31
0.0
  0
LINE
  5
294
330
1F
100
AcDbEntity
  8
0
  6
SLD-Durchgehend
 62
     8
370
     0
100
AcDbLine
 10
117.637220776
 20
109.1090501471
 30
0.0
 11
117.387220776
 21
108.6760374452
 31
0.0
  0
LINE
  5
295
330
1F
100
AcDbEntity
  8
0
  6
SLD-Durchgehend
 62
     8
370
     0
100
AcDbLine
 10
117.137220776
 20
109.1090501471
 30
0.0
 11
117.387220776
 21
108.6760374452
 31
0.0
  0
LINE
  5
296
330
1F
100
AcDbEntity
  8
0
  6
SLD-Durchgehend
 62
     8
370
     0
100
AcDbLine
 10
123.387220776
 20
105.2119358301
 30
0.0
 11
117.387220776
 21
108.6760374452
 31
0.0
  0
LINE
  5
297
330
1F
100
AcDbEntity
  8
0
  6
SLD-Durchgehend
 62
     8
370
     0
100
AcDbLine
 10
123.387220776
 20
98.2837325998
 30
0.0
 11
123.387220776
 21
105.2119358301
 31
0.0
  0
LINE
  5
298
330
1F
100
AcDbEntity
  8
0
  6
SLD-Durchgehend
 62
     8
370
     0
100
AcDbLine
 10
117.387220776
 20
94.8196309847
 30
0.0
 11
123.387220776
 21
98.2837325998
 31
0.0
  0
LINE
  5
299
330
1F
100
AcDbEntity
  8
0
  6
SLD-Durchgehend
 62
     8
370
     0
100
AcDbLine
 10
111.387220776
 20
98.2837325998
 30
0.0
 11
117.387220776
 21
94.8196309847
 31
0.0
  0
LINE
  5
29A
330
1F
100
AcDbEntity
  8
0
  6
SLD-Durchgehend
 62
     8
370
     0
100
AcDbLine
 10
111.387220776
 20
105.2119358301
 30
0.0
 11
111.387220776
 21
98.2837325998
 31
0.0
  0
LINE
  5
29B
330
1F
100
AcDbEntity
  8
0
  6
SLD-Durchgehend
 62
     8
370
     0
100
AcDbLine
 10
117.387220776
 20
108.6760374452
 30
0.0
 11
111.387220776
 21
105.2119358301
 31
0.0
  0
LINE
  5
29C
330
1F
100
AcDbEntity
  8
0
  6
SLD-Durchgehend
 62
     8
370
     0
100
AcDbLine
 10
111.137220776
 20
105.644948532
 30
0.0
 11
111.387220776
 21
105.2119358301
 31
0.0
  0
LINE
  5
29D
330
1F
100
AcDbEntity
  8
0
  6
SLD-Durchgehend
 62
     8
370
     0
100
AcDbLine
 10
123.637220776
 20
105.644948532
 30
0.0
 11
123.387220776
 21
105.2119358301
 31
0.0
  0
LINE
  5
29E
330
1F
100
AcDbEntity
  8
0
  6
SLD-Durchgehend
 62
     8
370
     0
100
AcDbLine
 10
123.887220776
 20
105.2119358301
 30
0.0
 11
123.387220776
 21
105.2119358301
 31
0.0
  0
LINE
  5
29F
330
1F
100
AcDbEntity
  8
0
  6
SLD-Durchgehend
 62
     8
370
     0
100
AcDbLine
 10
111.387220776
 20
105.2119358301
 30
0.0
 11
110.887220776
 21
105.2119358301
 31
0.0
  0
LINE
  5
2A0
330
1F
100
AcDbEntity
  8
0
  6
SLD-Durchgehend
 62
     8
370
     0
100
AcDbLine
 10
111.387220776
 20
98.2837325998
 30
0.0
 11
110.887220776
 21
98.2837325998
 31
0.0
  0
LINE
  5
2A1
330
1F
100
AcDbEntity
  8
0
  6
SLD-Durchgehend
 62
     8
370
     0
100
AcDbLine
 10
123.887220776
 20
98.2837325998
 30
0.0
 11
123.387220776
 21
98.2837325998
 31
0.0
  0
LINE
  5
2A2
330
1F
100
AcDbEntity
  8
0
  6
SLD-Durchgehend
 62
     8
370
     0
100
AcDbLine
 10
123.387220776
 20
98.2837325998
 30
0.0
 11
123.637220776
 21
97.8507198979
 31
0.0
  0
LINE
  5
2A3
330
1F
100
AcDbEntity
  8
0
  6
SLD-Durchgehend
 62
     8
370
     0
100
AcDbLine
 10
117.387220776
 20
94.8196309847
 30
0.0
 11
117.637220776
 21
94.3866182828
 31
0.0
  0
LINE
  5
2A4
330
1F
100
AcDbEntity
  8
0
  6
SLD-Durchgehend
 62
     8
370
     0
100
AcDbLine
 10
117.387220776
 20
94.8196309847
 30
0.0
 11
117.137220776
 21
94.3866182828
 31
0.0
  0
LINE
  5
2A5
330
1F
100
AcDbEntity
  8
0
  6
SLD-Durchgehend
 62
     8
370
     0
100
AcDbLine
 10
111.387220776
 20
98.2837325998
 30
0.0
 11
111.137220776
 21
97.8507198979
 31
0.0
  0
ARC
  5
2A6
330
1F
100
AcDbEntity
  8
0
  6
SLD-Durchgehend
 62
     8
370
     0
100
AcDbCircle
 10
117.387220776
 20
108.6760374452
 30
0.0
 40
1.000000000000024
100
AcDbArc
 50
60.0
 51
120.0
  0
LINE
  5
2A7
330
1F
100
AcDbEntity
  8
0
  6
SLD-Durchgehend
 62
     8
370
     0
100
AcDbLine
 10
117.887220776
 20
109.542062849
 30
0.0
 11
117.637220776
 21
109.1090501471
 31
0.0
  0
LINE
  5
2A8
330
1F
100
AcDbEntity
  8
0
  6
SLD-Durchgehend
 62
     8
370
     0
100
AcDbLine
 10
116.887220776
 20
109.542062849
 30
0.0
 11
117.137220776
 21
109.1090501471
 31
0.0
  0
LINE
  5
2A9
330
1F
100
AcDbEntity
  8
0
  6
SLD-Durchgehend
 62
     8
370
     0
100
AcDbLine
 10
110.887220776
 20
106.0779612339
 30
0.0
 11
116.887220776
 21
109.542062849
 31
0.0
  0
LINE
  5
2AA
330
1F
100
AcDbEntity
  8
0
  6
SLD-Durchgehend
 62
     8
370
     0
100
AcDbLine
 10
110.887220776
 20
106.0779612339
 30
0.0
 11
111.137220776
 21
105.644948532
 31
0.0
  0
LINE
  5
2AB
330
1F
100
AcDbEntity
  8
0
  6
SLD-Durchgehend
 62
     8
370
     0
100
AcDbLine
 10
117.887220776
 20
109.542062849
 30
0.0
 11
123.887220776
 21
106.0779612339
 31
0.0
  0
LINE
  5
2AC
330
1F
100
AcDbEntity
  8
0
  6
SLD-Durchgehend
 62
     8
370
     0
100
AcDbLine
 10
123.887220776
 20
106.0779612339
 30
0.0
 11
123.637220776
 21
105.644948532
 31
0.0
  0
LINE
  5
2AD
330
1F
100
AcDbEntity
  8
0
  6
SLD-Durchgehend
 62
     8
370
     0
100
AcDbLine
 10
124.387220776
 20
105.2119358301
 30
0.0
 11
124.387220776
 21
98.2837325998
 31
0.0
  0
LINE
  5
2AE
330
1F
100
AcDbEntity
  8
0
  6
SLD-Durchgehend
 62
     8
370
     0
100
AcDbLine
 10
124.387220776
 20
98.2837325998
 30
0.0
 11
123.887220776
 21
98.2837325998
 31
0.0
  0
LINE
  5
2AF
330
1F
100
AcDbEntity
  8
0
  6
SLD-Durchgehend
 62
     8
370
     0
100
AcDbLine
 10
124.387220776
 20
105.2119358301
 30
0.0
 11
123.887220776
 21
105.2119358301
 31
0.0
  0
LINE
  5
2B0
330
1F
100
AcDbEntity
  8
0
  6
SLD-Durchgehend
 62
     8
370
     0
100
AcDbLine
 10
110.887220776
 20
98.2837325998
 30
0.0
 11
110.387220776
 21
98.2837325998
 31
0.0
  0
LINE
  5
2B1
330
1F
100
AcDbEntity
  8
0
  6
SLD-Durchgehend
 62
     8
370
     0
100
AcDbLine
 10
110.387220776
 20
98.2837325998
 30
0.0
 11
110.387220776
 21
105.2119358301
 31
0.0
  0
LINE
  5
2B2
330
1F
100
AcDbEntity
  8
0
  6
SLD-Durchgehend
 62
     8
370
     0
100
AcDbLine
 10
110.887220776
 20
105.2119358301
 30
0.0
 11
110.387220776
 21
105.2119358301
 31
0.0
  0
ARC
  5
2B3
330
1F
100
AcDbEntity
  8
0
  6
SLD-Durchgehend
 62
     8
370
     0
100
AcDbCircle
 10
123.387220776
 20
105.2119358301
 30
0.0
 40
1.0
100
AcDbArc
 50
0.0
 51
60.0
  0
ARC
  5
2B4
330
1F
100
AcDbEntity
  8
0
  6
SLD-Durchgehend
 62
     8
370
     0
100
AcDbCircle
 10
111.387220776
 20
105.2119358301
 30
0.0
 40
1.000000000000008
100
AcDbArc
 50
120.0
 51
180.0
  0
LINE
  5
2B5
330
1F
100
AcDbEntity
  8
0
  6
SLD-Durchgehend
 62
     8
370
     0
100
AcDbLine
 10
111.137220776
 20
97.8507198979
 30
0.0
 11
110.887220776
 21
97.417707196
 31
0.0
  0
ARC
  5
2B6
330
1F
100
AcDbEntity
  8
0
  6
SLD-Durchgehend
 62
     8
370
     0
100
AcDbCircle
 10
111.387220776
 20
98.2837325998
 30
0.0
 40
1.000000000000022
100
AcDbArc
 50
180.0
 51
240.0
  0
LINE
  5
2B7
330
1F
100
AcDbEntity
  8
0
  6
SLD-Durchgehend
 62
     8
370
     0
100
AcDbLine
 10
123.637220776
 20
97.8507198979
 30
0.0
 11
123.887220776
 21
97.417707196
 31
0.0
  0
LINE
  5
2B8
330
1F
100
AcDbEntity
  8
0
  6
SLD-Durchgehend
 62
     8
370
     0
100
AcDbLine
 10
123.887220776
 20
97.417707196
 30
0.0
 11
117.887220776
 21
93.9536055809
 31
0.0
  0
LINE
  5
2B9
330
1F
100
AcDbEntity
  8
0
  6
SLD-Durchgehend
 62
     8
370
     0
100
AcDbLine
 10
117.637220776
 20
94.3866182828
 30
0.0
 11
117.887220776
 21
93.9536055809
 31
0.0
  0
LINE
  5
2BA
330
1F
100
AcDbEntity
  8
0
  6
SLD-Durchgehend
 62
     8
370
     0
100
AcDbLine
 10
117.137220776
 20
94.3866182828
 30
0.0
 11
116.887220776
 21
93.9536055809
 31
0.0
  0
LINE
  5
2BB
330
1F
100
AcDbEntity
  8
0
  6
SLD-Durchgehend
 62
     8
370
     0
100
AcDbLine
 10
116.887220776
 20
93.9536055809
 30
0.0
 11
110.887220776
 21
97.417707196
 31
0.0
  0
ARC
  5
2BC
330
1F
100
AcDbEntity
  8
0
  6
SLD-Durchgehend
 62
     8
370
     0
100
AcDbCircle
 10
123.387220776
 20
98.2837325998
 30
0.0
 40
1.00000000000002
100
AcDbArc
 50
300.0
 51
360.0
  0
ARC
  5
2BD
330
1F
100
AcDbEntity
  8
0
  6
SLD-Durchgehend
 62
     8
370
     0
100
AcDbCircle
 10
117.387220776
 20
94.8196309847
 30
0.0
 40
1.000000000000015
100
AcDbArc
 50
240.0
 51
300.0
  0
CIRCLE
  5
2BE
330
1F
100
AcDbEntity
  8
0
  6
SLD-Durchgehend
 62
     8
370
     0
100
AcDbCircle
 10
117.387220776
 20
101.747834215
 30
0.0
 40
9.250000000000014
  0
LINE
  5
2BF
330
1F
100
AcDbEntity
  8
0
  6
SLD-Durchgehend
 62
     8
370
     0
100
AcDbLine
 10
139.387220776
 20
114.747834215
 30
0.0
 11
139.387220776
 21
88.747834215
 31
0.0
  0
LINE
  5
2C0
330
1F
100
AcDbEntity
  8
0
  6
SLD-Durchgehend
 62
     8
370
     0
100
AcDbLine
 10
69.387220776
 20
88.747834215
 30
0.0
 11
69.387220776
 21
114.747834215
 31
0.0
  0
DIMENSION
  5
2C1
330
1F
100
AcDbEntity
  8
0
  6
SLD-Durchgehend
 62
     7
370
     0
100
AcDbDimension
  2
_D_7
 10
149.387220776
 20
78.747834215
 30
0.0
 11
104.387220776
 21
78.747834215
 31
0.0
 70
   160
  1
<>
 71
     2
 42
-1.0
  3
SLDDIMSTYLE1
100
AcDbAlignedDimension
 13
59.387220776
 23
96.247834215
 33
0.0
 14
149.387220776
 24
96.247834215
 34
0.0
 50
0.0
100
AcDbRotatedDimension
  0
DIMENSION
  5
2CB
330
1F
100
AcDbEntity
  8
0
  6
SLD-Durchgehend
 62
     7
370
     0
100
AcDbDimension
  2
_D_8
 10
37.7631468842
 20
97.247834215
 30
0.0
 11
37.7631468842
 21
101.747834215
 31
0.0
 70
   160
  1
<>
 71
     2
 42
-1.0
  3
SLDDIMSTYLE2
100
AcDbAlignedDimension
 13
47.887220776
 23
106.247834215
 33
0.0
 14
47.887220776
 24
97.247834215
 34
0.0
 50
90.0
100
AcDbRotatedDimension
  0
DIMENSION
  5
2D8
330
1F
100
AcDbEntity
  8
0
  6
SLD-Durchgehend
 62
     7
370
     0
100
AcDbDimension
  2
_D_9
 10
26.0206931543
 20
88.747834215
 30
0.0
 11
26.0206931543
 21
101.747834215
 31
0.0
 70
   160
  1
<>
 71
     2
 42
-1.0
  3
SLDDIMSTYLE1
100
AcDbAlignedDimension
 13
47.887220776
 23
114.747834215
 33
0.0
 14
47.887220776
 24
88.747834215
 34
0.0
 50
90.0
100
AcDbRotatedDimension
  0
INSERT
  5
2ED
330
1F
100
AcDbEntity
  8
0
  6
SLD-Durchgehend
 62
     7
370
     0
100
AcDbBlockReference
  2
SW_CENTERMARKSYMBOL_3
 10
59.387220776
 20
101.747834215
 30
0.0
  0
INSERT
  5
2F9
330
1F
100
AcDbEntity
  8
0
  6
SLD-Durchgehend
 62
     7
370
     0
100
AcDbBlockReference
  2
SW_CENTERMARKSYMBOL_4
 10
149.387220776
 20
101.747834215
 30
0.0
  0
INSERT
  5
305
330
1F
100
AcDbEntity
  8
0
  6
SLD-Durchgehend
 62
     7
370
     0
100
AcDbBlockReference
  2
SW_CENTERMARKSYMBOL_5
 10
117.387220776
 20
101.747834215
 30
0.0
  0
INSERT
  5
311
330
1F
100
AcDbEntity
  8
0
  6
SLD-Durchgehend
 62
     7
370
     0
100
AcDbBlockReference
  2
SW_CENTERMARKSYMBOL_6
 10
90.387220776
 20
101.747834215
 30
0.0
  0
LINE
  5
312
330
1F
100
AcDbEntity
  8
0
  6
SLD-Durchgehend
 62
     7
370
    15
100
AcDbLine
 10
370.3065094412
 20
261.0465435656
 30
0.0
 11
370.3065094412
 21
266.5465435656
 31
0.0
  0
LINE
  5
313
330
1F
100
AcDbEntity
  8
0
  6
SLD-Durchgehend
 62
     7
370
    15
100
AcDbLine
 10
370.3065094412
 20
253.0465435656
 30
0.0
 11
370.3065094412
 21
259.0465435656
 31
0.0
  0
LINE
  5
314
330
1F
100
AcDbEntity
  8
0
  6
SLD-Durchgehend
 62
     7
370
    15
100
AcDbLine
 10
370.3065094412
 20
245.0465435656
 30
0.0
 11
370.3065094412
 21
251.0465435656
 31
0.0
  0
LINE
  5
315
330
1F
100
AcDbEntity
  8
0
  6
SLD-Durchgehend
 62
     7
370
    15
100
AcDbLine
 10
370.3065094412
 20
235.5465435656
 30
0.0
 11
370.3065094412
 21
243.0465435656
 31
0.0
  0
LINE
  5
316
330
1F
100
AcDbEntity
  8
0
  6
SLD-Durchgehend
 62
     7
370
    15
100
AcDbLine
 10
350.8065094412
 20
266.5465435656
 30
0.0
 11
350.8065094412
 21
235.5465435656
 31
0.0
  0
ARC
  5
317
330
1F
100
AcDbEntity
  8
0
  6
SLD-Durchgehend
 62
     7
370
    15
100
AcDbCircle
 10
351.3065094412
 20
235.5465435656
 30
0.0
 40
0.5
100
AcDbArc
 50
180.0
 51
270.0
  0
ARC
  5
318
330
1F
100
AcDbEntity
  8
0
  6
SLD-Durchgehend
 62
     7
370
    15
100
AcDbCircle
 10
369.8065094412
 20
235.5465435656
 30
0.0
 40
0.5
100
AcDbArc
 50
270.0
 51
0.0
  0
ARC
  5
319
330
1F
100
AcDbEntity
  8
0
  6
SLD-Durchgehend
 62
     7
370
    15
100
AcDbCircle
 10
351.3065094412
 20
266.5465435656
 30
0.0
 40
0.5000000000000568
100
AcDbArc
 50
90.0
 51
180.0
  0
ARC
  5
31A
330
1F
100
AcDbEntity
  8
0
  6
SLD-Durchgehend
 62
     7
370
    15
100
AcDbCircle
 10
369.8065094412
 20
266.5465435656
 30
0.0
 40
0.5000000000000568
100
AcDbArc
 50
0.0
 51
90.0
  0
LINE
  5
31B
330
1F
100
AcDbEntity
  8
0
  6
SLD-Durchgehend
 62
     7
370
    15
100
AcDbLine
 10
369.0565094412
 20
259.0465435656
 30
0.0
 11
369.0565094412
 21
261.0465435656
 31
0.0
  0
LINE
  5
31C
330
1F
100
AcDbEntity
  8
0
  6
SLD-Durchgehend
 62
     7
370
    15
100
AcDbLine
 10
369.0565094412
 20
251.0465435656
 30
0.0
 11
369.0565094412
 21
253.0465435656
 31
0.0
  0
LINE
  5
31D
330
1F
100
AcDbEntity
  8
0
  6
SLD-Durchgehend
 62
     7
370
    15
100
AcDbLine
 10
369.0565094412
 20
243.0465435656
 30
0.0
 11
369.0565094412
 21
245.0465435656
 31
0.0
  0
LINE
  5
31E
330
1F
100
AcDbEntity
  8
0
  6
SLD-Durchgehend
 62
     7
370
    15
100
AcDbLine
 10
322.5565094412
 20
234.0465435656
 30
0.0
 11
322.5565094412
 21
209.0465435656
 31
0.0
  0
LINE
  5
31F
330
1F
100
AcDbEntity
  8
0
  6
SLD-Durchgehend
 62
     7
370
    15
100
AcDbLine
 10
322.5565094412
 20
234.0465435656
 30
0.0
 11
372.5565094412
 21
234.0465435656
 31
0.0
  0
LINE
  5
320
330
1F
100
AcDbEntity
  8
0
  6
SLD-Durchgehend
 62
     7
370
    15
100
AcDbLine
 10
372.5565094412
 20
234.0465435656
 30
0.0
 11
372.5565094412
 21
209.0465435656
 31
0.0
  0
LINE
  5
321
330
1F
100
AcDbEntity
  8
0
  6
SLD-Durchgehend
 62
     7
370
    15
100
AcDbLine
 10
322.5565094412
 20
209.0465435656
 30
0.0
 11
372.5565094412
 21
209.0465435656
 31
0.0
  0
LINE
  5
322
330
1F
100
AcDbEntity
  8
0
  6
SLD-Durchgehend
 62
     7
370
    15
100
AcDbLine
 10
360.5565094412
 20
245.0465435656
 30
0.0
 11
370.3065094412
 21
245.0465435656
 31
0.0
  0
LINE
  5
323
330
1F
100
AcDbEntity
  8
0
  6
SLD-Durchgehend
 62
     7
370
    15
100
AcDbLine
 10
360.5565094412
 20
243.0465435656
 30
0.0
 11
360.5565094412
 21
245.0465435656
 31
0.0
  0
LINE
  5
324
330
1F
100
AcDbEntity
  8
0
  6
SLD-Durchgehend
 62
     7
370
    15
100
AcDbLine
 10
360.5565094412
 20
243.0465435656
 30
0.0
 11
370.3065094412
 21
243.0465435656
 31
0.0
  0
LINE
  5
325
330
1F
100
AcDbEntity
  8
0
  6
SLD-Durchgehend
 62
     7
370
    15
100
AcDbLine
 10
360.5565094412
 20
251.0465435656
 30
0.0
 11
370.3065094412
 21
251.0465435656
 31
0.0
  0
LINE
  5
326
330
1F
100
AcDbEntity
  8
0
  6
SLD-Durchgehend
 62
     7
370
    15
100
AcDbLine
 10
360.5565094412
 20
253.0465435656
 30
0.0
 11
370.3065094412
 21
253.0465435656
 31
0.0
  0
LINE
  5
327
330
1F
100
AcDbEntity
  8
0
  6
SLD-Durchgehend
 62
     7
370
    15
100
AcDbLine
 10
360.5565094412
 20
253.0465435656
 30
0.0
 11
360.5565094412
 21
251.0465435656
 31
0.0
  0
LINE
  5
328
330
1F
100
AcDbEntity
  8
0
  6
SLD-Durchgehend
 62
     7
370
    15
100
AcDbLine
 10
360.5565094412
 20
259.0465435656
 30
0.0
 11
370.3065094412
 21
259.0465435656
 31
0.0
  0
LINE
  5
329
330
1F
100
AcDbEntity
  8
0
  6
SLD-Durchgehend
 62
     7
370
    15
100
AcDbLine
 10
360.5565094412
 20
261.0465435656
 30
0.0
 11
370.3065094412
 21
261.0465435656
 31
0.0
  0
LINE
  5
32A
330
1F
100
AcDbEntity
  8
0
  6
SLD-Durchgehend
 62
     7
370
    15
100
AcDbLine
 10
360.5565094412
 20
261.0465435656
 30
0.0
 11
360.5565094412
 21
259.0465435656
 31
0.0
  0
LINE
  5
32B
330
1F
100
AcDbEntity
  8
0
  6
SLD-Durchgehend
 62
     7
370
    15
100
AcDbLine
 10
360.5565094412
 20
267.0465435656
 30
0.0
 11
369.8065094412
 21
267.0465435656
 31
0.0
  0
LINE
  5
32C
330
1F
100
AcDbEntity
  8
0
  6
SLD-Durchgehend
 62
     7
370
    15
100
AcDbLine
 10
351.3065094412
 20
267.0465435656
 30
0.0
 11
360.5565094412
 21
267.0465435656
 31
0.0
  0
LINE
  5
32D
330
1F
100
AcDbEntity
  8
0
  6
SLD-Durchgehend
 62
     7
370
    15
100
AcDbLine
 10
354.5565094412
 20
270.0465435656
 30
0.0
 11
360.5565094412
 21
270.0465435656
 31
0.0
  0
LINE
  5
32E
330
1F
100
AcDbEntity
  8
0
  6
SLD-Durchgehend
 62
     7
370
    15
100
AcDbLine
 10
360.5565094412
 20
270.0465435656
 30
0.0
 11
366.5565094412
 21
270.0465435656
 31
0.0
  0
ARC
  5
32F
330
1F
100
AcDbEntity
  8
0
  6
SLD-Durchgehend
 62
     7
370
    15
100
AcDbCircle
 10
353.5565094412
 20
267.5465435656
 30
0.0
 40
0.5
100
AcDbArc
 50
270.0
 51
0.0
  0
ARC
  5
330
330
1F
100
AcDbEntity
  8
0
  6
SLD-Durchgehend
 62
     7
370
    15
100
AcDbCircle
 10
367.5565094412
 20
267.5465435656
 30
0.0
 40
0.5000000000000568
100
AcDbArc
 50
180.0
 51
270.0
  0
ARC
  5
331
330
1F
100
AcDbEntity
  8
0
  6
SLD-Durchgehend
 62
     7
370
    15
100
AcDbCircle
 10
354.5565094412
 20
269.5465435656
 30
0.0
 40
0.5
100
AcDbArc
 50
90.0
 51
180.0
  0
LINE
  5
332
330
1F
100
AcDbEntity
  8
0
  6
SLD-Durchgehend
 62
     7
370
    15
100
AcDbLine
 10
354.0565094412
 20
267.5465435656
 30
0.0
 11
354.0565094412
 21
269.5465435656
 31
0.0
  0
ARC
  5
333
330
1F
100
AcDbEntity
  8
0
  6
SLD-Durchgehend
 62
     7
370
    15
100
AcDbCircle
 10
366.5565094412
 20
269.5465435656
 30
0.0
 40
0.5
100
AcDbArc
 50
0.0
 51
90.0
  0
LINE
  5
334
330
1F
100
AcDbEntity
  8
0
  6
SLD-Durchgehend
 62
     7
370
    15
100
AcDbLine
 10
367.0565094412
 20
269.5465435656
 30
0.0
 11
367.0565094412
 21
267.5465435656
 31
0.0
  0
LINE
  5
335
330
1F
100
AcDbEntity
  8
0
  6
SLD-Durchgehend
 62
     7
370
    15
100
AcDbLine
 10
322.5565094412
 20
170.5465435656
 30
0.0
 11
372.5565094412
 21
170.5465435656
 31
0.0
  0
LINE
  5
336
330
1F
100
AcDbEntity
  8
0
  6
SLD-Durchgehend
 62
     7
370
    15
100
AcDbLine
 10
322.5565094412
 20
170.0465435656
 30
0.0
 11
322.5565094412
 21
170.5465435656
 31
0.0
  0
LINE
  5
337
330
1F
100
AcDbEntity
  8
0
  6
SLD-Durchgehend
 62
     7
370
    15
100
AcDbLine
 10
312.5565094412
 20
186.0465435656
 30
0.0
 11
291.0565094412
 21
186.0465435656
 31
0.0
  0
ARC
  5
338
330
1F
100
AcDbEntity
  8
0
  6
SLD-Durchgehend
 62
     7
370
    15
100
AcDbCircle
 10
312.5565094412
 20
188.5465435656
 30
0.0
 40
2.500000000000057
100
AcDbArc
 50
270.0
 51
0.0
  0
LINE
  5
339
330
1F
100
AcDbEntity
  8
0
  6
SLD-Durchgehend
 62
     7
370
    15
100
AcDbLine
 10
315.0565094412
 20
235.0465435656
 30
0.0
 11
315.0565094412
 21
188.5465435656
 31
0.0
  0
LINE
  5
33A
330
1F
100
AcDbEntity
  8
0
  6
SLD-Durchgehend
 62
     7
370
    15
100
AcDbLine
 10
315.0565094412
 20
235.0465435656
 30
0.0
 11
380.0565094412
 21
235.0465435656
 31
0.0
  0
LINE
  5
33B
330
1F
100
AcDbEntity
  8
0
  6
SLD-Durchgehend
 62
     7
370
    15
100
AcDbLine
 10
380.0565094412
 20
188.5465435656
 30
0.0
 11
380.0565094412
 21
235.0465435656
 31
0.0
  0
ARC
  5
33C
330
1F
100
AcDbEntity
  8
0
  6
SLD-Durchgehend
 62
     7
370
    15
100
AcDbCircle
 10
382.5565094412
 20
188.5465435656
 30
0.0
 40
2.5
100
AcDbArc
 50
180.0
 51
270.0
  0
LINE
  5
33D
330
1F
100
AcDbEntity
  8
0
  6
SLD-Durchgehend
 62
     7
370
    15
100
AcDbLine
 10
404.0565094412
 20
186.0465435656
 30
0.0
 11
382.5565094412
 21
186.0465435656
 31
0.0
  0
LINE
  5
33E
330
1F
100
AcDbEntity
  8
0
  6
SLD-Durchgehend
 62
     7
370
    15
100
AcDbLine
 10
404.0565094412
 20
186.0465435656
 30
0.0
 11
404.0565094412
 21
170.0465435656
 31
0.0
  0
LINE
  5
33F
330
1F
100
AcDbEntity
  8
0
  6
SLD-Durchgehend
 62
     7
370
    15
100
AcDbLine
 10
404.0565094412
 20
170.0465435656
 30
0.0
 11
372.5565094412
 21
170.0465435656
 31
0.0
  0
LINE
  5
340
330
1F
100
AcDbEntity
  8
0
  6
SLD-Durchgehend
 62
     7
370
    15
100
AcDbLine
 10
372.5565094412
 20
170.5465435656
 30
0.0
 11
372.5565094412
 21
170.0465435656
 31
0.0
  0
LINE
  5
341
330
1F
100
AcDbEntity
  8
0
  6
SLD-Durchgehend
 62
     7
370
    15
100
AcDbLine
 10
322.5565094412
 20
170.0465435656
 30
0.0
 11
291.0565094412
 21
170.0465435656
 31
0.0
  0
LINE
  5
342
330
1F
100
AcDbEntity
  8
0
  6
SLD-Durchgehend
 62
     7
370
    15
100
AcDbLine
 10
291.0565094412
 20
170.0465435656
 30
0.0
 11
291.0565094412
 21
186.0465435656
 31
0.0
  0
LINE
  5
343
330
1F
100
AcDbEntity
  8
0
  6
SLD-Durchgehend
 62
     8
370
     0
100
AcDbLine
 10
360.5565094412
 20
266.5465435656
 30
0.0
 11
350.8065094412
 21
266.5465435656
 31
0.0
  0
LINE
  5
344
330
1F
100
AcDbEntity
  8
0
  6
SLD-Durchgehend
 62
     8
370
     0
100
AcDbLine
 10
370.3065094412
 20
266.5465435656
 30
0.0
 11
360.5565094412
 21
266.5465435656
 31
0.0
  0
LINE
  5
345
330
1F
100
AcDbEntity
  8
0
  6
SLD-Durchgehend
 62
     8
370
     0
100
AcDbLine
 10
360.5565094412
 20
235.5465435656
 30
0.0
 11
370.3065094412
 21
235.5465435656
 31
0.0
  0
LINE
  5
346
330
1F
100
AcDbEntity
  8
0
  6
SLD-Durchgehend
 62
     8
370
     0
100
AcDbLine
 10
350.8065094412
 20
235.5465435656
 30
0.0
 11
360.5565094412
 21
235.5465435656
 31
0.0
  0
LINE
  5
347
330
1F
100
AcDbEntity
  8
0
  6
SLD-Durchgehend
 62
     8
370
     0
100
AcDbLine
 10
360.8065094412
 20
267.5465435656
 30
0.0
 11
360.3065094412
 21
267.5465435656
 31
0.0
  0
LWPOLYLINE
  5
348
330
1F
100
AcDbEntity
  8
0
  6
SLD-Durchgehend
 62
     8
370
     0
100
AcDbPolyline
 90
        9
 70
   128
 43
0.0
 10
360.8065094412
 20
267.5465435656
 10
360.8113131211
 20
267.4489984046
 10
360.8255395581
 20
267.3552018494
 10
360.8486420382
 20
267.2687584491
 10
360.8797327459
 20
267.192990175
 10
360.917616883
 20
267.1308087595
 10
360.9608385831
 20
267.0846037994
 10
361.0077368607
 20
267.0561509254
 10
361.0565094412
 20
267.0465435656
  0
LWPOLYLINE
  5
349
330
1F
100
AcDbEntity
  8
0
  6
SLD-Durchgehend
 62
     8
370
     0
100
AcDbPolyline
 90
        9
 70
   128
 43
0.0
 10
360.3065094412
 20
267.5465435656
 10
360.3017057613
 20
267.4489984046
 10
360.2874793244
 20
267.3552018494
 10
360.2643768443
 20
267.2687584491
 10
360.2332861365
 20
267.192990175
 10
360.1954019995
 20
267.1308087595
 10
360.1521802993
 20
267.0846037994
 10
360.1052820217
 20
267.0561509254
 10
360.0565094412
 20
267.0465435656
  0
LINE
  5
34A
330
1F
100
AcDbEntity
  8
0
  6
SLD-Durchgehend
 62
     8
370
     0
100
AcDbLine
 10
354.3065094412
 20
267.5465435656
 30
0.0
 11
360.3065094412
 21
267.5465435656
 31
0.0
  0
LWPOLYLINE
  5
34B
330
1F
100
AcDbEntity
  8
0
  6
SLD-Durchgehend
 62
     8
370
     0
100
AcDbPolyline
 90
        9
 70
   128
 43
0.0
 10
354.3065094412
 20
267.5465435656
 10
354.3017057613
 20
267.4489984046
 10
354.2874793244
 20
267.3552018494
 10
354.2643768443
 20
267.2687584491
 10
354.2332861365
 20
267.192990175
 10
354.1954019995
 20
267.1308087595
 10
354.1521802993
 20
267.0846037994
 10
354.1052820217
 20
267.0561509254
 10
354.0565094412
 20
267.0465435656
  0
LINE
  5
34C
330
1F
100
AcDbEntity
  8
0
  6
SLD-Durchgehend
 62
     8
370
     0
100
AcDbLine
 10
360.8065094412
 20
267.5465435656
 30
0.0
 11
366.8065094412
 21
267.5465435656
 31
0.0
  0
LWPOLYLINE
  5
34D
330
1F
100
AcDbEntity
  8
0
  6
SLD-Durchgehend
 62
     8
370
     0
100
AcDbPolyline
 90
        9
 70
   128
 43
0.0
 10
366.8065094412
 20
267.5465435656
 10
366.8113131211
 20
267.4489984046
 10
366.8255395581
 20
267.3552018494
 10
366.8486420382
 20
267.2687584491
 10
366.8797327459
 20
267.192990175
 10
366.917616883
 20
267.1308087595
 10
366.9608385831
 20
267.0846037994
 10
367.0077368607
 20
267.0561509254
 10
367.0565094412
 20
267.0465435656
  0
LINE
  5
34E
330
1F
100
AcDbEntity
  8
0
  6
SLD-Durchgehend
 62
     8
370
     0
100
AcDbLine
 10
360.8065094412
 20
269.5465435656
 30
0.0
 11
360.8065094412
 21
267.5465435656
 31
0.0
  0
LINE
  5
34F
330
1F
100
AcDbEntity
  8
0
  6
SLD-Durchgehend
 62
     8
370
     0
100
AcDbLine
 10
360.3065094412
 20
267.5465435656
 30
0.0
 11
360.3065094412
 21
269.5465435656
 31
0.0
  0
LINE
  5
350
330
1F
100
AcDbEntity
  8
0
  6
SLD-Durchgehend
 62
     8
370
     0
100
AcDbLine
 10
360.3065094412
 20
269.5465435656
 30
0.0
 11
360.8065094412
 21
269.5465435656
 31
0.0
  0
LWPOLYLINE
  5
351
330
1F
100
AcDbEntity
  8
0
  6
SLD-Durchgehend
 62
     8
370
     0
100
AcDbPolyline
 90
        9
 70
   128
 43
0.0
 10
360.5565094412
 20
270.0465435656
 10
360.6052820217
 20
270.0369362058
 10
360.6521802993
 20
270.0084833319
 10
360.6954019995
 20
269.9622783718
 10
360.7332861365
 20
269.9000969562
 10
360.7643768443
 20
269.8243286821
 10
360.7874793244
 20
269.7378852818
 10
360.8017057613
 20
269.6440887266
 10
360.8065094412
 20
269.5465435656
  0
LWPOLYLINE
  5
352
330
1F
100
AcDbEntity
  8
0
  6
SLD-Durchgehend
 62
     8
370
     0
100
AcDbPolyline
 90
        9
 70
   128
 43
0.0
 10
360.5565094412
 20
270.0465435656
 10
360.5077368607
 20
270.0369362058
 10
360.4608385831
 20
270.0084833319
 10
360.417616883
 20
269.9622783718
 10
360.3797327459
 20
269.9000969562
 10
360.3486420382
 20
269.8243286821
 10
360.3255395581
 20
269.7378852818
 10
360.3113131211
 20
269.6440887266
 10
360.3065094412
 20
269.5465435656
  0
LINE
  5
353
330
1F
100
AcDbEntity
  8
0
  6
SLD-Durchgehend
 62
     8
370
     0
100
AcDbLine
 10
360.3065094412
 20
269.5465435656
 30
0.0
 11
354.3065094412
 21
269.5465435656
 31
0.0
  0
LWPOLYLINE
  5
354
330
1F
100
AcDbEntity
  8
0
  6
SLD-Durchgehend
 62
     8
370
     0
100
AcDbPolyline
 90
        9
 70
   128
 43
0.0
 10
354.5565094412
 20
270.0465435656
 10
354.5077368607
 20
270.0369362058
 10
354.4608385831
 20
270.0084833319
 10
354.417616883
 20
269.9622783718
 10
354.3797327459
 20
269.9000969562
 10
354.3486420382
 20
269.8243286821
 10
354.3255395581
 20
269.7378852818
 10
354.3113131211
 20
269.6440887266
 10
354.3065094412
 20
269.5465435656
  0
LINE
  5
355
330
1F
100
AcDbEntity
  8
0
  6
SLD-Durchgehend
 62
     8
370
     0
100
AcDbLine
 10
354.3065094412
 20
269.5465435656
 30
0.0
 11
354.3065094412
 21
267.5465435656
 31
0.0
  0
LWPOLYLINE
  5
356
330
1F
100
AcDbEntity
  8
0
  6
SLD-Durchgehend
 62
     8
370
     0
100
AcDbPolyline
 90
        9
 70
   128
 43
0.0
 10
366.5565094412
 20
270.0465435656
 10
366.6052820217
 20
270.0369362058
 10
366.6521802993
 20
270.0084833319
 10
366.6954019995
 20
269.9622783718
 10
366.7332861365
 20
269.9000969562
 10
366.7643768443
 20
269.8243286821
 10
366.7874793244
 20
269.7378852818
 10
366.8017057613
 20
269.6440887266
 10
366.8065094412
 20
269.5465435656
  0
LINE
  5
357
330
1F
100
AcDbEntity
  8
0
  6
SLD-Durchgehend
 62
     8
370
     0
100
AcDbLine
 10
366.8065094412
 20
269.5465435656
 30
0.0
 11
360.8065094412
 21
269.5465435656
 31
0.0
  0
LINE
  5
358
330
1F
100
AcDbEntity
  8
0
  6
SLD-Durchgehend
 62
     8
370
     0
100
AcDbLine
 10
366.8065094412
 20
267.5465435656
 30
0.0
 11
366.8065094412
 21
269.5465435656
 31
0.0
  0
LINE
  5
359
330
1F
100
AcDbEntity
  8
0
  6
SLD-Durchgehend
 62
     8
370
     0
100
AcDbLine
 10
354.3065094412
 20
267.5465435656
 30
0.0
 11
354.0565094412
 21
267.5465435656
 31
0.0
  0
LINE
  5
35A
330
1F
100
AcDbEntity
  8
0
  6
SLD-Durchgehend
 62
     8
370
     0
100
AcDbLine
 10
366.8065094412
 20
267.5465435656
 30
0.0
 11
367.0565094412
 21
267.5465435656
 31
0.0
  0
LINE
  5
35B
330
1F
100
AcDbEntity
  8
0
  6
SLD-Durchgehend
 62
     8
370
     0
100
AcDbLine
 10
354.0565094412
 20
269.5465435656
 30
0.0
 11
354.3065094412
 21
269.5465435656
 31
0.0
  0
LINE
  5
35C
330
1F
100
AcDbEntity
  8
0
  6
SLD-Durchgehend
 62
     8
370
     0
100
AcDbLine
 10
367.0565094412
 20
269.5465435656
 30
0.0
 11
366.8065094412
 21
269.5465435656
 31
0.0
  0
SPLINE
  5
35D
330
1F
100
AcDbEntity
  8
0
  6
SLD-Durchgehend
 62
     7
370
    15
100
AcDbSpline
210
0.0
220
0.0
230
1.0
 70
     8
 71
     3
 72
    14
 73
    10
 74
     0
 42
0.000000001
 43
0.00000001
 40
0.0
 40
0.0
 40
0.0
 40
0.0
 40
0.0648519060273893
 40
0.2284525825158744
 40
0.3939389111326767
 40
0.5636957250186976
 40
0.7371187991033158
 40
0.9122700648647992
 40
1.0
 40
1.0
 40
1.0
 40
1.0
 10
341.3225000321167
 20
153.7602769924296
 30
0.0
 10
341.3192858040178
 20
153.8650489023596
 30
0.0
 10
341.3079631034993
 20
154.2341269274303
 30
0.0
 10
341.066653770058
 20
154.8520438263191
 30
0.0
 10
340.6154192572851
 20
155.5878888098445
 30
0.0
 10
339.9591163105744
 20
156.2770637911323
 30
0.0
 10
339.1135227222868
 20
156.9032388323513
 30
0.0
 10
338.2882252293439
 20
157.3783830664867
 30
0.0
 10
337.7027101255516
 20
157.6054797584862
 30
0.0
 10
337.5073093060895
 20
157.6812675211356
 30
0.0
  0
SPLINE
  5
35E
330
1F
100
AcDbEntity
  8
0
  6
SLD-Durchgehend
 62
     7
370
    15
100
AcDbSpline
210
0.0
220
0.0
230
1.0
 70
     8
 71
     3
 72
    15
 73
    11
 74
     0
 42
0.000000001
 43
0.00000001
 40
0.0
 40
0.0
 40
0.0
 40
0.0
 40
0.0051710852426679
 40
0.1604182283877216
 40
0.3162873590269175
 40
0.4726975863572566
 40
0.6286992493174091
 40
0.7823578282668119
 40
0.9317530656070656
 40
1.0
 40
1.0
 40
1.0
 40
1.0
 10
325.8407660961813
 20
157.747358832653
 30
0.0
 10
325.8271561124471
 20
157.7428052102194
 30
0.0
 10
325.4049450336209
 20
157.6015420112444
 30
0.0
 10
324.6850429918742
 20
157.234636034294
 30
0.0
 10
323.7199636108361
 20
156.6479540241834
 30
0.0
 10
322.9402750184263
 20
155.9698083802606
 30
0.0
 10
322.3470002361004
 20
155.2261212629815
 30
0.0
 10
321.9822356515625
 20
154.4324624616296
 30
0.0
 10
321.8301352695887
 20
153.7558634915859
 30
0.0
 10
321.8820735247071
 20
153.3603346758483
 30
0.0
 10
321.8983600130348
 20
153.236307108382
 30
0.0
  0
LINE
  5
35F
330
1F
100
AcDbEntity
  8
0
  6
SLD-Durchgehend
 62
     7
370
    15
100
AcDbLine
 10
341.3608948793
 20
126.9152988911
 30
0.0
 11
341.3608948793
 21
153.4874852129
 31
0.0
  0
LINE
  5
360
330
1F
100
AcDbEntity
  8
0
  6
SLD-Durchgehend
 62
     7
370
    15
100
AcDbLine
 10
321.8608948793
 20
133.3440536464
 30
0.0
 11
321.8608948793
 21
126.9152988911
 31
0.0
  0
LINE
  5
361
330
1F
100
AcDbEntity
  8
0
  6
SLD-Durchgehend
 62
     7
370
    15
100
AcDbLine
 10
321.8608948793
 20
140.201392052
 30
0.0
 11
321.8608948793
 21
135.0583882478
 31
0.0
  0
LINE
  5
362
330
1F
100
AcDbEntity
  8
0
  6
SLD-Durchgehend
 62
     7
370
    15
100
AcDbLine
 10
321.8608948793
 20
147.0587304576
 30
0.0
 11
321.8608948793
 21
141.9157266534
 31
0.0
  0
LINE
  5
363
330
1F
100
AcDbEntity
  8
0
  6
SLD-Durchgehend
 62
     7
370
    15
100
AcDbLine
 10
321.8608948793
 20
153.4874852129
 30
0.0
 11
321.8608948793
 21
148.773065059
 31
0.0
  0
ARC
  5
364
330
1F
100
AcDbEntity
  8
0
  6
SLD-Durchgehend
 62
     7
370
    15
100
AcDbCircle
 10
324.6877058987
 20
155.9232529969
 30
0.0
 40
0.5
100
AcDbArc
 50
134.305033619
 51
180.0
  0
LINE
  5
365
330
1F
100
AcDbEntity
  8
0
  6
SLD-Durchgehend
 62
     7
370
    15
100
AcDbLine
 10
327.5718273205
 20
159.4369276557
 30
0.0
 11
324.3384668193
 21
156.2810686833
 31
0.0
  0
LINE
  5
366
330
1F
100
AcDbEntity
  8
0
  6
SLD-Durchgehend
 62
     7
370
    15
100
AcDbLine
 10
324.1877058987
 20
155.9232529969
 30
0.0
 11
324.1877058987
 21
154.2089183955
 31
0.0
  0
ARC
  5
367
330
1F
100
AcDbEntity
  8
0
  6
SLD-Durchgehend
 62
     7
370
    15
100
AcDbCircle
 10
338.5340838599
 20
156.194721233
 30
0.0
 40
0.5
100
AcDbArc
 50
0.0
 51
50.6996723379
  0
LINE
  5
368
330
1F
100
AcDbEntity
  8
0
  6
SLD-Durchgehend
 62
     7
370
    15
100
AcDbLine
 10
338.850776509
 20
156.5816395268
 30
0.0
 11
335.1609480295
 21
159.6017643811
 31
0.0
  0
LINE
  5
369
330
1F
100
AcDbEntity
  8
0
  6
SLD-Durchgehend
 62
     7
370
    15
100
AcDbLine
 10
339.0340838599
 20
154.4803866316
 30
0.0
 11
339.0340838599
 21
156.194721233
 31
0.0
  0
SPLINE
  5
36A
330
1F
100
AcDbEntity
  8
0
  6
SLD-Durchgehend
 62
     7
370
    15
100
AcDbSpline
210
0.0
220
0.0
230
1.0
 70
     8
 71
     3
 72
    10
 73
     6
 74
     0
 42
0.000000001
 43
0.00000001
 40
0.0
 40
0.0
 40
0.0
 40
0.0
 40
0.3611457536237156
 40
0.900641153178484
 40
1.0
 40
1.0
 40
1.0
 40
1.0
 10
324.1796766124467
 20
154.2094505604188
 30
0.0
 10
324.1811149877515
 20
154.1869181877913
 30
0.0
 10
324.1847020713049
 20
154.130725966608
 30
0.0
 10
324.1523669735101
 20
154.0913919718042
 30
0.0
 10
324.1527103590896
 20
154.0917287868577
 30
0.0
 10
324.1527637646909
 20
154.0917811705673
 30
0.0
  0
SPLINE
  5
36B
330
1F
100
AcDbEntity
  8
0
  6
SLD-Durchgehend
 62
     7
370
    15
100
AcDbSpline
210
0.0
220
0.0
230
1.0
 70
     8
 71
     3
 72
    10
 73
     6
 74
     0
 42
0.000000001
 43
0.00000001
 40
0.0
 40
0.0
 40
0.0
 40
0.0
 40
0.194064044403174
 40
0.6791010149969492
 40
1.0
 40
1.0
 40
1.0
 40
1.0
 10
339.0647433329819
 20
154.3677519138082
 30
0.0
 10
339.0657659339686
 20
154.3667596106397
 30
0.0
 10
339.0693443885459
 20
154.3632871792013
 30
0.0
 10
339.0350787949767
 20
154.4115964893726
 30
0.0
 10
339.0401099103005
 20
154.460416024698
 30
0.0
 10
339.0421131461528
 20
154.4798544667049
 30
0.0
  0
LINE
  5
36C
330
1F
100
AcDbEntity
  8
0
  6
SLD-Durchgehend
 62
     7
370
    15
100
AcDbLine
 10
334.834454403
 20
159.7147500189
 30
0.0
 11
327.9112654223
 21
159.5790159009
 31
0.0
  0
ARC
  5
36D
330
1F
100
AcDbEntity
  8
0
  6
SLD-Durchgehend
 62
     7
370
    15
100
AcDbCircle
 10
327.9210663998
 20
159.0791119693
 30
0.0
 40
0.5000000000000033
100
AcDbArc
 50
91.123181225
 51
134.305033619
  0
ARC
  5
36E
330
1F
100
AcDbEntity
  8
0
  6
SLD-Durchgehend
 62
     7
370
    15
100
AcDbCircle
 10
334.8442553804
 20
159.2148460873
 30
0.0
 40
0.4999999999999862
100
AcDbArc
 50
50.6996723379
 51
74.7954868413
  0
ARC
  5
36F
330
1F
100
AcDbEntity
  8
0
  6
SLD-Durchgehend
 62
     7
370
    15
100
AcDbCircle
 10
334.8442553804
 20
159.2148460873
 30
0.0
 40
0.5000000000000033
100
AcDbArc
 50
74.7954868413
 51
91.123181225
  0
SPLINE
  5
370
330
1F
100
AcDbEntity
  8
0
  6
SLD-Durchgehend
 62
     7
370
    15
100
AcDbSpline
210
0.0
220
0.0
230
1.0
 70
     8
 71
     3
 72
    29
 73
    25
 74
     0
 42
0.000000001
 43
0.00000001
 40
0.0
 40
0.0
 40
0.0
 40
0.0
 40
0.0185458170581554
 40
0.0635450184580121
 40
0.109174603948956
 40
0.1559973428141676
 40
0.2037754909230008
 40
0.2519727073480088
 40
0.3001788483749513
 40
0.3482741787058771
 40
0.3962591914401383
 40
0.4441649094314631
 40
0.4920295703269725
 40
0.5398922788868971
 40
0.5877835157976502
 40
0.6357409954991882
 40
0.6838091555160086
 40
0.7320336135457468
 40
0.7804493897193213
 40
0.8290415799366213
 40
0.8775594709057568
 40
0.9254270386023664
 40
0.9720117777214522
 40
0.9999999999999999
 40
0.9999999999999999
 40
0.9999999999999999
 40
0.9999999999999999
 10
321.9074560463895
 20
126.5673552357771
 30
0.0
 10
321.9139882377144
 20
126.4584993903078
 30
0.0
 10
321.9363700080625
 20
126.0855178879067
 30
0.0
 10
322.1966386695699
 20
125.4669971070921
 30
0.0
 10
322.6694388592331
 20
124.7356831039491
 30
0.0
 10
323.3482279316387
 20
124.0533550271435
 30
0.0
 10
324.2084772285926
 20
123.4307764239557
 30
0.0
 10
325.2366887122234
 20
122.8838119969811
 30
0.0
 10
326.4054337444795
 20
122.4258987903903
 30
0.0
 10
327.6863864702028
 20
122.0666370891592
 30
0.0
 10
329.0507355949228
 20
121.8124686500984
 30
0.0
 10
330.469145438854
 20
121.6677409866056
 30
0.0
 10
331.9114458358446
 20
121.6348995671763
 30
0.0
 10
333.3469900910395
 20
121.7144420546718
 30
0.0
 10
334.7453101639409
 20
121.9048787410421
 30
0.0
 10
336.0768411150821
 20
122.2028303465972
 30
0.0
 10
337.3136546079909
 20
122.603313084339
 30
0.0
 10
338.429719950707
 20
123.1001287159906
 30
0.0
 10
339.4012823090893
 20
123.6862942396986
 30
0.0
 10
340.2042141969103
 20
124.3535973165588
 30
0.0
 10
340.8187487429466
 20
125.0910150461517
 30
0.0
 10
341.2107337920459
 20
125.8803143422118
 30
0.0
 10
341.3869059024152
 20
126.5952841851241
 30
0.0
 10
341.3396936953158
 20
127.0323065161216
 30
0.0
 10
341.3219743273063
 20
127.1963267978888
 30
0.0
  0
ARC
  5
371
330
1F
100
AcDbEntity
  8
0
  6
SLD-Durchgehend
 62
     7
370
    15
100
AcDbCircle
 10
331.5940005788
 20
165.2238959657
 30
0.0
 40
16.09663790509036
100
AcDbArc
 50
249.3388239103
 51
292.3429684297
  0
LINE
  5
372
330
1F
100
AcDbEntity
  8
0
  6
SLD-Durchgehend
 62
     7
370
    15
100
AcDbLine
 10
341.3497298036
 20
153.7277350549
 30
0.0
 11
341.3608948793
 21
153.4874852129
 31
0.0
  0
LINE
  5
373
330
1F
100
AcDbEntity
  8
0
  6
SLD-Durchgehend
 62
     7
370
    15
100
AcDbLine
 10
321.8703678179
 20
153.26617906
 30
0.0
 11
321.8608948793
 21
153.4874852129
 31
0.0
  0
LINE
  5
374
330
1F
100
AcDbEntity
  8
0
  6
SLD-Durchgehend
 62
     7
370
    15
100
AcDbLine
 10
327.0606148372
 20
130.6171754314
 30
0.0
 11
327.0606148372
 21
128.90284083
 31
0.0
  0
LWPOLYLINE
  5
375
330
1F
100
AcDbEntity
  8
0
  6
SLD-Durchgehend
 62
     7
370
    15
100
AcDbPolyline
 90
        8
 70
   128
 43
0.0
 10
321.8608948793
 20
135.0583882478
 10
321.9600917937
 20
134.3438947653
 10
322.2959250056
 20
133.5751290011
 10
322.8611236905
 20
132.8428860022
 10
323.6417707808
 20
132.1651960214
 10
324.6186441544
 20
131.5587460352
 10
325.7676899469
 20
131.0384688549
 10
327.0606148372
 20
130.6171754314
  0
LWPOLYLINE
  5
376
330
1F
100
AcDbEntity
  8
0
  6
SLD-Durchgehend
 62
     7
370
    15
100
AcDbPolyline
 90
       10
 70
   128
 43
0.0
 10
322.0039872705
 20
134.2012209471
 10
322.0037477441
 20
134.2005085272
 10
321.8618933829
 20
133.4159191289
 10
321.9600917937
 20
132.6295601639
 10
322.2959250056
 20
131.8607943997
 10
322.8611236905
 20
131.1285514008
 10
323.6417707808
 20
130.45086142
 10
324.6186441544
 20
129.8444114338
 10
325.7676899469
 20
129.3241342535
 10
327.0606148372
 20
128.90284083
  0
LINE
  5
377
330
1F
100
AcDbEntity
  8
0
  6
SLD-Durchgehend
 62
     7
370
    15
100
AcDbLine
 10
321.8608948793
 20
126.9152988911
 30
0.0
 11
321.8790366599
 21
126.6091064389
 31
0.0
  0
LWPOLYLINE
  5
378
330
1F
100
AcDbEntity
  8
0
  6
SLD-Durchgehend
 62
     7
370
    15
100
AcDbPolyline
 90
       10
 70
   128
 43
0.0
 10
322.0039872705
 20
141.0585593527
 10
322.0037477441
 20
141.0578469328
 10
321.8618933829
 20
140.2732575345
 10
321.9600917937
 20
139.4868985695
 10
322.2959250056
 20
138.7181328053
 10
322.8611236905
 20
137.9858898064
 10
323.6417707808
 20
137.3081998256
 10
324.6186441544
 20
136.7017498394
 10
325.7676899469
 20
136.1814726591
 10
327.0606148372
 20
135.7601792356
  0
LINE
  5
379
330
1F
100
AcDbEntity
  8
0
  6
SLD-Durchgehend
 62
     7
370
    15
100
AcDbLine
 10
327.0606148372
 20
135.7601792356
 30
0.0
 11
327.0606148372
 21
137.474513837
 31
0.0
  0
LWPOLYLINE
  5
37A
330
1F
100
AcDbEntity
  8
0
  6
SLD-Durchgehend
 62
     7
370
    15
100
AcDbPolyline
 90
        8
 70
   128
 43
0.0
 10
321.8608948793
 20
141.9157266534
 10
321.9600917937
 20
141.2012331709
 10
322.2959250056
 20
140.4324674067
 10
322.8611236905
 20
139.7002244078
 10
323.6417707808
 20
139.022534427
 10
324.6186441544
 20
138.4160844408
 10
325.7676899469
 20
137.8958072605
 10
327.0606148372
 20
137.474513837
  0
LWPOLYLINE
  5
37B
330
1F
100
AcDbEntity
  8
0
  6
SLD-Durchgehend
 62
     7
370
    15
100
AcDbPolyline
 90
       10
 70
   128
 43
0.0
 10
322.0039872705
 20
147.9158977583
 10
322.0037477441
 20
147.9151853384
 10
321.8618933829
 20
147.1305959401
 10
321.9600917937
 20
146.3442369751
 10
322.2959250056
 20
145.5754712109
 10
322.8611236905
 20
144.843228212
 10
323.6417707808
 20
144.1655382312
 10
324.6186441544
 20
143.559088245
 10
325.7676899469
 20
143.0388110647
 10
327.0606148372
 20
142.6175176413
  0
LINE
  5
37C
330
1F
100
AcDbEntity
  8
0
  6
SLD-Durchgehend
 62
     7
370
    15
100
AcDbLine
 10
327.0606148372
 20
142.6175176413
 30
0.0
 11
327.0606148372
 21
144.3318522427
 31
0.0
  0
LWPOLYLINE
  5
37D
330
1F
100
AcDbEntity
  8
0
  6
SLD-Durchgehend
 62
     7
370
    15
100
AcDbPolyline
 90
        8
 70
   128
 43
0.0
 10
321.8608948793
 20
148.773065059
 10
321.9600917937
 20
148.0585715765
 10
322.2959250056
 20
147.2898058123
 10
322.8611236905
 20
146.5575628134
 10
323.6417707808
 20
145.8798728326
 10
324.6186441544
 20
145.2734228464
 10
325.7676899469
 20
144.7531456661
 10
327.0606148372
 20
144.3318522427
  0
ARC
  5
37E
330
1F
100
AcDbEntity
  8
0
  6
SLD-Durchgehend
 62
     7
370
    15
100
AcDbCircle
 10
328.2853320084
 20
148.9491148949
 30
0.0
 40
5.720724547551123
100
AcDbArc
 50
209.2829898216
 51
257.6381906734
  0
ARC
  5
37F
330
1F
100
AcDbEntity
  8
0
  6
SLD-Durchgehend
 62
     7
370
    15
100
AcDbCircle
 10
328.2853320084
 20
142.0917764893
 30
0.0
 40
5.720724547539443
100
AcDbArc
 50
209.2829898215
 51
257.6381906735
  0
ARC
  5
380
330
1F
100
AcDbEntity
  8
0
  6
SLD-Durchgehend
 62
     7
370
    15
100
AcDbCircle
 10
328.2853320083
 20
135.2344380836
 30
0.0
 40
5.720724547527081
100
AcDbArc
 50
209.2829898213
 51
257.6381906735
  0
LWPOLYLINE
  5
381
330
1F
100
AcDbEntity
  8
0
  6
SLD-Durchgehend
 62
     7
370
    15
100
AcDbPolyline
 90
       32
 70
   128
 43
0.0
 10
321.9614335665
 20
105.933771577
 10
321.8516039867
 20
105.8185558583
 10
320.7302697141
 20
104.4498105646
 10
319.7955678766
 20
102.9259103666
 10
319.0577392631
 20
101.2635514338
 10
318.5248676784
 20
99.4809469187
 10
318.2027913751
 20
97.5976274093
 10
318.0950390884
 20
95.6342269482
 10
318.2027913751
 20
93.6122569618
 10
318.5248676784
 20
91.5538705764
 10
319.0577392631
 20
89.4816199039
 10
319.7955678766
 20
87.4182089565
 10
320.7302697141
 20
85.3862448961
 10
321.8516039867
 20
83.4079903463
 10
323.1472851215
 20
81.5051194778
 10
324.6031173648
 20
79.6984805422
 10
326.203150314
 20
78.0078674537
 10
327.9298536731
 20
76.451802923
 10
329.7643093189
 20
75.0473355189
 10
331.6864185714
 20
73.8098528799
 10
333.6751223995
 20
72.752913125
 10
335.7086321477
 20
71.8880963072
 10
337.7646682579
 20
71.2248775406
 10
339.820704368
 20
70.7705231888
 10
341.8542141162
 20
70.5300112531
 10
343.8429179443
 20
70.5059768327
 10
345.7650271968
 20
70.6986832536
 10
347.5994828426
 20
71.106019184
 10
349.3261862017
 20
71.7235217662
 10
350.9262191509
 20
72.5444255126
 10
352.3820513942
 20
73.5597364302
 10
353.0220617196
 20
74.1103570676
  0
ARC
  5
382
330
1F
100
AcDbEntity
  8
0
  6
SLD-Durchgehend
 62
     7
370
    15
100
AcDbCircle
 10
334.2930757579
 20
97.0559981095
 30
0.0
 40
12.74097837130722
100
AcDbArc
 50
104.7481236462
 51
116.2889086731
  0
LWPOLYLINE
  5
383
330
1F
100
AcDbEntity
  8
0
  6
SLD-Durchgehend
 62
     7
370
    15
100
AcDbPolyline
 90
        3
 70
   128
 43
0.0
 10
355.8719849719
 20
81.0157831747
 10
356.4559249112
 20
82.4016097604
 10
356.6849400532
 20
83.1123248223
  0
LWPOLYLINE
  5
384
330
1F
100
AcDbEntity
  8
0
  6
SLD-Durchgehend
 62
     7
370
    15
100
AcDbPolyline
 90
       21
 70
   128
 43
0.0
 10
326.7785332281
 20
98.959681845
 10
326.5645080562
 20
98.1097367634
 10
326.3547736591
 20
96.5576742751
 10
326.3547736591
 20
94.9358216797
 10
326.5645080562
 20
93.2697565613
 10
326.9806692139
 20
91.5857537621
 10
327.5966940219
 20
89.9103710123
 10
328.4028674011
 20
88.2700300986
 10
329.3864755157
 20
86.6906001771
 10
330.5320062781
 20
85.1969898013
 10
331.821393984
 20
83.8127540989
 10
333.2343042189
 20
82.5597232939
 10
334.7484545445
 20
81.4576584306
 10
336.3399659055
 20
80.5239397303
 10
337.9837392171
 20
79.7732924946
 10
339.6538511922
 20
79.2175548788
 10
341.3239631674
 20
78.8654911972
 10
342.967736479
 20
78.7226537043
 10
344.55924784
 20
78.7912950327
 10
346.0733981656
 20
79.0703326677
 10
346.2942532685
 20
79.1306480237
  0
LINE
  5
385
330
1F
100
AcDbEntity
  8
0
  6
SLD-Durchgehend
 62
     7
370
    15
100
AcDbLine
 10
357.8251162644
 20
108.3630737935
 30
0.0
 11
359.5939525078
 21
107.8823420041
 31
0.0
  0
LINE
  5
386
330
1F
100
AcDbEntity
  8
0
  6
SLD-Durchgehend
 62
     7
370
    15
100
AcDbLine
 10
357.8251162644
 20
101.5057353879
 30
0.0
 11
357.8251162644
 21
108.3630737935
 31
0.0
  0
LINE
  5
387
330
1F
100
AcDbEntity
  8
0
  6
SLD-Durchgehend
 62
     7
370
    15
100
AcDbLine
 10
356.0562800211
 20
101.9864671773
 30
0.0
 11
357.8251162644
 21
101.5057353879
 31
0.0
  0
LINE
  5
388
330
1F
100
AcDbEntity
  8
0
  6
SLD-Durchgehend
 62
     7
370
    15
100
AcDbLine
 10
358.7095343861
 20
96.122365689
 30
0.0
 11
356.0562800211
 21
101.9864671773
 31
0.0
  0
LINE
  5
389
330
1F
100
AcDbEntity
  8
0
  6
SLD-Durchgehend
 62
     7
370
    15
100
AcDbLine
 10
361.3627887511
 20
100.5442718092
 30
0.0
 11
358.7095343861
 21
96.122365689
 31
0.0
  0
LINE
  5
38A
330
1F
100
AcDbEntity
  8
0
  6
SLD-Durchgehend
 62
     7
370
    15
100
AcDbLine
 10
359.5939525078
 20
101.0250035985
 30
0.0
 11
361.3627887511
 21
100.5442718092
 31
0.0
  0
LINE
  5
38B
330
1F
100
AcDbEntity
  8
0
  6
SLD-Durchgehend
 62
     7
370
    15
100
AcDbLine
 10
359.5939525078
 20
107.8823420041
 30
0.0
 11
359.5939525078
 21
101.0250035985
 31
0.0
  0
LINE
  5
38C
330
1F
100
AcDbEntity
  8
0
  6
SLD-Durchgehend
 62
     7
370
    15
100
AcDbLine
 10
316.2574645456
 20
107.6599286338
 30
0.0
 11
316.2574645456
 21
114.5172670394
 31
0.0
  0
LINE
  5
38D
330
1F
100
AcDbEntity
  8
0
  6
SLD-Durchgehend
 62
     7
370
    15
100
AcDbLine
 10
316.2574645456
 20
114.5172670394
 30
0.0
 11
318.026300789
 21
114.0365352501
 31
0.0
  0
LINE
  5
38E
330
1F
100
AcDbEntity
  8
0
  6
SLD-Durchgehend
 62
     7
370
    15
100
AcDbLine
 10
318.026300789
 20
114.0365352501
 30
0.0
 11
315.3730464239
 21
119.9006367383
 31
0.0
  0
LINE
  5
38F
330
1F
100
AcDbEntity
  8
0
  6
SLD-Durchgehend
 62
     7
370
    15
100
AcDbLine
 10
315.3730464239
 20
119.9006367383
 30
0.0
 11
312.7197920589
 21
115.4787306182
 31
0.0
  0
LINE
  5
390
330
1F
100
AcDbEntity
  8
0
  6
SLD-Durchgehend
 62
     7
370
    15
100
AcDbLine
 10
312.7197920589
 20
115.4787306182
 30
0.0
 11
314.4886283022
 21
114.9979988288
 31
0.0
  0
LINE
  5
391
330
1F
100
AcDbEntity
  8
0
  6
SLD-Durchgehend
 62
     7
370
    15
100
AcDbLine
 10
314.4886283022
 20
114.9979988288
 30
0.0
 11
314.4886283022
 21
108.1406604232
 31
0.0
  0
LINE
  5
392
330
1F
100
AcDbEntity
  8
0
  6
SLD-Durchgehend
 62
     7
370
    15
100
AcDbLine
 10
314.4886283022
 20
108.1406604232
 30
0.0
 11
316.2574645456
 21
107.6599286338
 31
0.0
  0
LWPOLYLINE
  5
393
330
1F
100
AcDbEntity
  8
0
  6
SLD-Durchgehend
 62
     7
370
    15
100
AcDbPolyline
 90
       17
 70
   128
 43
0.0
 10
315.8152554848
 20
75.2077541545
 10
315.7479331639
 20
75.5540746435
 10
315.5562154143
 20
75.884264506
 10
315.2692895255
 20
76.1480553286
 10
314.9308373631
 20
76.3052873499
 10
314.5923852006
 20
76.3320234198
 10
314.3054593118
 20
76.2241932142
 10
314.1137415623
 20
75.9982129043
 10
314.0464192414
 20
75.6884859439
 10
314.1137415623
 20
75.3421654548
 10
314.3054593118
 20
75.0119755923
 10
314.5923852006
 20
74.7481847697
 10
314.9308373631
 20
74.5909527485
 10
315.2692895255
 20
74.5642166785
 10
315.5562154143
 20
74.6720468841
 10
315.7479331639
 20
74.898027194
 10
315.8152554848
 20
75.2077541545
  0
LWPOLYLINE
  5
394
330
1F
100
AcDbEntity
  8
0
  6
SLD-Durchgehend
 62
     7
370
    15
100
AcDbPolyline
 90
       17
 70
   128
 43
0.0
 10
360.0361615686
 20
63.1894594203
 10
359.9688392478
 20
63.5357799093
 10
359.7771214982
 20
63.8659697718
 10
359.4901956094
 20
64.1297605944
 10
359.151743447
 20
64.2869926157
 10
358.8132912845
 20
64.3137286856
 10
358.5263653957
 20
64.20589848
 10
358.3346476462
 20
63.9799181701
 10
358.2673253253
 20
63.6701912097
 10
358.3346476462
 20
63.3238707206
 10
358.5263653957
 20
62.9936808581
 10
358.8132912845
 20
62.7298900355
 10
359.151743447
 20
62.5726580143
 10
359.4901956094
 20
62.5459219443
 10
359.7771214982
 20
62.6537521499
 10
359.9688392478
 20
62.8797324598
 10
360.0361615686
 20
63.1894594203
  0
LWPOLYLINE
  5
395
330
1F
100
AcDbEntity
  8
0
  6
SLD-Durchgehend
 62
     7
370
    15
100
AcDbPolyline
 90
       61
 70
   128
 43
0.0
 10
317.3629871977
 20
94.9305454053
 10
317.4707870016
 20
96.8948116992
 10
317.7930053363
 20
98.7789617268
 10
318.3261119101
 20
100.5623523461
 10
319.0642658959
 20
102.2254443565
 10
319.9993799241
 20
103.7500165736
 10
321.1212086898
 20
105.1193654654
 10
322.4174612023
 20
106.3184881588
 10
323.8739354478
 20
107.3342468146
 10
325.4746739896
 20
108.1555125684
 10
327.2021388014
 20
108.7732874608
 10
329.037403417
 20
109.1808030208
 10
330.9603602935
 20
109.3735944226
 10
332.9499411128
 20
109.3495494033
 10
334.984347611
 20
109.1089314051
 10
337.041290405
 20
108.6543766892
 10
339.098233199
 20
107.9908654522
 10
341.1326396973
 20
107.125667262
 10
343.1222205165
 20
106.0682614111
 10
345.045177393
 20
104.8302330592
 10
346.8804420087
 20
103.4251463041
 10
348.6079068204
 20
101.8683955702
 10
350.2086453622
 20
100.1770369444
 10
351.6651196077
 20
98.3696013057
 10
352.9613721202
 20
96.4658912972
 10
354.0832008859
 20
94.4867643641
 10
355.0183149142
 20
92.4539042354
 10
355.7564689
 20
90.3895833518
 10
356.2895754738
 20
88.3164188451
 10
356.6117938084
 20
86.2571247394
 10
356.7195936123
 20
84.2342630919
 10
356.6117938084
 20
82.269996798
 10
356.2895754738
 20
80.3858467704
 10
355.7564689
 20
78.602456151
 10
355.0183149142
 20
76.9393641407
 10
354.0832008859
 20
75.4147919235
 10
352.9613721202
 20
74.0454430317
 10
351.6651196077
 20
72.8463203384
 10
350.2086453622
 20
71.8305616826
 10
348.6079068204
 20
71.0092959288
 10
346.8804420087
 20
70.3915210364
 10
345.045177393
 20
69.9840054764
 10
343.1222205165
 20
69.7912140746
 10
341.1326396973
 20
69.8152590939
 10
339.098233199
 20
70.0558770921
 10
337.041290405
 20
70.510431808
 10
334.984347611
 20
71.173943045
 10
332.9499411128
 20
72.0391412351
 10
330.9603602935
 20
73.0965470861
 10
329.037403417
 20
74.3345754379
 10
327.2021388014
 20
75.7396621931
 10
325.4746739896
 20
77.296412927
 10
323.8739354478
 20
78.9877715528
 10
322.4174612023
 20
80.7952071915
 10
321.1212086898
 20
82.6989172
 10
319.9993799241
 20
84.678044133
 10
319.0642658959
 20
86.7109042618
 10
318.3261119101
 20
88.7752251453
 10
317.7930053363
 20
90.848389652
 10
317.4707870016
 20
92.9076837578
 10
317.3629871977
 20
94.9305454053
  0
LINE
  5
396
330
1F
100
AcDbEntity
  8
0
  6
SLD-Durchgehend
 62
     7
370
    15
100
AcDbLine
 10
287.0716665302
 20
89.0198168366
 30
0.0
 11
287.0716665302
 21
75.3051400254
 31
0.0
  0
LINE
  5
397
330
1F
100
AcDbEntity
  8
0
  6
SLD-Durchgehend
 62
     7
370
    15
100
AcDbLine
 10
287.0716665302
 20
89.0198168366
 30
0.0
 11
306.0866561463
 21
83.8519501009
 31
0.0
  0
ARC
  5
398
330
1F
100
AcDbEntity
  8
0
  6
SLD-Durchgehend
 62
     7
370
    15
100
AcDbCircle
 10
306.6727182808
 20
85.3677949972
 30
0.0
 40
1.625193703861196
100
AcDbArc
 50
248.862298024
 51
0.9222550965
  0
LINE
  5
399
330
1F
100
AcDbEntity
  8
0
  6
SLD-Durchgehend
 62
     7
370
    15
100
AcDbLine
 10
308.2977014505
 20
85.393953616
 30
0.0
 11
308.2977014505
 21
125.2522330986
 31
0.0
  0
LINE
  5
39A
330
1F
100
AcDbEntity
  8
0
  6
SLD-Durchgehend
 62
     7
370
    15
100
AcDbLine
 10
365.7848793595
 20
109.6284499442
 30
0.0
 11
308.2977014505
 21
125.2522330986
 31
0.0
  0
LINE
  5
39B
330
1F
100
AcDbEntity
  8
0
  6
SLD-Durchgehend
 62
     7
370
    15
100
AcDbLine
 10
365.7848793595
 20
109.6284499442
 30
0.0
 11
365.7848793595
 21
69.7701704615
 31
0.0
  0
ARC
  5
39C
330
1F
100
AcDbEntity
  8
0
  6
SLD-Durchgehend
 62
     7
370
    15
100
AcDbCircle
 10
368.8158098466
 20
69.9497929896
 30
0.0
 40
3.036248321541152
100
AcDbArc
 50
183.391562315
 51
254.3338098233
  0
LINE
  5
39D
330
1F
100
AcDbEntity
  8
0
  6
SLD-Durchgehend
 62
     7
370
    15
100
AcDbLine
 10
367.9959246637
 20
67.0263374731
 30
0.0
 11
387.0109142798
 21
61.8584707373
 31
0.0
  0
LINE
  5
39E
330
1F
100
AcDbEntity
  8
0
  6
SLD-Durchgehend
 62
     7
370
    15
100
AcDbLine
 10
387.0109142798
 20
48.1437939261
 30
0.0
 11
387.0109142798
 21
61.8584707373
 31
0.0
  0
LINE
  5
39F
330
1F
100
AcDbEntity
  8
0
  6
SLD-Durchgehend
 62
     7
370
    15
100
AcDbLine
 10
359.151743447
 20
55.7153196087
 30
0.0
 11
387.0109142798
 21
48.1437939261
 31
0.0
  0
LINE
  5
3A0
330
1F
100
AcDbEntity
  8
0
  6
SLD-Durchgehend
 62
     7
370
    15
100
AcDbLine
 10
359.151743447
 20
55.7153196087
 30
0.0
 11
359.151743447
 21
56.143903259
 31
0.0
  0
LINE
  5
3A1
330
1F
100
AcDbEntity
  8
0
  6
SLD-Durchgehend
 62
     7
370
    15
100
AcDbLine
 10
359.151743447
 20
56.143903259
 30
0.0
 11
314.9308373631
 21
68.1621979932
 31
0.0
  0
LINE
  5
3A2
330
1F
100
AcDbEntity
  8
0
  6
SLD-Durchgehend
 62
     7
370
    15
100
AcDbLine
 10
314.9308373631
 20
68.1621979932
 30
0.0
 11
314.9308373631
 21
67.7336143429
 31
0.0
  0
LINE
  5
3A3
330
1F
100
AcDbEntity
  8
0
  6
SLD-Durchgehend
 62
     7
370
    15
100
AcDbLine
 10
287.0716665302
 20
75.3051400254
 30
0.0
 11
314.9308373631
 21
67.7336143429
 31
0.0
  0
LINE
  5
3A4
330
1F
100
AcDbEntity
  8
0
  6
SLD-Durchgehend
 62
     7
370
    15
100
AcDbLine
 10
377.9189594717
 20
121.4716841211
 30
0.0
 11
365.7848793595
 21
109.6284499442
 31
0.0
  0
LINE
  5
3A5
330
1F
100
AcDbEntity
  8
0
  6
SLD-Durchgehend
 62
     7
370
    15
100
AcDbLine
 10
377.9189594717
 20
121.4716841211
 30
0.0
 11
377.9189594717
 21
81.6134046384
 31
0.0
  0
LINE
  5
3A6
330
1F
100
AcDbEntity
  8
0
  6
SLD-Durchgehend
 62
     7
370
    15
100
AcDbLine
 10
320.4317815627
 20
137.0954672755
 30
0.0
 11
308.2977014505
 21
125.2522330986
 31
0.0
  0
LINE
  5
3A7
330
1F
100
AcDbEntity
  8
0
  6
SLD-Durchgehend
 62
     7
370
    15
100
AcDbLine
 10
377.9189594717
 20
121.4716841211
 30
0.0
 11
341.3608948793
 21
131.4073827327
 31
0.0
  0
LINE
  5
3A8
330
1F
100
AcDbEntity
  8
0
  6
SLD-Durchgehend
 62
     7
370
    15
100
AcDbLine
 10
321.8608948793
 20
136.7070648983
 30
0.0
 11
320.4317815627
 21
137.0954672755
 31
0.0
  0
LWPOLYLINE
  5
3A9
330
1F
100
AcDbEntity
  8
0
  6
SLD-Durchgehend
 62
     7
370
    15
100
AcDbPolyline
 90
       34
 70
   128
 43
0.0
 10
358.6275439167
 20
123.0589953825
 10
359.6960411679
 20
122.6978547108
 10
360.6125277888
 20
122.2390921884
 10
361.3438795649
 20
121.6992886883
 10
361.8636635376
 20
121.0979541154
 10
362.1530933599
 20
120.4568222679
 10
362.2017082838
 20
119.7990653213
 10
362.0077512393
 20
119.1484563253
 10
361.5782323394
 20
118.5285099842
 10
360.9286755162
 20
117.9616327741
 10
360.0825574457
 20
117.4683131143
 10
359.0704590395
 20
117.0663808626
 10
357.928960171
 20
116.7703628979
 10
356.6993175834
 20
116.5909580806
 10
355.4259737638
 20
116.5346505683
 10
354.1549506753
 20
116.6034754611
 10
352.9321864041
 20
116.7949452482
 10
351.8018748367
 20
117.1021397126
 10
350.8048683782
 20
117.5139560459
 10
349.9772014397
 20
118.0155101329
 10
349.3487880608
 20
118.588674502
 10
348.9423407384
 20
119.2127334997
 10
348.7725495376
 20
119.8651320077
 10
348.8455511549
 20
120.5222906442
 10
349.1587071216
 20
121.1604579838
 10
349.7006991651
 20
121.7565689963
 10
350.4519382808
 20
122.2890786763
 10
351.3852727298
 20
122.7387407367
 10
352.4669693733
 20
123.0893032189
 10
353.6579328763
 20
123.3280958816
 10
354.9151187147
 20
123.4464881357
 10
356.1930889168
 20
123.4402009767
 10
357.4456543097
 20
123.3094616389
 10
358.6275439167
 20
123.0589953825
  0
LINE
  5
3AA
330
1F
100
AcDbEntity
  8
0
  6
SLD-Durchgehend
 62
     7
370
    15
100
AcDbLine
 10
358.747890671
 20
96.1862901635
 30
0.0
 11
356.1329925909
 21
101.9656183445
 31
0.0
  0
LINE
  5
3AB
330
1F
100
AcDbEntity
  8
0
  6
SLD-Durchgehend
 62
     7
370
    15
100
AcDbLine
 10
357.8717858033
 20
101.5512862886
 30
0.0
 11
357.8717858033
 21
108.3503900129
 31
0.0
  0
LINE
  5
3AC
330
1F
100
AcDbEntity
  8
0
  6
SLD-Durchgehend
 62
     7
370
    15
100
AcDbLine
 10
357.8717858033
 20
101.5512862886
 30
0.0
 11
357.8251162644
 21
101.5057353879
 31
0.0
  0
ARC
  5
3AD
330
1F
100
AcDbEntity
  8
0
  6
SLD-Durchgehend
 62
     7
370
    15
100
AcDbCircle
 10
332.8142488131
 20
96.086219171
 30
0.0
 40
14.66283827340959
100
AcDbArc
 50
138.0724611746
 51
181.4901499895
  0
LWPOLYLINE
  5
3AE
330
1F
100
AcDbEntity
  8
0
  6
SLD-Durchgehend
 62
     7
370
    15
100
AcDbPolyline
 90
       25
 70
   128
 43
0.0
 10
352.9707261129
 20
74.0553894094
 10
352.4585017689
 20
73.62068565
 10
351.0020275234
 20
72.6049269942
 10
349.4012889816
 20
71.7836612403
 10
347.6738241699
 20
71.1658863479
 10
345.8385595542
 20
70.7583707879
 10
343.9156026777
 20
70.5655793861
 10
341.9260218585
 20
70.5896244055
 10
339.8916153602
 20
70.8302424036
 10
337.8346725662
 20
71.2847971195
 10
335.7777297722
 20
71.9483083565
 10
333.7433232739
 20
72.8135065467
 10
331.7537424547
 20
73.8709123976
 10
329.8307855782
 20
75.1089407495
 10
327.9955209625
 20
76.5140275046
 10
326.2680561508
 20
78.0707782385
 10
324.667317609
 20
79.7621368643
 10
323.2108433635
 20
81.569572503
 10
321.914590851
 20
83.4732825115
 10
320.7927620853
 20
85.4524094446
 10
319.857648057
 20
87.4852695734
 10
319.1194940712
 20
89.5495904569
 10
318.5863874974
 20
91.6227549636
 10
318.2641691628
 20
93.6820490693
 10
318.1563693589
 20
95.7049107169
  0
LWPOLYLINE
  5
3AF
330
1F
100
AcDbEntity
  8
0
  6
SLD-Durchgehend
 62
     7
370
    15
100
AcDbPolyline
 90
       14
 70
   128
 43
0.0
 10
358.1608485277
 20
121.746319075
 10
357.050229842
 20
121.9753387605
 10
355.8714296742
 20
122.0804260609
 10
354.6759672482
 20
122.056988157
 10
353.5160900085
 20
121.9060493976
 10
352.4424901562
 20
121.6342065308
 10
351.5020891565
 20
121.2533403944
 10
350.7359870457
 20
120.780096666
 10
350.1776661621
 20
120.2351583675
 10
349.8515278075
 20
119.6423419175
 10
349.771825793
 20
119.0275562394
 10
349.9420434791
 20
118.4176704175
 10
350.3547415361
 20
117.8393393887
 10
350.5608828469
 20
117.6425996484
  0
LWPOLYLINE
  5
3B0
330
1F
100
AcDbEntity
  8
0
  6
SLD-Durchgehend
 62
     7
370
    15
100
AcDbPolyline
 90
        9
 70
   128
 43
0.0
 10
360.4194854823
 20
117.6425996484
 10
360.8027021671
 20
118.0441791996
 10
361.1288405217
 20
118.6369956497
 10
361.2085425361
 20
119.2517813277
 10
361.0383248501
 20
119.8616671497
 10
360.6256267931
 20
120.4399981785
 10
359.9884852507
 20
120.961498573
 10
359.1547463656
 20
121.4033762637
 10
358.1608485277
 20
121.746319075
  0
LINE
  5
3B1
330
1F
100
AcDbEntity
  8
0
  6
SLD-Durchgehend
 62
     7
370
    15
100
AcDbLine
 10
399.144994392
 20
73.7017049143
 30
0.0
 11
395.1780835861
 21
69.8298783564
 31
0.0
  0
LINE
  5
3B2
330
1F
100
AcDbEntity
  8
0
  6
SLD-Durchgehend
 62
     7
370
    15
100
AcDbLine
 10
395.1780835861
 20
69.8298783564
 30
0.0
 11
385.0072751868
 21
72.5940861453
 31
0.0
  0
LWPOLYLINE
  5
3B3
330
1F
100
AcDbEntity
  8
0
  6
SLD-Durchgehend
 62
     7
370
    15
100
AcDbPolyline
 90
       14
 70
   128
 43
0.0
 10
385.0072751868
 20
72.5940861453
 10
383.9938012513
 20
72.7933779147
 10
382.9171748587
 20
72.861961196
 10
381.8399656216
 20
72.795850178
 10
380.8247770254
 20
72.5988869929
 10
379.9306081412
 20
72.282518425
 10
379.2094248144
 20
71.8651306655
 10
378.7031395986
 20
71.370980774
 10
378.4411759501
 20
70.8287869458
 10
378.4387582442
 20
70.2700595156
 10
378.696026989
 20
69.7272696907
 10
379.1980306602
 20
69.2319624426
 10
379.9155946292
 20
68.8129232284
 10
380.8070166864
 20
68.4945050841
  0
LINE
  5
3B4
330
1F
100
AcDbEntity
  8
0
  6
SLD-Durchgehend
 62
     7
370
    15
100
AcDbLine
 10
380.8070166864
 20
68.4945050841
 30
0.0
 11
390.9778250857
 21
65.7302972952
 31
0.0
  0
LINE
  5
3B5
330
1F
100
AcDbEntity
  8
0
  6
SLD-Durchgehend
 62
     7
370
    15
100
AcDbLine
 10
390.9778250857
 20
65.7302972952
 30
0.0
 11
387.0109142798
 21
61.8584707373
 31
0.0
  0
LINE
  5
3B6
330
1F
100
AcDbEntity
  8
0
  6
SLD-Durchgehend
 62
     7
370
    15
100
AcDbLine
 10
380.1300047759
 20
78.86957165
 30
0.0
 11
399.144994392
 21
73.7017049143
 31
0.0
  0
LINE
  5
3B7
330
1F
100
AcDbEntity
  8
0
  6
SLD-Durchgehend
 62
     7
370
    15
100
AcDbLine
 10
390.9778250857
 20
52.015620484
 30
0.0
 11
390.9778250857
 21
65.7302972952
 31
0.0
  0
LINE
  5
3B8
330
1F
100
AcDbEntity
  8
0
  6
SLD-Durchgehend
 62
     7
370
    15
100
AcDbLine
 10
387.0109142798
 20
48.1437939261
 30
0.0
 11
390.9778250857
 21
52.015620484
 31
0.0
  0
ARC
  5
3B9
330
1F
100
AcDbEntity
  8
0
  6
SLD-Durchgehend
 62
     7
370
    15
100
AcDbCircle
 10
380.9498899588
 20
81.7930271665
 30
0.0
 40
3.036248321541207
100
AcDbArc
 50
183.391562315
 51
254.3338098233
  0
LINE
  5
3BA
330
1F
100
AcDbEntity
  8
0
  6
SLD-Durchgehend
 62
     7
370
    15
100
AcDbLine
 10
312.7664615978
 20
115.5242815189
 30
0.0
 11
314.5352978411
 21
115.0435497295
 31
0.0
  0
LINE
  5
3BB
330
1F
100
AcDbEntity
  8
0
  6
SLD-Durchgehend
 62
     7
370
    15
100
AcDbLine
 10
315.3813596779
 20
119.8822631645
 30
0.0
 11
312.7664615978
 21
115.5242815189
 31
0.0
  0
LINE
  5
3BC
330
1F
100
AcDbEntity
  8
0
  6
SLD-Durchgehend
 62
     7
370
    15
100
AcDbLine
 10
316.3041340845
 20
114.5628179401
 30
0.0
 11
317.996257758
 21
114.1029349835
 31
0.0
  0
LINE
  5
3BD
330
1F
100
AcDbEntity
  8
0
  6
SLD-Durchgehend
 62
     7
370
    15
100
AcDbLine
 10
314.5352978411
 20
108.1862113239
 30
0.0
 11
316.2574645456
 21
107.7181633152
 31
0.0
  0
LINE
  5
3BE
330
1F
100
AcDbEntity
  8
0
  6
SLD-Durchgehend
 62
     7
370
    15
100
AcDbLine
 10
314.5352978411
 20
115.0435497295
 30
0.0
 11
314.5352978411
 21
108.1862113239
 31
0.0
  0
LINE
  5
3BF
330
1F
100
AcDbEntity
  8
0
  6
SLD-Durchgehend
 62
     7
370
    15
100
AcDbLine
 10
312.7664615978
 20
115.5242815189
 30
0.0
 11
312.7197920589
 21
115.4787306182
 31
0.0
  0
LINE
  5
3C0
330
1F
100
AcDbEntity
  8
0
  6
SLD-Durchgehend
 62
     7
370
    15
100
AcDbLine
 10
316.3041340845
 20
114.5628179401
 30
0.0
 11
316.2574645456
 21
114.5172670394
 31
0.0
  0
LINE
  5
3C1
330
1F
100
AcDbEntity
  8
0
  6
SLD-Durchgehend
 62
     7
370
    15
100
AcDbLine
 10
314.5352978411
 20
115.0435497295
 30
0.0
 11
314.4886283022
 21
114.9979988288
 31
0.0
  0
LINE
  5
3C2
330
1F
100
AcDbEntity
  8
0
  6
SLD-Durchgehend
 62
     7
370
    15
100
AcDbLine
 10
314.5352978411
 20
108.1862113239
 30
0.0
 11
314.4886283022
 21
108.1406604232
 31
0.0
  0
LINE
  5
3C3
330
1F
100
AcDbEntity
  8
0
  6
SLD-Durchgehend
 62
     7
370
    15
100
AcDbLine
 10
395.1780835861
 20
56.1152015452
 30
0.0
 11
395.1780835861
 21
69.8298783564
 31
0.0
  0
LINE
  5
3C4
330
1F
100
AcDbEntity
  8
0
  6
SLD-Durchgehend
 62
     7
370
    15
100
AcDbLine
 10
395.1780835861
 20
56.1152015452
 30
0.0
 11
390.9778250857
 21
57.2567418049
 31
0.0
  0
LINE
  5
3C5
330
1F
100
AcDbEntity
  8
0
  6
SLD-Durchgehend
 62
     7
370
    15
100
AcDbLine
 10
395.1780835861
 20
56.1152015452
 30
0.0
 11
399.144994392
 21
59.987028103
 31
0.0
  0
LINE
  5
3C6
330
1F
100
AcDbEntity
  8
0
  6
SLD-Durchgehend
 62
     7
370
    15
100
AcDbLine
 10
399.144994392
 20
59.987028103
 30
0.0
 11
399.144994392
 21
73.7017049143
 31
0.0
  0
ARC
  5
3C7
330
1F
100
AcDbEntity
  8
0
  6
SLD-Durchgehend
 62
     7
370
    15
100
AcDbCircle
 10
359.5885402325
 20
63.8561523683
 30
0.0
 40
1.074175264304769
100
AcDbArc
 50
158.9150567412
 51
289.6950104969
  0
ARC
  5
3C8
330
1F
100
AcDbEntity
  8
0
  6
SLD-Durchgehend
 62
     7
370
    15
100
AcDbCircle
 10
315.3676341487
 20
75.8744471025
 30
0.0
 40
1.074175264304948
100
AcDbArc
 50
158.9150567413
 51
289.6950104968
  0
LINE
  5
3C9
330
1F
100
AcDbEntity
  8
0
  6
SLD-Durchgehend
 62
     7
370
    15
100
AcDbLine
 10
291.0385773361
 20
92.8916433945
 30
0.0
 11
287.0716665302
 21
89.0198168366
 31
0.0
  0
LINE
  5
3CA
330
1F
100
AcDbEntity
  8
0
  6
SLD-Durchgehend
 62
     7
370
    15
100
AcDbLine
 10
291.0385773361
 20
92.8916433945
 30
0.0
 11
301.2093857354
 21
90.1274356056
 31
0.0
  0
LWPOLYLINE
  5
3CB
330
1F
100
AcDbEntity
  8
0
  6
SLD-Durchgehend
 62
     7
370
    15
100
AcDbPolyline
 90
       14
 70
   128
 43
0.0
 10
301.2093857354
 20
90.1274356056
 10
302.222859671
 20
89.9281438362
 10
303.2994860635
 20
89.8595605549
 10
304.3766953006
 20
89.9256715729
 10
305.3918838968
 20
90.122634758
 10
306.286052781
 20
90.4390033259
 10
307.0072361078
 20
90.8563910854
 10
307.5135213237
 20
91.3505409769
 10
307.7754849721
 20
91.8927348051
 10
307.777902678
 20
92.4514622353
 10
307.5206339332
 20
92.9942520602
 10
307.018630262
 20
93.4895593083
 10
306.301066293
 20
93.9085985225
 10
305.4096442358
 20
94.2270166668
  0
LINE
  5
3CC
330
1F
100
AcDbEntity
  8
0
  6
SLD-Durchgehend
 62
     7
370
    15
100
AcDbLine
 10
305.4096442358
 20
94.2270166668
 30
0.0
 11
295.2388358365
 21
96.9912244557
 31
0.0
  0
LINE
  5
3CD
330
1F
100
AcDbEntity
  8
0
  6
SLD-Durchgehend
 62
     7
370
    15
100
AcDbLine
 10
299.2057466424
 20
100.8630510135
 30
0.0
 11
295.2388358365
 21
96.9912244557
 31
0.0
  0
LINE
  5
3CE
330
1F
100
AcDbEntity
  8
0
  6
SLD-Durchgehend
 62
     7
370
    15
100
AcDbLine
 10
299.2057466424
 20
100.8630510135
 30
0.0
 11
308.2977014505
 21
98.3920525137
 31
0.0
  0
LINE
  5
3CF
330
1F
100
AcDbEntity
  8
0
  6
SLD-Durchgehend
 62
     7
370
    15
100
AcDbLine
 10
315.2743062527
 20
68.0688505087
 30
0.0
 11
314.9308373631
 21
67.7336143429
 31
0.0
  0
LINE
  5
3D0
330
1F
100
AcDbEntity
  8
0
  6
SLD-Durchgehend
 62
     7
370
    15
100
AcDbLine
 10
295.2388358365
 20
91.7501031347
 30
0.0
 11
295.2388358365
 21
96.9912244557
 31
0.0
  0
LWPOLYLINE
  5
3D1
330
1F
100
AcDbEntity
  8
0
  6
SLD-Durchgehend
 62
     8
370
     0
100
AcDbPolyline
 90
       13
 70
   128
 43
0.0
 10
325.646074869
 20
157.5573342264
 10
324.9540693258
 20
157.2239276555
 10
324.0100236837
 20
156.63111869
 10
323.262836613
 20
155.96799136
 10
322.7318598664
 20
155.2517203153
 10
322.4308454627
 20
154.5008565995
 10
322.3675895168
 20
153.7348471885
 10
322.5437303245
 20
152.9735313237
 10
322.9547059314
 20
152.2366266861
 10
323.5898722852
 20
151.5432187187
 10
324.432778911
 20
150.9112663236
 10
325.4615949698
 20
150.357136736
 10
325.9144483562
 20
150.1625401702
  0
LWPOLYLINE
  5
3D2
330
1F
100
AcDbEntity
  8
0
  6
SLD-Durchgehend
 62
     8
370
     0
100
AcDbPolyline
 90
       13
 70
   128
 43
0.0
 10
337.7131359503
 20
150.3357149433
 10
337.7293336809
 20
150.3430553087
 10
338.7629351166
 20
150.8948175667
 10
339.6113024668
 20
151.5248286462
 10
340.252463463
 20
152.2167715913
 10
340.6698123721
 20
152.9527254432
 10
340.8525400766
 20
153.7136293836
 10
340.7959140248
 20
154.4797764002
 10
340.5014008019
 20
155.2313236877
 10
339.9766281455
 20
155.9488065661
 10
339.2351873918
 20
156.6136426057
 10
338.2962814669
 20
157.2086129024
 10
337.7581957325
 20
157.4759169646
  0
LWPOLYLINE
  5
3D3
330
1F
100
AcDbEntity
  8
0
  6
SLD-Durchgehend
 62
     8
370
     0
100
AcDbPolyline
 90
       22
 70
   128
 43
0.0
 10
341.3608948793
 20
153.4874852129
 10
341.3598963757
 20
153.4156197303
 10
341.2180420145
 20
152.631030332
 10
340.8396278066
 20
151.8675296953
 10
340.2339715657
 20
151.1439177397
 10
339.4159865583
 20
150.4780121932
 10
338.4058142902
 20
149.8862098602
 10
337.2283285552
 20
149.3830828785
 10
335.9125229598
 20
148.9810199039
 10
334.4907970049
 20
148.6899210613
 10
332.9981583017
 20
148.5169541703
 10
331.4713605691
 20
148.4663782499
 10
329.9479986342
 20
148.539438647
 10
328.4655827237
 20
148.7343363721
 10
327.0606148372
 20
149.0462723965
 10
325.7676899469
 20
149.46756582
 10
324.6186441544
 20
149.9878430003
 10
323.6417707808
 20
150.5942929865
 10
322.8611236905
 20
151.2719829673
 10
322.2959250056
 20
152.0042259662
 10
321.9600917937
 20
152.7729917304
 10
321.8703678179
 20
153.26617906
  0
LWPOLYLINE
  5
3D4
330
1F
100
AcDbEntity
  8
0
  6
SLD-Durchgehend
 62
     8
370
     0
100
AcDbPolyline
 90
       22
 70
   128
 43
0.0
 10
321.8790366599
 20
126.6091064389
 10
321.9600917937
 20
126.2008054086
 10
322.2959250056
 20
125.4320396444
 10
322.8611236905
 20
124.6997966455
 10
323.6417707808
 20
124.0221066647
 10
324.6186441544
 20
123.4156566785
 10
325.7676899469
 20
122.8953794982
 10
327.0606148372
 20
122.4740860748
 10
328.4655827237
 20
122.1621500503
 10
329.9479986342
 20
121.9672523252
 10
331.4713605691
 20
121.8941919281
 10
332.9981583017
 20
121.9447678486
 10
334.4907970049
 20
122.1177347395
 10
335.9125229598
 20
122.4088335821
 10
337.2283285552
 20
122.8108965567
 10
338.4058142902
 20
123.3140235385
 10
339.4159865583
 20
123.9058258714
 10
340.2339715657
 20
124.5717314179
 10
340.8396278066
 20
125.2953433735
 10
341.2180420145
 20
126.0588440102
 10
341.3598963757
 20
126.8434334086
 10
341.3608948793
 20
126.9152988911
  0
LINE
  5
3D5
330
1F
100
AcDbEntity
  8
0
  6
SLD-Durchgehend
 62
     8
370
     0
100
AcDbLine
 10
339.0340838599
 20
154.6096137409
 30
0.0
 11
339.3804629834
 21
154.3261024055
 31
0.0
  0
LINE
  5
3D6
330
1F
100
AcDbEntity
  8
0
  6
SLD-Durchgehend
 62
     8
370
     0
100
AcDbLine
 10
323.803287777
 20
154.0207006398
 30
0.0
 11
324.1877058987
 21
154.3959045115
 31
0.0
  0
ARC
  5
3D7
330
1F
100
AcDbEntity
  8
0
  6
SLD-Durchgehend
 62
     8
370
     0
100
AcDbCircle
 10
324.0120615886
 20
153.7773927528
 30
0.0
 40
0.3206013604548472
100
AcDbArc
 50
130.6317154106
 51
237.8223937649
  0
LINE
  5
3D8
330
1F
100
AcDbEntity
  8
0
  6
SLD-Durchgehend
 62
     8
370
     0
100
AcDbLine
 10
327.5311552547
 20
150.4859104666
 30
0.0
 11
323.8413267752
 21
153.5060353209
 31
0.0
  0
ARC
  5
3D9
330
1F
100
AcDbEntity
  8
0
  6
SLD-Durchgehend
 62
     8
370
     0
100
AcDbCircle
 10
328.3236213553
 20
151.6544863659
 30
0.0
 40
1.411939146295789
100
AcDbArc
 50
235.8569643362
 51
273.7340093465
  0
LINE
  5
3DA
330
1F
100
AcDbEntity
  8
0
  6
SLD-Durchgehend
 62
     8
370
     0
100
AcDbLine
 10
335.338762357
 20
150.38127869
 30
0.0
 11
328.4155733764
 21
150.245544572
 31
0.0
  0
ARC
  5
3DB
330
1F
100
AcDbEntity
  8
0
  6
SLD-Durchgehend
 62
     8
370
     0
100
AcDbCircle
 10
335.3874250331
 20
151.6740696801
 30
0.0
 40
1.293706535559291
100
AcDbArc
 50
267.8443149248
 51
308.0692275463
  0
LINE
  5
3DC
330
1F
100
AcDbEntity
  8
0
  6
SLD-Durchgehend
 62
     8
370
     0
100
AcDbLine
 10
339.4185019816
 20
153.8114370866
 30
0.0
 11
336.1851414805
 21
150.6555781142
 31
0.0
  0
ARC
  5
3DD
330
1F
100
AcDbEntity
  8
0
  6
SLD-Durchgehend
 62
     8
370
     0
100
AcDbCircle
 10
339.20972817
 20
154.0547449737
 30
0.0
 40
0.3206013604549077
100
AcDbArc
 50
310.6317154106
 51
57.8223937649
  0
LINE
  5
3DE
330
1F
100
AcDbEntity
  8
0
  6
SLD-Durchgehend
 62
     8
370
     0
100
AcDbLine
 10
335.3197428579
 20
152.7815296012
 30
0.0
 11
328.3965538773
 21
152.6457954832
 31
0.0
  0
ARC
  5
3DF
330
1F
100
AcDbEntity
  8
0
  6
SLD-Durchgehend
 62
     8
370
     0
100
AcDbCircle
 10
316.8930677677
 20
152.6700417633
 30
0.0
 40
11.50351166182914
100
AcDbArc
 50
359.8792359593
 51
3.2974135805
  0
LINE
  5
3E0
330
1F
100
AcDbEntity
  8
0
  6
SLD-Durchgehend
 62
     8
370
     0
100
AcDbLine
 10
328.3775343782
 20
153.331711793
 30
0.0
 11
335.3007233588
 21
153.467445911
 31
0.0
  0
ARC
  5
3E1
330
1F
100
AcDbEntity
  8
0
  6
SLD-Durchgehend
 62
     8
370
     0
100
AcDbCircle
 10
323.8162567484
 20
152.8057758814
 30
0.0
 40
11.5035116617748
100
AcDbArc
 50
359.8792359593
 51
3.2974135805
  0
LINE
  5
3E2
330
1F
100
AcDbEntity
  8
0
  6
SLD-Durchgehend
 62
     8
370
     0
100
AcDbLine
 10
335.3197428579
 20
151.0671949998
 30
0.0
 11
335.3197428579
 21
152.7815296012
 31
0.0
  0
LINE
  5
3E3
330
1F
100
AcDbEntity
  8
0
  6
SLD-Durchgehend
 62
     8
370
     0
100
AcDbLine
 10
328.3965538773
 20
150.9314608818
 30
0.0
 11
335.3197428579
 21
151.0671949998
 31
0.0
  0
LINE
  5
3E4
330
1F
100
AcDbEntity
  8
0
  6
SLD-Durchgehend
 62
     8
370
     0
100
AcDbLine
 10
328.3965538773
 20
152.6457954832
 30
0.0
 11
328.3965538773
 21
150.9314608818
 31
0.0
  0
LINE
  5
3E5
330
1F
100
AcDbEntity
  8
0
  6
SLD-Durchgehend
 62
     8
370
     0
100
AcDbLine
 10
324.6877058987
 20
156.3518366472
 30
0.0
 11
328.3775343782
 21
153.331711793
 31
0.0
  0
LINE
  5
3E6
330
1F
100
AcDbEntity
  8
0
  6
SLD-Durchgehend
 62
     8
370
     0
100
AcDbLine
 10
327.9210663998
 20
159.5076956196
 30
0.0
 11
324.6877058987
 21
156.3518366472
 31
0.0
  0
LINE
  5
3E7
330
1F
100
AcDbEntity
  8
0
  6
SLD-Durchgehend
 62
     8
370
     0
100
AcDbLine
 10
334.8442553804
 20
159.6434297377
 30
0.0
 11
327.9210663998
 21
159.5076956196
 31
0.0
  0
LINE
  5
3E8
330
1F
100
AcDbEntity
  8
0
  6
SLD-Durchgehend
 62
     8
370
     0
100
AcDbLine
 10
338.5340838599
 20
156.6233048834
 30
0.0
 11
334.8442553804
 21
159.6434297377
 31
0.0
  0
LINE
  5
3E9
330
1F
100
AcDbEntity
  8
0
  6
SLD-Durchgehend
 62
     8
370
     0
100
AcDbLine
 10
335.3007233588
 20
153.467445911
 30
0.0
 11
338.5340838599
 21
156.6233048834
 31
0.0
  0
ARC
  5
3EA
330
1F
100
AcDbEntity
  8
0
  6
SLD-Durchgehend
 62
     8
370
     0
100
AcDbCircle
 10
339.9000399868
 20
150.9072146016
 30
0.0
 40
11.50351166181272
100
AcDbArc
 50
179.8792359593
 51
183.2974135805
  0
ARC
  5
3EB
330
1F
100
AcDbEntity
  8
0
  6
SLD-Durchgehend
 62
     8
370
     0
100
AcDbCircle
 10
346.8232289674
 20
151.0429487197
 30
0.0
 40
11.50351166179407
100
AcDbArc
 50
179.8792359593
 51
183.2974135805
  0
ARC
  5
3EC
330
1F
100
AcDbEntity
  8
0
  6
SLD-Durchgehend
 62
     8
370
     0
100
AcDbCircle
 10
328.5865631568
 20
152.7342030708
 30
0.0
 40
0.6330163531866676
100
AcDbArc
 50
109.2815651499
 51
177.1227292512
  0
ARC
  5
3ED
330
1F
100
AcDbEntity
  8
0
  6
SLD-Durchgehend
 62
     8
370
     0
100
AcDbCircle
 10
328.3505778667
 20
153.3502663801
 30
0.0
 40
0.705969573148232
100
AcDbArc
 50
235.8569643362
 51
273.7340093465
  0
LINE
  5
3EE
330
1F
100
AcDbEntity
  8
0
  6
SLD-Durchgehend
 62
     8
370
     0
100
AcDbLine
 10
327.9543448164
 20
152.7659784305
 30
0.0
 11
324.2645163369
 21
155.7861032848
 31
0.0
  0
ARC
  5
3EF
330
1F
100
AcDbEntity
  8
0
  6
SLD-Durchgehend
 62
     8
370
     0
100
AcDbCircle
 10
324.8967346773
 20
155.754327925
 30
0.0
 40
0.6330163531865135
100
AcDbArc
 50
109.2815651499
 51
177.1227292513
  0
ARC
  5
3F0
330
1F
100
AcDbEntity
  8
0
  6
SLD-Durchgehend
 62
     8
370
     0
100
AcDbCircle
 10
335.1367463222
 20
152.8827548077
 30
0.0
 40
0.6072496643082266
100
AcDbArc
 50
3.391562315
 51
74.3338098233
  0
ARC
  5
3F1
330
1F
100
AcDbEntity
  8
0
  6
SLD-Durchgehend
 62
     8
370
     0
100
AcDbCircle
 10
335.344074196
 20
153.4279250963
 30
0.0
 40
0.6468532677799085
100
AcDbArc
 50
267.8443149248
 51
308.0692275463
  0
LINE
  5
3F2
330
1F
100
AcDbEntity
  8
0
  6
SLD-Durchgehend
 62
     8
370
     0
100
AcDbLine
 10
327.9543448164
 20
151.0516438291
 30
0.0
 11
327.9543448164
 21
152.7659784305
 31
0.0
  0
ARC
  5
3F3
330
1F
100
AcDbEntity
  8
0
  6
SLD-Durchgehend
 62
     8
370
     0
100
AcDbCircle
 10
328.3505778667
 20
151.6359317787
 30
0.0
 40
0.7059695731481416
100
AcDbArc
 50
235.8569643362
 51
273.7340093465
  0
LINE
  5
3F4
330
1F
100
AcDbEntity
  8
0
  6
SLD-Durchgehend
 62
     8
370
     0
100
AcDbLine
 10
335.7429324196
 20
152.9186793133
 30
0.0
 11
335.7429324196
 21
151.2043447119
 31
0.0
  0
ARC
  5
3F5
330
1F
100
AcDbEntity
  8
0
  6
SLD-Durchgehend
 62
     8
370
     0
100
AcDbCircle
 10
335.344074196
 20
151.7135904949
 30
0.0
 40
0.6468532677801313
100
AcDbArc
 50
267.8443149248
 51
308.0692275463
  0
ARC
  5
3F6
330
1F
100
AcDbEntity
  8
0
  6
SLD-Durchgehend
 62
     8
370
     0
100
AcDbCircle
 10
338.3701068234
 20
156.0386137801
 30
0.0
 40
0.6072496643083685
100
AcDbArc
 50
3.391562315
 51
74.3338098233
  0
LINE
  5
3F7
330
1F
100
AcDbEntity
  8
0
  6
SLD-Durchgehend
 62
     8
370
     0
100
AcDbLine
 10
338.9762929208
 20
156.0745382857
 30
0.0
 11
335.7429324196
 21
152.9186793133
 31
0.0
  0
LINE
  5
3F8
330
1F
100
AcDbEntity
  8
0
  6
SLD-Durchgehend
 62
     8
370
     0
100
AcDbLine
 10
324.2645163369
 20
154.0717686834
 30
0.0
 11
327.9543448164
 21
151.0516438291
 31
0.0
  0
LINE
  5
3F9
330
1F
100
AcDbEntity
  8
0
  6
SLD-Durchgehend
 62
     8
370
     0
100
AcDbLine
 10
324.2645163369
 20
155.7861032848
 30
0.0
 11
324.2645163369
 21
154.0717686834
 31
0.0
  0
LINE
  5
3FA
330
1F
100
AcDbEntity
  8
0
  6
SLD-Durchgehend
 62
     8
370
     0
100
AcDbLine
 10
338.9762929208
 20
154.3602036843
 30
0.0
 11
338.9762929208
 21
156.0745382857
 31
0.0
  0
LINE
  5
3FB
330
1F
100
AcDbEntity
  8
0
  6
SLD-Durchgehend
 62
     8
370
     0
100
AcDbLine
 10
335.7429324196
 20
151.2043447119
 30
0.0
 11
338.9762929208
 21
154.3602036843
 31
0.0
  0
ARC
  5
3FC
330
1F
100
AcDbEntity
  8
0
  6
SLD-Durchgehend
 62
     8
370
     0
100
AcDbCircle
 10
327.322126476
 20
151.0834191888
 30
0.0
 40
0.6330163531865671
100
AcDbArc
 50
289.2815651499
 51
357.1227292512
  0
ARC
  5
3FD
330
1F
100
AcDbEntity
  8
0
  6
SLD-Durchgehend
 62
     8
370
     0
100
AcDbCircle
 10
336.349118517
 20
151.2402692175
 30
0.0
 40
0.6072496643082248
100
AcDbArc
 50
183.391562315
 51
254.3338098233
  0
ARC
  5
3FE
330
1F
100
AcDbEntity
  8
0
  6
SLD-Durchgehend
 62
     8
370
     0
100
AcDbCircle
 10
323.6322979965
 20
154.1035440431
 30
0.0
 40
0.6330163531866704
100
AcDbArc
 50
289.2815651499
 51
357.1227292512
  0
ARC
  5
3FF
330
1F
100
AcDbEntity
  8
0
  6
SLD-Durchgehend
 62
     8
370
     0
100
AcDbCircle
 10
339.5824790182
 20
154.3961281899
 30
0.0
 40
0.607249664308522
100
AcDbArc
 50
183.3915623151
 51
254.3338098233
  0
ARC
  5
400
330
1F
100
AcDbEntity
  8
0
  6
SLD-Durchgehend
 62
     8
370
     0
100
AcDbCircle
 10
324.5746926738
 20
156.012426218
 30
0.0
 40
0.3577309442426376
100
AcDbArc
 50
71.583829316
 51
131.326192755
  0
ARC
  5
401
330
1F
100
AcDbEntity
  8
0
  6
SLD-Durchgehend
 62
     8
370
     0
100
AcDbCircle
 10
324.3685260322
 20
155.9344373458
 30
0.0
 40
0.1811656986477835
100
AcDbArc
 50
183.5394323834
 51
234.9624178367
  0
ARC
  5
402
330
1F
100
AcDbEntity
  8
0
  6
SLD-Durchgehend
 62
     8
370
     0
100
AcDbCircle
 10
327.8080531749
 20
159.1682851904
 30
0.0
 40
0.3577309442427994
100
AcDbArc
 50
71.583829316
 51
131.326192755
  0
ARC
  5
403
330
1F
100
AcDbEntity
  8
0
  6
SLD-Durchgehend
 62
     8
370
     0
100
AcDbCircle
 10
324.3647343619
 20
154.2179792265
 30
0.0
 40
0.1772601913897042
100
AcDbArc
 50
182.9300076592
 51
235.5718425608
  0
ARC
  5
404
330
1F
100
AcDbEntity
  8
0
  6
SLD-Durchgehend
 62
     8
370
     0
100
AcDbCircle
 10
338.6555564713
 20
156.3222001792
 30
0.0
 40
0.3246839050854483
100
AcDbArc
 50
53.0396771641
 51
111.9702895085
  0
ARC
  5
405
330
1F
100
AcDbEntity
  8
0
  6
SLD-Durchgehend
 62
     8
370
     0
100
AcDbCircle
 10
338.8654880663
 20
156.2018057865
 30
0.0
 40
0.168744577726695
100
AcDbArc
 50
311.0443075172
 51
357.5937931884
  0
ARC
  5
406
330
1F
100
AcDbEntity
  8
0
  6
SLD-Durchgehend
 62
     8
370
     0
100
AcDbCircle
 10
334.9657279918
 20
159.3423250334
 30
0.0
 40
0.3246839050855172
100
AcDbArc
 50
53.0396771641
 51
111.9702895086
  0
ARC
  5
407
330
1F
100
AcDbEntity
  8
0
  6
SLD-Durchgehend
 62
     8
370
     0
100
AcDbCircle
 10
338.8654880663
 20
154.487471185
 30
0.0
 40
0.168744577726579
100
AcDbArc
 50
311.0443075172
 51
357.5937931884
  0
ARC
  5
408
330
1F
100
AcDbEntity
  8
0
  6
SLD-Durchgehend
 62
     8
370
     0
100
AcDbCircle
 10
323.9174330343
 20
154.3545245025
 30
0.0
 40
0.3527995338413569
100
AcDbArc
 50
251.12277008
 51
311.7872519911
  0
ARC
  5
409
330
1F
100
AcDbEntity
  8
0
  6
SLD-Durchgehend
 62
     8
370
     0
100
AcDbCircle
 10
339.2598197975
 20
154.6323560691
 30
0.0
 40
0.3291596645959219
100
AcDbArc
 50
232.9479695351
 51
291.50107856
  0
ARC
  5
40A
330
1F
100
AcDbEntity
  8
0
  6
SLD-Durchgehend
 62
     8
370
     0
100
AcDbCircle
 10
327.710279774
 20
159.5150624703
 30
0.0
 40
0.210915319730506
100
AcDbArc
 50
357.9983657605
 51
17.6510176955
  0
ARC
  5
40B
330
1F
100
AcDbEntity
  8
0
  6
SLD-Durchgehend
 62
     8
370
     0
100
AcDbCircle
 10
334.6334687547
 20
159.6507965884
 30
0.0
 40
0.2109153197366125
100
AcDbArc
 50
357.9983657607
 51
17.6510176952
  0
LWPOLYLINE
  5
40C
330
1F
100
AcDbEntity
  8
0
  6
SLD-Durchgehend
 62
     8
370
     0
100
AcDbPolyline
 90
       35
 70
   128
 43
0.0
 10
328.6501264993
 20
108.4792049064
 10
327.2989549888
 20
107.6963346498
 10
325.9817143628
 20
106.6675169145
 10
324.8298797823
 20
105.4617199981
 10
323.8574329587
 20
104.0935806418
 10
323.0761780792
 20
102.5797062041
 10
322.4955985197
 20
100.9384730699
 10
322.1227417296
 20
99.1898035861
 10
321.9621336852
 20
97.3549242315
 10
322.0157239507
 20
95.4561079559
 10
322.2828620127
 20
93.5164038166
 10
322.7603051771
 20
91.5593571943
 10
323.4422579306
 20
89.608723984
 10
324.3204422907
 20
87.6881822303
 10
325.3841982887
 20
85.8210447085
 10
326.6206133679
 20
84.0299759389
 10
328.0146791242
 20
82.3367170701
 10
329.5494734876
 20
80.7618219709
 10
331.2063661337
 20
79.3244077346
 10
332.9652446303
 20
78.0419226227
 10
334.8047585751
 20
76.9299342672
 10
336.7025787605
 20
76.0019407004
 10
338.6356682206
 20
75.2692065071
 10
340.5805618677
 20
74.7406260878
 10
342.5136513277
 20
74.4226156929
 10
344.4114715132
 20
74.3190355376
 10
346.2509854579
 20
74.4311429447
 10
348.0098639545
 20
74.7575770823
 10
349.6667566006
 20
75.294375482
 10
351.2015509641
 20
76.0350221385
 10
352.5956167203
 20
76.9705266047
 10
353.8320317995
 20
78.0895331236
 10
354.8957877976
 20
79.3784584719
 10
355.7739721576
 20
80.8216568419
 10
355.8719849719
 20
81.0157831747
  0
LWPOLYLINE
  5
40D
330
1F
100
AcDbEntity
  8
0
  6
SLD-Durchgehend
 62
     8
370
     0
100
AcDbPolyline
 90
       39
 70
   128
 43
0.0
 10
333.107717631
 20
109.3385183278
 10
332.3448726722
 20
109.2118146257
 10
330.6649133214
 20
108.7685193502
 10
329.0994740591
 20
108.1174580421
 10
327.6682411923
 20
107.2668181751
 10
326.3892133046
 20
106.227297039
 10
325.2784749141
 20
105.0119672154
 10
324.3499942002
 20
103.6361121817
 10
323.6154473468
 20
102.1170341135
 10
323.0840717067
 20
100.4738362988
 10
322.7625496369
 20
98.7271829035
 10
322.6549244639
 20
96.8990391075
 10
322.7625496369
 20
95.0123948797
 10
323.0840717067
 20
93.090975866
 10
323.6154473468
 20
91.1589450253
 10
324.3499942002
 20
89.2405987665
 10
325.2784749141
 20
87.3600614067
 10
326.3892133046
 20
85.5409817943
 10
327.6682411923
 20
83.8062359111
 10
329.0994740591
 20
82.1776391929
 10
330.6649133214
 20
80.6756721884
 10
332.3448726722
 20
79.3192230042
 10
334.1182256479
 20
78.1253497758
 10
335.962671306
 20
77.1090661518
 10
337.855014672
 20
76.2831524883
 10
339.7714584303
 20
75.6579951289
 10
341.6879021885
 20
75.2414557901
 10
343.5802455545
 20
75.0387726959
 10
345.4246912126
 20
75.0524947036
 10
347.1980441883
 20
75.2824492511
 10
348.8780035391
 20
75.7257445266
 10
350.4434428014
 20
76.3768058346
 10
351.8746756683
 20
77.2274457017
 10
353.1537035559
 20
78.2669668377
 10
354.2644419465
 20
79.4822966614
 10
355.1929226603
 20
80.858151695
 10
355.9274695137
 20
82.3772297633
 10
356.4588451538
 20
84.020427578
 10
356.6961767868
 20
85.1707742096
  0
LWPOLYLINE
  5
40E
330
1F
100
AcDbEntity
  8
0
  6
SLD-Durchgehend
 62
     8
370
     0
100
AcDbPolyline
 90
       52
 70
   128
 43
0.0
 10
339.7714584303
 20
105.6229588206
 10
338.0754688486
 20
105.9825104977
 10
336.4051887401
 20
106.133847837
 10
334.7859378488
 20
106.0746767186
 10
333.2422623675
 20
105.8058941164
 10
331.7975628431
 20
105.3315745005
 10
330.4737394476
 20
104.658908073
 10
329.2908599943
 20
103.7980917711
 10
328.26685573
 20
102.7621746926
 10
327.4172495154
 20
101.5668602844
 10
326.7549205148
 20
100.2302682944
 10
326.2899089607
 20
98.7726600949
 10
326.0292639542
 20
97.2161315402
 10
325.976936608
 20
95.5842780168
 10
326.1337201512
 20
93.9018367604
 10
326.4972379052
 20
92.1943118657
 10
327.0619793113
 20
90.4875876694
 10
327.8193834656
 20
88.8075363707
 10
328.757968893
 20
87.1796258346
 10
329.8635075953
 20
85.6285335256
 10
331.1192407327
 20
84.1777724218
 10
332.5061326707
 20
82.8493345829
 10
334.0031595414
 20
81.6633577723
 10
335.5876279434
 20
80.6378201896
 10
337.2355189508
 20
79.7882679391
 10
338.9218522157
 20
79.1275793669
 10
340.6210646448
 20
78.6657698384
 10
342.3073979097
 20
78.4098399152
 10
343.9552889171
 20
78.3636692342
 10
345.5397573191
 20
78.5279576957
 10
347.0367841898
 20
78.9002148542
 10
348.4236761279
 20
79.4747976706
 10
349.6794092652
 20
80.2429960551
 10
350.7849479675
 20
81.1931649033
 10
351.7235333949
 20
82.3109006239
 10
352.4809375492
 20
83.5792594828
 10
353.0456789553
 20
84.9790144525
 10
353.4091967093
 20
86.4889466747
 10
353.5659802525
 20
88.0861671159
 10
353.5136529063
 20
89.7464635423
 10
353.2530078998
 20
91.4446675526
 10
352.7879963457
 20
93.155036105
 10
352.1256673451
 20
94.8516417556
 10
351.2760611306
 20
96.5087656924
 10
350.2520568662
 20
98.1012876055
 10
349.0691774129
 20
99.6050664861
 10
347.7453540174
 20
100.9973065792
 10
346.300654493
 20
102.2569029442
 10
344.7569790117
 20
103.3647613841
 10
343.1377281204
 20
104.3040878943
 10
341.467448012
 20
105.0606432425
 10
339.7714584303
 20
105.6229588206
  0
LWPOLYLINE
  5
40F
330
1F
100
AcDbEntity
  8
0
  6
SLD-Durchgehend
 62
     8
370
     0
100
AcDbPolyline
 90
       32
 70
   128
 43
0.0
 10
337.6713291801
 20
95.340345212
 10
336.6031368259
 20
95.5253794152
 10
335.5786763922
 20
95.4922831165
 10
334.6398894095
 20
95.242411282
 10
333.8252099272
 20
94.7859936941
 10
333.167991019
 20
94.1417161425
 10
332.6951393042
 20
93.3359554258
 10
332.4260133876
 20
92.4016994824
 10
332.3716313159
 20
91.3771968604
 10
332.5342194974
 20
90.3043908176
 10
332.9071215529
 20
89.2272021594
 10
333.4750708285
 20
88.189731116
 10
334.214815414
 20
87.2344518738
 10
335.0960700792
 20
86.4004736772
 10
336.0827561546
 20
85.7219396917
 10
337.1344785962
 20
85.2266291782
 10
338.2081797639
 20
84.9348202075
 10
339.2599022056
 20
84.858459473
 10
340.246588281
 20
85.0006731922
 10
341.1278429462
 20
85.3556391188
 10
341.8675875317
 20
85.9088249059
 10
342.4355368072
 20
86.6375830625
 10
342.8084388627
 20
87.512078144
 10
342.9710270442
 20
88.4965082191
 10
342.9166449725
 20
89.5505706047
 10
342.6475190559
 20
90.631111863
 10
342.1746673412
 20
91.6938945078
 10
341.517448433
 20
92.695408093
 10
340.7027689507
 20
93.5946505345
 10
339.763981968
 20
94.3548067412
 10
338.7395215343
 20
94.9447558287
 10
337.6713291801
 20
95.340345212
  0
LWPOLYLINE
  5
410
330
1F
100
AcDbEntity
  8
0
  6
SLD-Durchgehend
 62
     8
370
     0
100
AcDbPolyline
 90
       12
 70
   128
 43
0.0
 10
339.6538511922
 20
105.0471324585
 10
337.9837392171
 20
105.3991961401
 10
336.3399659055
 20
105.542033633
 10
334.7484545445
 20
105.4733923046
 10
333.2343042189
 20
105.1943546697
 10
331.821393984
 20
104.7093213184
 10
330.5320062781
 20
104.0259415164
 10
329.3864755157
 20
103.1549925715
 10
328.4028674011
 20
102.1102098688
 10
327.5966940219
 20
100.9080702556
 10
326.9806692139
 20
99.5675321918
 10
326.7785332281
 20
98.959681845
  0
LWPOLYLINE
  5
411
330
1F
100
AcDbEntity
  8
0
  6
SLD-Durchgehend
 62
     8
370
     0
100
AcDbPolyline
 90
       22
 70
   128
 43
0.0
 10
346.2942532685
 20
79.1306480237
 10
347.4863084005
 20
79.555366019
 10
348.7756961064
 20
80.2387458209
 10
349.9212268688
 20
81.1096947658
 10
350.9048349834
 20
82.1544774686
 10
351.7110083626
 20
83.3566170817
 10
352.3270331706
 20
84.6971551456
 10
352.7431943282
 20
86.154950574
 10
352.9529287254
 20
87.7070130622
 10
352.9529287254
 20
89.3288656576
 10
352.7431943282
 20
90.994930776
 10
352.3270331706
 20
92.6789335752
 10
351.7110083626
 20
94.354316325
 10
350.9048349834
 20
95.9946572387
 10
349.9212268688
 20
97.5740871602
 10
348.7756961064
 20
99.0676975361
 10
347.4863084005
 20
100.4519332385
 10
346.0733981656
 20
101.7049640435
 10
344.55924784
 20
102.8070289067
 10
342.967736479
 20
103.7407476071
 10
341.3239631674
 20
104.4913948428
 10
339.6538511922
 20
105.0471324585
  0
LINE
  5
412
330
1F
100
AcDbEntity
  8
0
  6
SLD-Durchgehend
 62
     8
370
     0
100
AcDbLine
 10
365.7848793595
 20
69.7701704615
 30
0.0
 11
377.9189594717
 21
81.6134046384
 31
0.0
  0
LINE
  5
413
330
1F
100
AcDbEntity
  8
0
  6
SLD-Durchgehend
 62
     8
370
     0
100
AcDbLine
 10
380.1300047759
 20
78.86957165
 30
0.0
 11
367.9959246637
 21
67.0263374731
 31
0.0
  0
LINE
  5
414
330
1F
100
AcDbEntity
  8
0
  6
SLD-Durchgehend
 62
     8
370
     0
100
AcDbLine
 10
385.0072751868
 20
67.3529648243
 30
0.0
 11
385.0072751868
 21
72.5940861453
 31
0.0
  0
LINE
  5
415
330
1F
100
AcDbEntity
  8
0
  6
SLD-Durchgehend
 62
     8
370
     0
100
AcDbLine
 10
306.0866561463
 20
83.8519501009
 30
0.0
 11
308.2977014505
 21
86.0099981005
 31
0.0
  0
LINE
  5
416
330
1F
100
AcDbEntity
  8
0
  6
SLD-Durchgehend
 62
     8
370
     0
100
AcDbLine
 10
305.4096442358
 20
90.1274356056
 30
0.0
 11
305.4096442358
 21
94.2270166668
 31
0.0
  0
ENDSEC
  0
SECTION
  2
OBJECTS
  0
DICTIONARY
  5
C
330
0
100
AcDbDictionary
281
     1
  3
ACAD_GROUP
350
D
  3
ACAD_LAYOUT
350
1A
  3
ACAD_MLINESTYLE
350
17
  3
ACAD_PLOTSETTINGS
350
19
  3
ACAD_PLOTSTYLENAME
350
E
  3
ACAD_SCALELIST
350
47
  0
DICTIONARY
  5
D
102
{ACAD_REACTORS
330
C
102
}
330
C
100
AcDbDictionary
281
     1
  0
DICTIONARY
  5
1A
102
{ACAD_REACTORS
330
C
102
}
330
C
100
AcDbDictionary
281
     1
  3
Layout1
350
1E
  3
Layout2
350
26
  3
Model
350
22
  0
DICTIONARY
  5
17
102
{ACAD_REACTORS
330
C
102
}
330
C
100
AcDbDictionary
281
     1
  3
Standard
350
18
  0
DICTIONARY
  5
19
102
{ACAD_REACTORS
330
C
102
}
330
C
100
AcDbDictionary
281
     1
  0
ACDBDICTIONARYWDFLT
  5
E
102
{ACAD_REACTORS
330
C
102
}
330
C
100
AcDbDictionary
281
     1
  3
Normal
350
F
100
AcDbDictionaryWithDefault
340
F
  0
DICTIONARY
  5
47
102
{ACAD_REACTORS
330
C
102
}
330
C
100
AcDbDictionary
281
     1
  3
A0
350
48
  3
A1
350
49
  3
A2
350
4A
  3
A3
350
4B
  3
A4
350
4C
  3
A5
350
4D
  3
A6
350
4E
  3
A7
350
4F
  3
A8
350
50
  3
A9
350
51
  3
B0
350
52
  3
B1
350
53
  3
B2
350
54
  3
B3
350
55
  3
B4
350
56
  3
B5
350
57
  3
B6
350
58
  3
B7
350
59
  3
B8
350
5A
  3
B9
350
5B
  3
C0
350
5C
  3
C1
350
5D
  3
C2
350
5E
  3
C3
350
5F
  3
C4
350
60
  3
C5
350
61
  3
C6
350
62
  3
C7
350
63
  3
C8
350
64
  3
C9
350
65
  3
D0
350
66
  3
D1
350
67
  3
D2
350
68
  0
LAYOUT
  5
1E
102
{ACAD_REACTORS
330
1A
102
}
330
1A
100
AcDbPlotSettings
  1

  2
none_device
  4

  6

 40
0.0
 41
0.0
 42
0.0
 43
0.0
 44
0.0
 45
0.0
 46
0.0
 47
0.0
 48
0.0
 49
0.0
140
0.0
141
0.0
142
1.0
143
1.0
 70
   688
 72
     1
 73
     0
 74
     5
  7

 75
    16
147
1.0
148
0.0
149
0.0
100
AcDbLayout
  1
Layout1
 70
     1
 71
     1
 10
0.0
 20
0.0
 11
420.0
 21
297.0
 12
0.0
 22
0.0
 32
0.0
 14
1.0000000000E+20
 24
1.0000000000E+20
 34
1.0000000000E+20
 15
-1.0000000000E+20
 25
-1.0000000000E+20
 35
-1.0000000000E+20
146
0.0
 13
0.0
 23
0.0
 33
0.0
 16
1.0
 26
0.0
 36
0.0
 17
0.0
 27
1.0
 37
0.0
 76
     0
330
1B
  0
LAYOUT
  5
26
102
{ACAD_REACTORS
330
1A
102
}
330
1A
100
AcDbPlotSettings
  1

  2
none_device
  4

  6

 40
0.0
 41
0.0
 42
0.0
 43
0.0
 44
0.0
 45
0.0
 46
0.0
 47
0.0
 48
0.0
 49
0.0
140
0.0
141
0.0
142
1.0
143
1.0
 70
   688
 72
     1
 73
     0
 74
     5
  7

 75
    16
147
1.0
148
0.0
149
0.0
100
AcDbLayout
  1
Layout2
 70
     1
 71
     2
 10
0.0
 20
0.0
 11
0.0
 21
0.0
 12
0.0
 22
0.0
 32
0.0
 14
0.0
 24
0.0
 34
0.0
 15
0.0
 25
0.0
 35
0.0
146
0.0
 13
0.0
 23
0.0
 33
0.0
 16
1.0
 26
0.0
 36
0.0
 17
0.0
 27
1.0
 37
0.0
 76
     0
330
23
  0
LAYOUT
  5
22
102
{ACAD_REACTORS
330
1A
102
}
330
1A
100
AcDbPlotSettings
  1

  2
none_device
  4
Letter_(8.50_x_11.00_Inches)
  6

 40
6.35
 41
6.35
 42
6.35000508
 43
6.35000508
 44
215.9
 45
279.4
 46
0.0
 47
0.0
 48
0.0
 49
0.0
140
0.0
141
0.0
142
1.0
143
1.0
 70
  1712
 72
     1
 73
     0
 74
     0
  7

 75
     0
147
1.0
148
0.0
149
0.0
100
AcDbLayout
  1
Model
 70
     1
 71
     0
 10
0.0
 20
0.0
 11
420.0
 21
297.0
 12
0.0
 22
0.0
 32
0.0
 14
0.0
 24
0.0
 34
0.0
 15
420.0
 25
297.0
 35
0.0
146
0.0
 13
0.0
 23
0.0
 33
0.0
 16
1.0
 26
0.0
 36
0.0
 17
0.0
 27
1.0
 37
0.0
 76
     0
330
1F
331
29
  0
MLINESTYLE
  5
18
102
{ACAD_REACTORS
330
17
102
}
330
17
100
AcDbMlineStyle
  2
Standard
 70
     0
  3

 62
   256
 51
90.0
 52
90.0
 71
     2
 49
0.5
 62
   256
  6
BYLAYER
 49
-0.5
 62
   256
  6
BYLAYER
  0
ACDBPLACEHOLDER
  5
F
102
{ACAD_REACTORS
330
E
102
}
330
E
  0
SCALE
  5
48
102
{ACAD_REACTORS
330
47
102
}
330
47
100
AcDbScale
 70
     0
300
1:1
140
1.0
141
1.0
290
     1
  0
SCALE
  5
49
102
{ACAD_REACTORS
330
47
102
}
330
47
100
AcDbScale
 70
     0
300
1:2
140
1.0
141
2.0
290
     0
  0
SCALE
  5
4A
102
{ACAD_REACTORS
330
47
102
}
330
47
100
AcDbScale
 70
     0
300
1:4
140
1.0
141
4.0
290
     0
  0
SCALE
  5
4B
102
{ACAD_REACTORS
330
47
102
}
330
47
100
AcDbScale
 70
     0
300
1:5
140
1.0
141
5.0
290
     0
  0
SCALE
  5
4C
102
{ACAD_REACTORS
330
47
102
}
330
47
100
AcDbScale
 70
     0
300
1:8
140
1.0
141
8.0
290
     0
  0
SCALE
  5
4D
102
{ACAD_REACTORS
330
47
102
}
330
47
100
AcDbScale
 70
     0
300
1:10
140
1.0
141
10.0
290
     0
  0
SCALE
  5
4E
102
{ACAD_REACTORS
330
47
102
}
330
47
100
AcDbScale
 70
     0
300
1:16
140
1.0
141
16.0
290
     0
  0
SCALE
  5
4F
102
{ACAD_REACTORS
330
47
102
}
330
47
100
AcDbScale
 70
     0
300
1:20
140
1.0
141
20.0
290
     0
  0
SCALE
  5
50
102
{ACAD_REACTORS
330
47
102
}
330
47
100
AcDbScale
 70
     0
300
1:30
140
1.0
141
30.0
290
     0
  0
SCALE
  5
51
102
{ACAD_REACTORS
330
47
102
}
330
47
100
AcDbScale
 70
     0
300
1:40
140
1.0
141
40.0
290
     0
  0
SCALE
  5
52
102
{ACAD_REACTORS
330
47
102
}
330
47
100
AcDbScale
 70
     0
300
1:50
140
1.0
141
50.0
290
     0
  0
SCALE
  5
53
102
{ACAD_REACTORS
330
47
102
}
330
47
100
AcDbScale
 70
     0
300
1:100
140
1.0
141
100.0
290
     0
  0
SCALE
  5
54
102
{ACAD_REACTORS
330
47
102
}
330
47
100
AcDbScale
 70
     0
300
2:1
140
2.0
141
1.0
290
     0
  0
SCALE
  5
55
102
{ACAD_REACTORS
330
47
102
}
330
47
100
AcDbScale
 70
     0
300
4:1
140
4.0
141
1.0
290
     0
  0
SCALE
  5
56
102
{ACAD_REACTORS
330
47
102
}
330
47
100
AcDbScale
 70
     0
300
8:1
140
8.0
141
1.0
290
     0
  0
SCALE
  5
57
102
{ACAD_REACTORS
330
47
102
}
330
47
100
AcDbScale
 70
     0
300
10:1
140
10.0
141
1.0
290
     0
  0
SCALE
  5
58
102
{ACAD_REACTORS
330
47
102
}
330
47
100
AcDbScale
 70
     0
300
100:1
140
100.0
141
1.0
290
     0
  0
SCALE
  5
59
102
{ACAD_REACTORS
330
47
102
}
330
47
100
AcDbScale
 70
     0
300
1/128" = 1'-0"
140
0.0078125
141
12.0
290
     0
  0
SCALE
  5
5A
102
{ACAD_REACTORS
330
47
102
}
330
47
100
AcDbScale
 70
     0
300
1/64" = 1'-0"
140
0.015625
141
12.0
290
     0
  0
SCALE
  5
5B
102
{ACAD_REACTORS
330
47
102
}
330
47
100
AcDbScale
 70
     0
300
1/32" = 1'-0"
140
0.03125
141
12.0
290
     0
  0
SCALE
  5
5C
102
{ACAD_REACTORS
330
47
102
}
330
47
100
AcDbScale
 70
     0
300
1/16" = 1'-0"
140
0.0625
141
12.0
290
     0
  0
SCALE
  5
5D
102
{ACAD_REACTORS
330
47
102
}
330
47
100
AcDbScale
 70
     0
300
3/32" = 1'-0"
140
0.09375
141
12.0
290
     0
  0
SCALE
  5
5E
102
{ACAD_REACTORS
330
47
102
}
330
47
100
AcDbScale
 70
     0
300
1/8" = 1'-0"
140
0.125
141
12.0
290
     0
  0
SCALE
  5
5F
102
{ACAD_REACTORS
330
47
102
}
330
47
100
AcDbScale
 70
     0
300
3/16" = 1'-0"
140
0.1875
141
12.0
290
     0
  0
SCALE
  5
60
102
{ACAD_REACTORS
330
47
102
}
330
47
100
AcDbScale
 70
     0
300
1/4" = 1'-0"
140
0.25
141
12.0
290
     0
  0
SCALE
  5
61
102
{ACAD_REACTORS
330
47
102
}
330
47
100
AcDbScale
 70
     0
300
3/8" = 1'-0"
140
0.375
141
12.0
290
     0
  0
SCALE
  5
62
102
{ACAD_REACTORS
330
47
102
}
330
47
100
AcDbScale
 70
     0
300
1/2" = 1'-0"
140
0.5
141
12.0
290
     0
  0
SCALE
  5
63
102
{ACAD_REACTORS
330
47
102
}
330
47
100
AcDbScale
 70
     0
300
3/4" = 1'-0"
140
0.75
141
12.0
290
     0
  0
SCALE
  5
64
102
{ACAD_REACTORS
330
47
102
}
330
47
100
AcDbScale
 70
     0
300
1" = 1'-0"
140
1.0
141
12.0
290
     0
  0
SCALE
  5
65
102
{ACAD_REACTORS
330
47
102
}
330
47
100
AcDbScale
 70
     0
300
1-1/2" = 1'-0"
140
1.5
141
12.0
290
     0
  0
SCALE
  5
66
102
{ACAD_REACTORS
330
47
102
}
330
47
100
AcDbScale
 70
     0
300
3" = 1'-0"
140
3.0
141
12.0
290
     0
  0
SCALE
  5
67
102
{ACAD_REACTORS
330
47
102
}
330
47
100
AcDbScale
 70
     0
300
6" = 1'-0"
140
6.0
141
12.0
290
     0
  0
SCALE
  5
68
102
{ACAD_REACTORS
330
47
102
}
330
47
100
AcDbScale
 70
     0
300
1'-0" = 1'-0"
140
12.0
141
12.0
290
     0
  0
ENDSEC
  0
EOF
