  0
SECTION
  2
HEADER
  9
$ACADVER
  1
AC1015
  9
$ACADMAINTVER
 70
     6
  9
$DWGCODEPAGE
  3
ANSI_1252
  9
$INSBASE
 10
0.0
 20
0.0
 30
0.0
  9
$EXTMIN
 10
0.0
 20
0.0
 30
0.0
  9
$EXTMAX
 10
420.0
 20
297.0
 30
0.0
  9
$LIMMIN
 10
0.0
 20
0.0
  9
$LIMMAX
 10
420.0
 20
297.0
  9
$ORTHOMODE
 70
     0
  9
$REGENMODE
 70
     1
  9
$FILLMODE
 70
     1
  9
$QTEXTMODE
 70
     0
  9
$MIRRTEXT
 70
     1
  9
$LTSCALE
 40
1.0
  9
$ATTMODE
 70
     1
  9
$TEXTSIZE
 40
3.0
  9
$TRACEWID
 40
1.0
  9
$TEXTSTYLE
  7
STANDARD
  9
$CLAYER
  8
0
  9
$CELTYPE
  6
ByLayer
  9
$CECOLOR
 62
   256
  9
$CELTSCALE
 40
1.0
  9
$DISPSILH
 70
     0
  9
$DIMSCALE
 40
1.0
  9
$DIMASZ
 40
2.5
  9
$DIMEXO
 40
1.0
  9
$DIMDLI
 40
3.75
  9
$DIMRND
 40
0.0
  9
$DIMDLE
 40
0.0
  9
$DIMEXE
 40
1.0
  9
$DIMTP
 40
0.0
  9
$DIMTM
 40
0.0
  9
$DIMTXT
 40
3.0
  9
$DIMCEN
 40
2.5
  9
$DIMTSZ
 40
0.0
  9
$DIMTOL
 70
     0
  9
$DIMLIM
 70
     0
  9
$DIMTIH
 70
     1
  9
$DIMTOH
 70
     1
  9
$DIMSE1
 70
     0
  9
$DIMSE2
 70
     0
  9
$DIMTAD
 70
     1
  9
$DIMZIN
 70
     0
  9
$DIMBLK
  1

  9
$DIMASO
 70
     1
  9
$DIMSHO
 70
     1
  9
$DIMPOST
  1

  9
$DIMAPOST
  1

  9
$DIMALT
 70
     0
  9
$DIMALTD
 70
     3
  9
$DIMALTF
 40
0.0393700787
  9
$DIMLFAC
 40
1.0
  9
$DIMTOFL
 70
     1
  9
$DIMTVP
 40
0.0
  9
$DIMTIX
 70
     0
  9
$DIMSOXD
 70
     0
  9
$DIMSAH
 70
     0
  9
$DIMBLK1
  1

  9
$DIMBLK2
  1

  9
$DIMSTYLE
  2
ISO-25
  9
$DIMCLRD
 70
     0
  9
$DIMCLRE
 70
     0
  9
$DIMCLRT
 70
     0
  9
$DIMTFAC
 40
1.0
  9
$DIMGAP
 40
1.524
  9
$DIMJUST
 70
     0
  9
$DIMSD1
 70
     0
  9
$DIMSD2
 70
     0
  9
$DIMTOLJ
 70
     0
  9
$DIMTZIN
 70
     0
  9
$DIMALTZ
 70
     0
  9
$DIMALTTZ
 70
     0
  9
$DIMUPT
 70
     0
  9
$DIMDEC
 70
     3
  9
$DIMTDEC
 70
     3
  9
$DIMALTU
 70
     2
  9
$DIMALTTD
 70
     3
  9
$DIMTXSTY
  7
STANDARD
  9
$DIMAUNIT
 70
     0
  9
$DIMADEC
 70
     3
  9
$DIMALTRND
 40
0.0
  9
$DIMAZIN
 70
     0
  9
$DIMDSEP
 70
    44
  9
$DIMATFIT
 70
     3
  9
$DIMFRAC
 70
     0
  9
$DIMLDRBLK
  1

  9
$DIMLUNIT
 70
     2
  9
$DIMLWD
 70
    -2
  9
$DIMLWE
 70
    -2
  9
$DIMTMOVE
 70
     0
  9
$LUNITS
 70
     2
  9
$LUPREC
 70
     3
  9
$SKETCHINC
 40
1.0
  9
$FILLETRAD
 40
10.0
  9
$AUNITS
 70
     0
  9
$AUPREC
 70
     3
  9
$MENU
  1
.
  9
$ELEVATION
 40
0.0
  9
$PELEVATION
 40
0.0
  9
$THICKNESS
 40
0.0
  9
$LIMCHECK
 70
     0
  9
$CHAMFERA
 40
0.0
  9
$CHAMFERB
 40
0.0
  9
$CHAMFERC
 40
0.0
  9
$CHAMFERD
 40
0.0
  9
$SKPOLY
 70
     0
  9
$TDCREATE
 40
2459768.692791979
  9
$TDUCREATE
 40
2459768.609458646
  9
$TDUPDATE
 40
2459768.692796424
  9
$TDUUPDATE
 40
2459768.60946309
  9
$TDINDWG
 40
0.0000000116
  9
$TDUSRTIMER
 40
0.0000000116
  9
$USRTIMER
 70
     1
  9
$ANGBASE
 50
0.0
  9
$ANGDIR
 70
     0
  9
$PDMODE
 70
     0
  9
$PDSIZE
 40
-1.0
  9
$PLINEWID
 40
0.0
  9
$SPLFRAME
 70
     0
  9
$SPLINETYPE
 70
     6
  9
$SPLINESEGS
 70
     8
  9
$HANDSEED
  5
405
  9
$SURFTAB1
 70
     6
  9
$SURFTAB2
 70
     6
  9
$SURFTYPE
 70
     6
  9
$SURFU
 70
     6
  9
$SURFV
 70
     6
  9
$UCSBASE
  2

  9
$UCSNAME
  2

  9
$UCSORG
 10
0.0
 20
0.0
 30
0.0
  9
$UCSXDIR
 10
1.0
 20
0.0
 30
0.0
  9
$UCSYDIR
 10
0.0
 20
1.0
 30
0.0
  9
$UCSORTHOREF
  2

  9
$UCSORTHOVIEW
 70
     0
  9
$UCSORGTOP
 10
0.0
 20
0.0
 30
0.0
  9
$UCSORGBOTTOM
 10
0.0
 20
0.0
 30
0.0
  9
$UCSORGLEFT
 10
0.0
 20
0.0
 30
0.0
  9
$UCSORGRIGHT
 10
0.0
 20
0.0
 30
0.0
  9
$UCSORGFRONT
 10
0.0
 20
0.0
 30
0.0
  9
$UCSORGBACK
 10
0.0
 20
0.0
 30
0.0
  9
$PUCSBASE
  2

  9
$PUCSNAME
  2

  9
$PUCSORG
 10
0.0
 20
0.0
 30
0.0
  9
$PUCSXDIR
 10
1.0
 20
0.0
 30
0.0
  9
$PUCSYDIR
 10
0.0
 20
1.0
 30
0.0
  9
$PUCSORTHOREF
  2

  9
$PUCSORTHOVIEW
 70
     0
  9
$PUCSORGTOP
 10
0.0
 20
0.0
 30
0.0
  9
$PUCSORGBOTTOM
 10
0.0
 20
0.0
 30
0.0
  9
$PUCSORGLEFT
 10
0.0
 20
0.0
 30
0.0
  9
$PUCSORGRIGHT
 10
0.0
 20
0.0
 30
0.0
  9
$PUCSORGFRONT
 10
0.0
 20
0.0
 30
0.0
  9
$PUCSORGBACK
 10
0.0
 20
0.0
 30
0.0
  9
$USERI1
 70
     0
  9
$USERI2
 70
     0
  9
$USERI3
 70
     0
  9
$USERI4
 70
     0
  9
$USERI5
 70
     0
  9
$USERR1
 40
0.0
  9
$USERR2
 40
0.0
  9
$USERR3
 40
0.0
  9
$USERR4
 40
0.0
  9
$USERR5
 40
0.0
  9
$WORLDVIEW
 70
     1
  9
$SHADEDGE
 70
     3
  9
$SHADEDIF
 70
    70
  9
$TILEMODE
 70
     1
  9
$MAXACTVP
 70
    64
  9
$PINSBASE
 10
0.0
 20
0.0
 30
0.0
  9
$PLIMCHECK
 70
     0
  9
$PEXTMIN
 10
1.0000000000E+20
 20
1.0000000000E+20
 30
1.0000000000E+20
  9
$PEXTMAX
 10
-1.0000000000E+20
 20
-1.0000000000E+20
 30
-1.0000000000E+20
  9
$PLIMMIN
 10
0.0
 20
0.0
  9
$PLIMMAX
 10
420.0
 20
297.0
  9
$UNITMODE
 70
     0
  9
$VISRETAIN
 70
     1
  9
$PLINEGEN
 70
     0
  9
$PSLTSCALE
 70
     1
  9
$TREEDEPTH
 70
  3020
  9
$CMLSTYLE
  2
Standard
  9
$CMLJUST
 70
     0
  9
$CMLSCALE
 40
20.0
  9
$PROXYGRAPHICS
 70
     1
  9
$MEASUREMENT
 70
     1
  9
$CELWEIGHT
370
    -1
  9
$ENDCAPS
280
     0
  9
$JOINSTYLE
280
     0
  9
$LWDISPLAY
290
     1
  9
$INSUNITS
 70
     4
  9
$HYPERLINKBASE
  1

  9
$STYLESHEET
  1

  9
$XEDIT
290
     1
  9
$CEPSNTYPE
380
     0
  9
$PSTYLEMODE
290
     1
  9
$FINGERPRINTGUID
  2
{A5F7447B-47A5-45EE-82B8-EA0011E1837A}
  9
$VERSIONGUID
  2
{FAEB1C32-E019-11D5-929B-00C0DF256EC4}
  9
$EXTNAMES
290
     1
  9
$PSVPSCALE
 40
0.0
  9
$OLESTARTUP
290
     0
  0
ENDSEC
  0
SECTION
  2
CLASSES
  0
CLASS
  1
ACDBDICTIONARYWDFLT
  2
AcDbDictionaryWithDefault
  3
ObjectDBX Classes
 90
        0
280
     0
281
     0
  0
CLASS
  1
VISUALSTYLE
  2
AcDbVisualStyle
  3
ObjectDBX Classes
 90
     4095
280
     0
281
     0
  0
CLASS
  1
MATERIAL
  2
AcDbMaterial
  3
ObjectDBX Classes
 90
     1153
280
     0
281
     0
  0
CLASS
  1
SCALE
  2
AcDbScale
  3
ObjectDBX Classes
 90
     1153
280
     0
281
     0
  0
CLASS
  1
TABLESTYLE
  2
AcDbTableStyle
  3
ObjectDBX Classes
 90
     4095
280
     0
281
     0
  0
CLASS
  1
MLEADERSTYLE
  2
AcDbMLeaderStyle
  3
ACDB_MLEADERSTYLE_CLASS
 90
     4095
280
     0
281
     0
  0
CLASS
  1
SUN
  2
AcDbSun
  3
SCENEOE
 90
     1153
280
     0
281
     0
  0
CLASS
  1
ACDBPLACEHOLDER
  2
AcDbPlaceHolder
  3
ObjectDBX Classes
 90
        0
280
     0
281
     0
  0
CLASS
  1
LAYOUT
  2
AcDbLayout
  3
ObjectDBX Classes
 90
        0
280
     0
281
     0
  0
ENDSEC
  0
SECTION
  2
TABLES
  0
TABLE
  2
VPORT
  5
8
330
0
100
AcDbSymbolTable
 70
     1
  0
VPORT
  5
29
330
8
100
AcDbSymbolTableRecord
100
AcDbViewportTableRecord
  2
*Active
 70
     0
 10
0.0
 20
0.0
 11
1.0
 21
1.0
 12
210.0
 22
148.5
 13
0.0
 23
0.0
 14
10.0
 24
10.0
 15
10.0
 25
10.0
 16
0.0
 26
0.0
 36
1.0
 17
0.0
 27
0.0
 37
0.0
 40
297.0
 41
1.4141414141
 42
50.0
 43
0.0
 44
0.0
 50
0.0
 51
0.0
 71
     0
 72
  2000
 73
     1
 74
     3
 75
     0
 76
     0
 77
     0
 78
     0
281
     0
 65
     1
110
0.0
120
0.0
130
0.0
111
1.0
121
0.0
131
0.0
112
0.0
122
1.0
132
0.0
 79
     0
146
0.0
  0
ENDTAB
  0
TABLE
  2
LTYPE
  5
5
330
0
100
AcDbSymbolTable
 70
     8
  0
LTYPE
  5
14
330
5
100
AcDbSymbolTableRecord
100
AcDbLinetypeTableRecord
  2
ByBlock
 70
     0
  3

 72
    65
 73
     0
 40
0.0
  0
LTYPE
  5
15
330
5
100
AcDbSymbolTableRecord
100
AcDbLinetypeTableRecord
  2
ByLayer
 70
     0
  3

 72
    65
 73
     0
 40
0.0
  0
LTYPE
  5
16
330
5
100
AcDbSymbolTableRecord
100
AcDbLinetypeTableRecord
  2
Continuous
 70
     0
  3
Solid line
 72
    65
 73
     0
 40
0.0
  0
LTYPE
  5
6E
330
5
100
AcDbSymbolTableRecord
100
AcDbLinetypeTableRecord
  2
SLD-Durchgehend
 70
     0
  3
SolidWorks Line Style
 72
    65
 73
     0
 40
0.0
  0
LTYPE
  5
6F
330
5
100
AcDbSymbolTableRecord
100
AcDbLinetypeTableRecord
  2
SLD-Gestrichelt
 70
     0
  3
SolidWorks Line Style
 72
    65
 73
     2
 40
1.905
 49
1.27
 74
     0
 49
-0.635
 74
     0
  0
LTYPE
  5
70
330
5
100
AcDbSymbolTableRecord
100
AcDbLinetypeTableRecord
  2
SLD-Phantom
 70
     0
  3
SolidWorks Line Style
 72
    65
 73
     6
 40
12.7
 49
6.35
 74
     0
 49
-1.27
 74
     0
 49
1.27
 74
     0
 49
-1.27
 74
     0
 49
1.27
 74
     0
 49
-1.27
 74
     0
  0
LTYPE
  5
71
330
5
100
AcDbSymbolTableRecord
100
AcDbLinetypeTableRecord
  2
SLD-Kette
 70
     0
  3
SolidWorks Line Style
 72
    65
 73
     4
 40
10.16
 49
6.35
 74
     0
 49
-1.27
 74
     0
 49
1.27
 74
     0
 49
-1.27
 74
     0
  0
LTYPE
  5
72
330
5
100
AcDbSymbolTableRecord
100
AcDbLinetypeTableRecord
  2
SLD-Punktstrich
 70
     0
  3
SolidWorks Line Style
 72
    65
 73
     4
 40
19.05
 49
15.24
 74
     0
 49
-1.27
 74
     0
 49
1.27
 74
     0
 49
-1.27
 74
     0
  0
LTYPE
  5
73
330
5
100
AcDbSymbolTableRecord
100
AcDbLinetypeTableRecord
  2
SLD-Naht
 70
     0
  3
SolidWorks Line Style
 72
    65
 73
     2
 40
0.635
 49
0.0
 74
     0
 49
-0.635
 74
     0
  0
LTYPE
  5
74
330
5
100
AcDbSymbolTableRecord
100
AcDbLinetypeTableRecord
  2
SLD-Dicke-Dünne-Kette
 70
     0
  3
SolidWorks Line Style
 72
    65
 73
     4
 40
10.16
 49
6.35
 74
     0
 49
-1.27
 74
     0
 49
1.27
 74
     0
 49
-1.27
 74
     0
  0
ENDTAB
  0
TABLE
  2
LAYER
  5
2
330
0
100
AcDbSymbolTable
 70
     1
  0
LAYER
  5
10
330
2
100
AcDbSymbolTableRecord
100
AcDbLayerTableRecord
  2
0
 70
     0
 62
     7
  6
Continuous
370
    -3
390
F
  0
ENDTAB
  0
TABLE
  2
STYLE
  5
3
330
0
100
AcDbSymbolTable
 70
     5
  0
STYLE
  5
11
330
3
100
AcDbSymbolTableRecord
100
AcDbTextStyleTableRecord
  2
STANDARD
 70
     0
 40
0.0
 41
1.0
 50
0.0
 71
     0
 42
3.0
  3
ARIAL.TTF
  4

1001
ACAD
1000
ARIAL
1071
       34
  0
STYLE
  5
7C
330
3
100
AcDbSymbolTableRecord
100
AcDbTextStyleTableRecord
  2
SLDTEXTSTYLE0
 70
     0
 40
0.0
 41
0.948
 50
0.0
 71
     0
 42
3.0
  3
ARIAL.TTF
  4

1001
ACAD
1000
Arial
1071
      290
  0
STYLE
  5
134
330
3
100
AcDbSymbolTableRecord
100
AcDbTextStyleTableRecord
  2
SLDTEXTSTYLE1
 70
     0
 40
0.0
 41
1.0
 50
0.0
 71
     0
 42
3.0
  3
HLHI___.TTF
  4

1001
ACAD
1000
Helvetica 65 Medium
1071
 50331938
  0
STYLE
  5
136
330
3
100
AcDbSymbolTableRecord
100
AcDbTextStyleTableRecord
  2
SLDTEXTSTYLE2
 70
     0
 40
0.0
 41
1.0
 50
0.0
 71
     0
 42
3.0
  3
HLR____.TTF
  4

1001
ACAD
1000
Helvetica 55 Roman
1071
 16777506
  0
STYLE
  5
144
330
3
100
AcDbSymbolTableRecord
100
AcDbTextStyleTableRecord
  2
SLDTEXTSTYLE3
 70
     0
 40
0.0
 41
0.948
 50
0.0
 71
     0
 42
3.0
  3
ARIALBD.TTF
  4

1001
ACAD
1000
Arial
1071
 33554722
  0
ENDTAB
  0
TABLE
  2
VIEW
  5
6
330
0
100
AcDbSymbolTable
 70
     0
  0
ENDTAB
  0
TABLE
  2
UCS
  5
7
330
0
100
AcDbSymbolTable
 70
     0
  0
ENDTAB
  0
TABLE
  2
APPID
  5
9
330
0
100
AcDbSymbolTable
 70
     1
  0
APPID
  5
12
330
9
100
AcDbSymbolTableRecord
100
AcDbRegAppTableRecord
  2
ACAD
 70
     0
  0
ENDTAB
  0
TABLE
  2
DIMSTYLE
  5
A
330
0
100
AcDbSymbolTable
 70
     5
100
AcDbDimStyleTable
  0
DIMSTYLE
105
27
330
A
100
AcDbSymbolTableRecord
100
AcDbDimStyleTableRecord
  2
ISO-25
 70
     0
 41
2.5
 42
0.625
 43
3.75
 44
1.25
 73
     0
 74
     0
 77
     1
 78
     8
140
2.5
141
2.5
143
0.0393700787
147
0.625
171
     3
172
     1
178
     0
271
     2
272
     2
274
     3
278
    44
283
     0
284
     8
340
11
  0
DIMSTYLE
105
8A
330
A
100
AcDbSymbolTableRecord
100
AcDbDimStyleTableRecord
  2
SLDDIMSTYLE0
 70
     0
 41
2.5
 44
0.0
 45
0.000000001
146
2.5
147
0.0
173
     1
178
     0
271
     0
272
     0
276
     2
340
11
  0
DIMSTYLE
105
97
330
A
100
AcDbSymbolTableRecord
100
AcDbDimStyleTableRecord
  2
SLDDIMSTYLE1
 70
     0
 41
0.88
 44
0.0
 45
0.000000001
146
0.88
147
0.0
173
     1
178
     0
271
     0
272
     0
276
     2
340
11
341
98
343
98
344
98
  0
DIMSTYLE
105
1AA
102
{ACAD_REACTORS
330
1A9
330
1B4
330
1BE
330
1C8
330
1D2
330
1DC
330
1E6
330
2FB
330
312
102
}
330
A
100
AcDbSymbolTableRecord
100
AcDbDimStyleTableRecord
  2
SLDDIMSTYLE2
 70
     0
 41
2.5
 44
0.0
 45
0.000000001
 73
     0
 74
     0
 77
     1
 78
    12
 79
     3
140
3.0
147
0.75
173
     1
178
     0
271
     3
272
     3
276
     2
284
    12
340
7C
  0
DIMSTYLE
105
306
102
{ACAD_REACTORS
330
305
102
}
330
A
100
AcDbSymbolTableRecord
100
AcDbDimStyleTableRecord
  2
SLDDIMSTYLE3
 70
     0
 41
2.5
 44
0.0
 45
0.000000001
 73
     0
 74
     0
 77
     1
 78
    12
 79
     3
140
3.0
147
0.75
172
     1
173
     1
178
     0
271
     3
272
     3
276
     2
284
    12
289
     0
340
7C
  0
ENDTAB
  0
TABLE
  2
BLOCK_RECORD
  5
1
330
0
100
AcDbSymbolTable
 70
    25
  0
BLOCK_RECORD
  5
1F
330
1
100
AcDbSymbolTableRecord
100
AcDbBlockTableRecord
  2
*Model_Space
340
22
  0
BLOCK_RECORD
  5
1B
330
1
100
AcDbSymbolTableRecord
100
AcDbBlockTableRecord
  2
*Paper_Space
340
1E
  0
BLOCK_RECORD
  5
23
330
1
100
AcDbSymbolTableRecord
100
AcDbBlockTableRecord
  2
*Paper_Space0
340
26
  0
BLOCK_RECORD
  5
75
330
1
100
AcDbSymbolTableRecord
100
AcDbBlockTableRecord
  2
Änderungsindex a
340
0
  0
BLOCK_RECORD
  5
78
330
1
100
AcDbSymbolTableRecord
100
AcDbBlockTableRecord
  2
SW_NOTE_0
340
0
102
{BLKREFS
331
7E
102
}
  0
BLOCK_RECORD
  5
7F
330
1
100
AcDbSymbolTableRecord
100
AcDbBlockTableRecord
  2
Abluft Text
340
0
102
{BLKREFS
331
1A7
102
}
  0
BLOCK_RECORD
  5
82
330
1
100
AcDbSymbolTableRecord
100
AcDbBlockTableRecord
  2
SW_NOTE_1
340
0
102
{BLKREFS
331
89
102
}
  0
BLOCK_RECORD
  5
8C
330
1
100
AcDbSymbolTableRecord
100
AcDbBlockTableRecord
  2
Zuluft Text
340
0
102
{BLKREFS
331
1A8
102
}
  0
BLOCK_RECORD
  5
8F
330
1
100
AcDbSymbolTableRecord
100
AcDbBlockTableRecord
  2
SW_NOTE_2
340
0
102
{BLKREFS
331
96
102
}
  0
BLOCK_RECORD
  5
98
330
1
100
AcDbSymbolTableRecord
100
AcDbBlockTableRecord
  2
_DOT
340
0
  0
BLOCK_RECORD
  5
130
330
1
100
AcDbSymbolTableRecord
100
AcDbBlockTableRecord
  2
SW_NOTE_3
340
0
102
{BLKREFS
331
139
102
}
  0
BLOCK_RECORD
  5
13B
330
1
100
AcDbSymbolTableRecord
100
AcDbBlockTableRecord
  2
SW_NOTE_4
340
0
102
{BLKREFS
331
140
102
}
  0
BLOCK_RECORD
  5
1AB
330
1
100
AcDbSymbolTableRecord
100
AcDbBlockTableRecord
  2
_D
340
0
  0
BLOCK_RECORD
  5
1B5
330
1
100
AcDbSymbolTableRecord
100
AcDbBlockTableRecord
  2
_D_1
340
0
  0
BLOCK_RECORD
  5
1BF
330
1
100
AcDbSymbolTableRecord
100
AcDbBlockTableRecord
  2
_D_2
340
0
  0
BLOCK_RECORD
  5
1C9
330
1
100
AcDbSymbolTableRecord
100
AcDbBlockTableRecord
  2
_D_3
340
0
  0
BLOCK_RECORD
  5
1D3
330
1
100
AcDbSymbolTableRecord
100
AcDbBlockTableRecord
  2
_D_4
340
0
  0
BLOCK_RECORD
  5
1DD
330
1
100
AcDbSymbolTableRecord
100
AcDbBlockTableRecord
  2
_D_5
340
0
  0
BLOCK_RECORD
  5
1E7
330
1
100
AcDbSymbolTableRecord
100
AcDbBlockTableRecord
  2
_D_6
340
0
  0
BLOCK_RECORD
  5
1EF
330
1
100
AcDbSymbolTableRecord
100
AcDbBlockTableRecord
  2
SW_CENTERMARKSYMBOL_0
340
0
102
{BLKREFS
331
1FA
102
}
  0
BLOCK_RECORD
  5
2FC
330
1
100
AcDbSymbolTableRecord
100
AcDbBlockTableRecord
  2
_D_7
340
0
  0
BLOCK_RECORD
  5
307
330
1
100
AcDbSymbolTableRecord
100
AcDbBlockTableRecord
  2
_D_8
340
0
  0
BLOCK_RECORD
  5
313
330
1
100
AcDbSymbolTableRecord
100
AcDbBlockTableRecord
  2
_D_9
340
0
  0
BLOCK_RECORD
  5
31C
330
1
100
AcDbSymbolTableRecord
100
AcDbBlockTableRecord
  2
SW_CENTERMARKSYMBOL_1
340
0
102
{BLKREFS
331
327
102
}
  0
BLOCK_RECORD
  5
328
330
1
100
AcDbSymbolTableRecord
100
AcDbBlockTableRecord
  2
SW_CENTERMARKSYMBOL_2
340
0
102
{BLKREFS
331
333
102
}
  0
BLOCK_RECORD
  5
334
330
1
100
AcDbSymbolTableRecord
100
AcDbBlockTableRecord
  2
SW_CENTERMARKSYMBOL_3
340
0
102
{BLKREFS
331
33F
102
}
  0
BLOCK_RECORD
  5
340
330
1
100
AcDbSymbolTableRecord
100
AcDbBlockTableRecord
  2
SW_CENTERMARKSYMBOL_4
340
0
102
{BLKREFS
331
34B
102
}
  0
ENDTAB
  0
ENDSEC
  0
SECTION
  2
BLOCKS
  0
BLOCK
  5
20
330
1F
100
AcDbEntity
  8
0
100
AcDbBlockBegin
  2
*Model_Space
 70
     0
 10
0.0
 20
0.0
 30
0.0
  3
*Model_Space
  1

  0
ENDBLK
  5
21
330
1F
100
AcDbEntity
  8
0
100
AcDbBlockEnd
  0
BLOCK
  5
1C
330
1B
100
AcDbEntity
 67
     1
  8
0
100
AcDbBlockBegin
  2
*Paper_Space
 70
     0
 10
0.0
 20
0.0
 30
0.0
  3
*Paper_Space
  1

  0
ENDBLK
  5
1D
330
1B
100
AcDbEntity
 67
     1
  8
0
100
AcDbBlockEnd
  0
BLOCK
  5
24
330
23
100
AcDbEntity
  8
0
100
AcDbBlockBegin
  2
*Paper_Space0
 70
     0
 10
0.0
 20
0.0
 30
0.0
  3
*Paper_Space0
  1

  0
ENDBLK
  5
25
330
23
100
AcDbEntity
  8
0
100
AcDbBlockEnd
  0
BLOCK
  5
76
330
75
100
AcDbEntity
  8
0
100
AcDbBlockBegin
  2
Änderungsindex a
 70
     0
 10
0.0
 20
0.0
 30
0.0
  3
Änderungsindex a
  1

  0
INSERT
  5
7E
330
75
100
AcDbEntity
  8
0
  6
Continuous
 62
     7
370
     0
100
AcDbBlockReference
  2
SW_NOTE_0
 10
-2.6785442717
 20
-4.2179726306
 30
0.0
  0
ENDBLK
  5
77
330
75
100
AcDbEntity
  8
0
100
AcDbBlockEnd
  0
BLOCK
  5
79
330
78
100
AcDbEntity
  8
0
100
AcDbBlockBegin
  2
SW_NOTE_0
 70
     0
 10
0.0
 20
0.0
 30
0.0
  3
SW_NOTE_0
  1

  0
CIRCLE
  5
7B
330
78
100
AcDbEntity
  8
0
  6
SLD-Durchgehend
 62
     0
370
     0
100
AcDbCircle
 10
2.2903442717
 20
4.4413809806
 30
0.0
 40
4.60970460902865
  0
MTEXT
  5
7D
330
78
100
AcDbEntity
  8
0
  6
Continuous
 62
     0
370
     0
100
AcDbMText
 10
0.0
 20
7.7344064386
 30
0.0
 40
6.0
 41
0.0
 71
     1
 72
     1
  1
a
  7
SLDTEXTSTYLE0
 73
     1
 44
1.0
  0
ENDBLK
  5
7A
330
78
100
AcDbEntity
  8
0
100
AcDbBlockEnd
  0
BLOCK
  5
80
330
7F
100
AcDbEntity
  8
0
100
AcDbBlockBegin
  2
Abluft Text
 70
     0
 10
0.0
 20
0.0
 30
0.0
  3
Abluft Text
  1

  0
INSERT
  5
89
330
7F
100
AcDbEntity
  8
0
  6
Continuous
 62
     7
370
     0
100
AcDbBlockReference
  2
SW_NOTE_1
 10
20.19395
 20
-6.4515
 30
0.0
  0
LEADER
  5
8B
330
7F
100
AcDbEntity
  8
0
  6
Continuous
 62
     7
370
     0
100
AcDbLeader
  3
SLDDIMSTYLE0
 76
     2
 10
38.2946418589
 20
-20.7522945698
 30
0.0
 10
20.19395
 20
-6.4515
 30
0.0
  0
ENDBLK
  5
81
330
7F
100
AcDbEntity
  8
0
100
AcDbBlockEnd
  0
BLOCK
  5
83
330
82
100
AcDbEntity
  8
0
100
AcDbBlockBegin
  2
SW_NOTE_1
 70
     0
 10
0.0
 20
0.0
 30
0.0
  3
SW_NOTE_1
  1

  0
MTEXT
  5
85
330
82
100
AcDbEntity
  8
0
  6
Continuous
 62
     0
370
     0
100
AcDbMText
 10
-23.6383032765
 20
15.8648211011
 30
0.0
 40
3.0
 41
0.0
 71
     1
 72
     1
  1
G1/4
  7
SLDTEXTSTYLE0
 73
     1
 44
1.0
  0
MTEXT
  5
86
330
82
100
AcDbEntity
  8
0
  6
Continuous
 62
     0
370
     0
100
AcDbMText
 10
-23.6383032765
 20
11.8648209111
 30
0.0
 40
3.0
 41
0.0
 71
     1
 72
     1
  1
Abluft
  7
SLDTEXTSTYLE0
 73
     1
 44
1.0
  0
MTEXT
  5
87
330
82
100
AcDbEntity
  8
0
  6
Continuous
 62
     0
370
     0
100
AcDbMText
 10
-23.6383032765
 20
7.8648207211
 30
0.0
 40
3.0
 41
0.0
 71
     1
 72
     1
  1
Exhaust
  7
SLDTEXTSTYLE0
 73
     1
 44
1.0
  0
MTEXT
  5
88
330
82
100
AcDbEntity
  8
0
  6
Continuous
 62
     0
370
     0
100
AcDbMText
 10
-23.6383032765
 20
3.8648205311
 30
0.0
 40
3.0
 41
0.0
 71
     1
 72
     1
  1
Echappment
  7
SLDTEXTSTYLE0
 73
     1
 44
1.0
  0
ENDBLK
  5
84
330
82
100
AcDbEntity
  8
0
100
AcDbBlockEnd
  0
BLOCK
  5
8D
330
8C
100
AcDbEntity
  8
0
100
AcDbBlockBegin
  2
Zuluft Text
 70
     0
 10
0.0
 20
0.0
 30
0.0
  3
Zuluft Text
  1

  0
INSERT
  5
96
330
8C
100
AcDbEntity
  8
0
  6
Continuous
 62
     7
370
     0
100
AcDbBlockReference
  2
SW_NOTE_2
 10
1.10665
 20
-3.6531
 30
0.0
  0
LEADER
  5
A0
330
8C
100
AcDbEntity
  8
0
  6
Continuous
 62
     7
370
     0
100
AcDbLeader
  3
SLDDIMSTYLE1
 76
     2
 10
-19.773691797
 20
-15.6810807204
 30
0.0
 10
1.10665
 20
-3.6531
 30
0.0
  0
ENDBLK
  5
8E
330
8C
100
AcDbEntity
  8
0
100
AcDbBlockEnd
  0
BLOCK
  5
90
330
8F
100
AcDbEntity
  8
0
100
AcDbBlockBegin
  2
SW_NOTE_2
 70
     0
 10
0.0
 20
0.0
 30
0.0
  3
SW_NOTE_2
  1

  0
MTEXT
  5
92
330
8F
100
AcDbEntity
  8
0
  6
Continuous
 62
     0
370
     0
100
AcDbMText
 10
0.50076711
 20
16.788959576
 30
0.0
 40
3.175
 41
0.0
 71
     1
 72
     1
  1
G 1/4
  7
SLDTEXTSTYLE0
 73
     1
 44
1.0
  0
MTEXT
  5
93
330
8F
100
AcDbEntity
  8
0
  6
Continuous
 62
     0
370
     0
100
AcDbMText
 10
0.50076711
 20
12.5556262939
 30
0.0
 40
3.175
 41
0.0
 71
     1
 72
     1
  1
Zuluft
  7
SLDTEXTSTYLE0
 73
     1
 44
1.0
  0
MTEXT
  5
94
330
8F
100
AcDbEntity
  8
0
  6
Continuous
 62
     0
370
     0
100
AcDbMText
 10
0.50076711
 20
8.3222930117
 30
0.0
 40
3.175
 41
0.0
 71
     1
 72
     1
  1
Air supply
  7
SLDTEXTSTYLE0
 73
     1
 44
1.0
  0
MTEXT
  5
95
330
8F
100
AcDbEntity
  8
0
  6
Continuous
 62
     0
370
     0
100
AcDbMText
 10
0.50076711
 20
4.0889597295
 30
0.0
 40
3.175
 41
0.0
 71
     1
 72
     1
  1
Arrivée d´air
  7
SLDTEXTSTYLE0
 73
     1
 44
1.0
  0
ENDBLK
  5
91
330
8F
100
AcDbEntity
  8
0
100
AcDbBlockEnd
  0
BLOCK
  5
99
330
98
100
AcDbEntity
  8
0
100
AcDbBlockBegin
  2
_DOT
 70
     0
 10
0.0
 20
0.0
 30
0.0
  3
_DOT
  1

  0
POLYLINE
  5
9B
330
98
100
AcDbEntity
  8
0
  6
ByBlock
 62
     0
100
AcDb2dPolyline
 66
     1
 10
0.0
 20
0.0
 30
0.0
 70
     1
 40
0.5
 41
0.5
  0
VERTEX
  5
9D
330
9B
100
AcDbEntity
  8
0
  6
ByBlock
 62
     0
100
AcDbVertex
100
AcDb2dVertex
 10
-0.25
 20
0.0
 30
0.0
 42
1.0
  0
VERTEX
  5
9E
330
9B
100
AcDbEntity
  8
0
  6
ByBlock
 62
     0
100
AcDbVertex
100
AcDb2dVertex
 10
0.25
 20
0.0
 30
0.0
 42
1.0
  0
SEQEND
  5
9F
330
9B
100
AcDbEntity
  8
0
  6
ByBlock
 62
     0
  0
LINE
  5
9C
330
98
100
AcDbEntity
  8
0
  6
ByBlock
 62
     0
370
    -2
100
AcDbLine
 10
-0.5
 20
0.0
 30
0.0
 11
-1.0
 21
0.0
 31
0.0
  0
ENDBLK
  5
9A
330
98
100
AcDbEntity
  8
0
100
AcDbBlockEnd
  0
BLOCK
  5
131
330
130
100
AcDbEntity
  8
0
100
AcDbBlockBegin
  2
SW_NOTE_3
 70
     0
 10
0.0
 20
0.0
 30
0.0
  3
SW_NOTE_3
  1

  0
MTEXT
  5
133
330
130
100
AcDbEntity
  8
0
  6
Continuous
 62
     0
370
     0
100
AcDbMText
 10
0.0
 20
2.3874608764
 30
0.0
 40
1.8520833333
 41
0.0
 71
     1
 72
     1
  1
Tel.: +49 6134 2901-0, www.
  7
SLDTEXTSTYLE0
 73
     1
 44
1.0
  0
MTEXT
  5
135
330
130
100
AcDbEntity
  8
0
  6
Continuous
 62
     0
370
     0
100
AcDbMText
 10
31.6226072609
 20
2.2325681125
 30
0.0
 40
1.8520833333
 41
0.0
 71
     1
 72
     1
  1
Netter
  7
SLDTEXTSTYLE1
 73
     1
 44
1.0
  0
MTEXT
  5
137
330
130
100
AcDbEntity
  8
0
  6
Continuous
 62
     0
370
     0
100
AcDbMText
 10
39.4425168633
 20
2.3157006648
 30
0.0
 40
1.8520833333
 41
0.0
 71
     1
 72
     1
  1
Vibration
  7
SLDTEXTSTYLE2
 73
     1
 44
1.0
  0
MTEXT
  5
138
330
130
100
AcDbEntity
  8
0
  6
Continuous
 62
     0
370
     0
100
AcDbMText
 10
49.1865314543
 20
2.3874608764
 30
0.0
 40
1.8520833333
 41
0.0
 71
     1
 72
     1
  1
.com
  7
SLDTEXTSTYLE0
 73
     1
 44
1.0
  0
ENDBLK
  5
132
330
130
100
AcDbEntity
  8
0
100
AcDbBlockEnd
  0
BLOCK
  5
13C
330
13B
100
AcDbEntity
  8
0
100
AcDbBlockBegin
  2
SW_NOTE_4
 70
     0
 10
0.0
 20
0.0
 30
0.0
  3
SW_NOTE_4
  1

  0
MTEXT
  5
13E
330
13B
100
AcDbEntity
  8
0
  6
Continuous
 62
     0
370
     0
100
AcDbMText
 10
0.0
 20
4.8649193548
 30
0.0
 40
3.96875
 41
0.0
 71
     1
 72
     1
  1
Netter
  7
SLDTEXTSTYLE1
 73
     1
 44
1.0
  0
MTEXT
  5
13F
330
13B
100
AcDbEntity
  8
0
  6
Continuous
 62
     0
370
     0
100
AcDbMText
 10
16.7569443583
 20
5.0430605384
 30
0.0
 40
3.96875
 41
0.0
 71
     1
 72
     1
  1
Vibration
  7
SLDTEXTSTYLE2
 73
     1
 44
1.0
  0
ENDBLK
  5
13D
330
13B
100
AcDbEntity
  8
0
100
AcDbBlockEnd
  0
BLOCK
  5
1AC
330
1AB
100
AcDbEntity
  8
0
100
AcDbBlockBegin
  2
_D
 70
     0
 10
0.0
 20
0.0
 30
0.0
  3
_D
  1

  0
SOLID
  5
1AE
330
1AB
100
AcDbEntity
  8
0
  6
SLD-Durchgehend
 62
     7
370
     0
100
AcDbTrace
 10
30.1298075267
 20
133.98
 30
0.0
 11
32.6298075267
 21
133.54
 31
0.0
 12
32.6298075267
 22
134.42
 32
0.0
 13
32.6298075267
 23
134.42
 33
0.0
  0
SOLID
  5
1AF
330
1AB
100
AcDbEntity
  8
0
  6
SLD-Durchgehend
 62
     7
370
     0
100
AcDbTrace
 10
158.1298075267
 20
133.98
 30
0.0
 11
155.6298075267
 21
134.42
 31
0.0
 12
155.6298075267
 22
133.54
 32
0.0
 13
155.6298075267
 23
133.54
 33
0.0
  0
LINE
  5
1B0
330
1AB
100
AcDbEntity
  8
0
  6
SLD-Durchgehend
 62
     7
370
     0
100
AcDbLine
 10
30.1298075267
 20
153.1689452865
 30
0.0
 11
30.1298075267
 21
132.98
 31
0.0
  0
LINE
  5
1B1
330
1AB
100
AcDbEntity
  8
0
  6
SLD-Durchgehend
 62
     7
370
     0
100
AcDbLine
 10
158.1298075267
 20
153.1689452865
 30
0.0
 11
158.1298075267
 21
132.98
 31
0.0
  0
LINE
  5
1B2
330
1AB
100
AcDbEntity
  8
0
  6
SLD-Durchgehend
 62
     7
370
     0
100
AcDbLine
 10
30.1298075267
 20
133.98
 30
0.0
 11
158.1298075267
 21
133.98
 31
0.0
  0
MTEXT
  5
1B3
330
1AB
100
AcDbEntity
  8
0
  6
SLD-Durchgehend
 62
     7
370
     0
100
AcDbMText
 10
90.6928575267
 20
137.8472034521
 30
0.0
 40
3.0
 41
0.0
 71
     1
 72
     1
  1
128
  7
SLDTEXTSTYLE0
 73
     1
 44
1.0
  0
ENDBLK
  5
1AD
330
1AB
100
AcDbEntity
  8
0
100
AcDbBlockEnd
  0
BLOCK
  5
1B6
330
1B5
100
AcDbEntity
  8
0
100
AcDbBlockBegin
  2
_D_1
 70
     0
 10
0.0
 20
0.0
 30
0.0
  3
_D_1
  1

  0
SOLID
  5
1B8
330
1B5
100
AcDbEntity
  8
0
  6
SLD-Durchgehend
 62
     7
370
     0
100
AcDbTrace
 10
169.1791232837
 20
170.1689452865
 30
0.0
 11
168.7391232837
 21
167.6689452865
 31
0.0
 12
169.6191232837
 22
167.6689452865
 32
0.0
 13
169.6191232837
 23
167.6689452865
 33
0.0
  0
SOLID
  5
1B9
330
1B5
100
AcDbEntity
  8
0
  6
SLD-Durchgehend
 62
     7
370
     0
100
AcDbTrace
 10
169.1791232837
 20
154.1689452865
 30
0.0
 11
169.6191232837
 21
156.6689452865
 31
0.0
 12
168.7391232837
 22
156.6689452865
 32
0.0
 13
168.7391232837
 23
156.6689452865
 33
0.0
  0
LINE
  5
1BA
330
1B5
100
AcDbEntity
  8
0
  6
SLD-Durchgehend
 62
     7
370
     0
100
AcDbLine
 10
159.1298075267
 20
170.1689452865
 30
0.0
 11
170.1791232837
 21
170.1689452865
 31
0.0
  0
LINE
  5
1BB
330
1B5
100
AcDbEntity
  8
0
  6
SLD-Durchgehend
 62
     7
370
     0
100
AcDbLine
 10
159.1298075267
 20
154.1689452865
 30
0.0
 11
170.1791232837
 21
154.1689452865
 31
0.0
  0
LINE
  5
1BC
330
1B5
100
AcDbEntity
  8
0
  6
SLD-Durchgehend
 62
     7
370
     0
100
AcDbLine
 10
169.1791232837
 20
170.1689452865
 30
0.0
 11
169.1791232837
 21
154.1689452865
 31
0.0
  0
MTEXT
  5
1BD
330
1B5
100
AcDbEntity
  8
0
  6
SLD-Durchgehend
 62
     7
370
     0
100
AcDbMText
 10
165.3119198315
 20
159.8787452865
 30
0.0
 40
3.0
 41
0.0
 71
     1
 72
     1
  1
16
  7
SLDTEXTSTYLE0
 11
-7.044195017643634E-15
 21
1.0
 31
0.0
 73
     1
 44
1.0
  0
ENDBLK
  5
1B7
330
1B5
100
AcDbEntity
  8
0
100
AcDbBlockEnd
  0
BLOCK
  5
1C0
330
1BF
100
AcDbEntity
  8
0
100
AcDbBlockBegin
  2
_D_2
 70
     0
 10
0.0
 20
0.0
 30
0.0
  3
_D_2
  1

  0
SOLID
  5
1C2
330
1BF
100
AcDbEntity
  8
0
  6
SLD-Durchgehend
 62
     7
370
     0
100
AcDbTrace
 10
182.1298075267
 20
234.1689452865
 30
0.0
 11
181.6898075267
 21
231.6689452865
 31
0.0
 12
182.5698075267
 22
231.6689452865
 32
0.0
 13
182.5698075267
 23
231.6689452865
 33
0.0
  0
SOLID
  5
1C3
330
1BF
100
AcDbEntity
  8
0
  6
SLD-Durchgehend
 62
     7
370
     0
100
AcDbTrace
 10
182.1298075267
 20
154.1689452865
 30
0.0
 11
182.5698075267
 21
156.6689452865
 31
0.0
 12
181.6898075267
 22
156.6689452865
 32
0.0
 13
181.6898075267
 23
156.6689452865
 33
0.0
  0
LINE
  5
1C4
330
1BF
100
AcDbEntity
  8
0
  6
SLD-Durchgehend
 62
     7
370
     0
100
AcDbLine
 10
135.1298075267
 20
234.1689452865
 30
0.0
 11
183.1298075267
 21
234.1689452865
 31
0.0
  0
LINE
  5
1C5
330
1BF
100
AcDbEntity
  8
0
  6
SLD-Durchgehend
 62
     7
370
     0
100
AcDbLine
 10
159.1298075267
 20
154.1689452865
 30
0.0
 11
183.1298075267
 21
154.1689452865
 31
0.0
  0
LINE
  5
1C6
330
1BF
100
AcDbEntity
  8
0
  6
SLD-Durchgehend
 62
     7
370
     0
100
AcDbLine
 10
182.1298075267
 20
234.1689452865
 30
0.0
 11
182.1298075267
 21
154.1689452865
 31
0.0
  0
MTEXT
  5
1C7
330
1BF
100
AcDbEntity
  8
0
  6
SLD-Durchgehend
 62
     7
370
     0
100
AcDbMText
 10
178.2626040746
 20
191.8787452865
 30
0.0
 40
3.0
 41
0.0
 71
     1
 72
     1
  1
80
  7
SLDTEXTSTYLE0
 11
-7.044195017643634E-15
 21
1.0
 31
0.0
 73
     1
 44
1.0
  0
ENDBLK
  5
1C1
330
1BF
100
AcDbEntity
  8
0
100
AcDbBlockEnd
  0
BLOCK
  5
1CA
330
1C9
100
AcDbEntity
  8
0
100
AcDbBlockBegin
  2
_D_3
 70
     0
 10
0.0
 20
0.0
 30
0.0
  3
_D_3
  1

  0
SOLID
  5
1CC
330
1C9
100
AcDbEntity
  8
0
  6
SLD-Durchgehend
 62
     7
370
     0
100
AcDbTrace
 10
196.1298075267
 20
269.1689452865
 30
0.0
 11
195.6898075267
 21
266.6689452865
 31
0.0
 12
196.5698075267
 22
266.6689452865
 32
0.0
 13
196.5698075267
 23
266.6689452865
 33
0.0
  0
SOLID
  5
1CD
330
1C9
100
AcDbEntity
  8
0
  6
SLD-Durchgehend
 62
     7
370
     0
100
AcDbTrace
 10
196.1298075267
 20
154.1689452865
 30
0.0
 11
196.5698075267
 21
156.6689452865
 31
0.0
 12
195.6898075267
 22
156.6689452865
 32
0.0
 13
195.6898075267
 23
156.6689452865
 33
0.0
  0
LINE
  5
1CE
330
1C9
100
AcDbEntity
  8
0
  6
SLD-Durchgehend
 62
     7
370
     0
100
AcDbLine
 10
73.1298075267
 20
269.1689452865
 30
0.0
 11
197.1298075267
 21
269.1689452865
 31
0.0
  0
LINE
  5
1CF
330
1C9
100
AcDbEntity
  8
0
  6
SLD-Durchgehend
 62
     7
370
     0
100
AcDbLine
 10
159.1298075267
 20
154.1689452865
 30
0.0
 11
197.1298075267
 21
154.1689452865
 31
0.0
  0
LINE
  5
1D0
330
1C9
100
AcDbEntity
  8
0
  6
SLD-Durchgehend
 62
     7
370
     0
100
AcDbLine
 10
196.1298075267
 20
269.1689452865
 30
0.0
 11
196.1298075267
 21
154.1689452865
 31
0.0
  0
MTEXT
  5
1D1
330
1C9
100
AcDbEntity
  8
0
  6
SLD-Durchgehend
 62
     7
370
     0
100
AcDbMText
 10
192.2626040746
 20
208.2319952865
 30
0.0
 40
3.0
 41
0.0
 71
     1
 72
     1
  1
115
  7
SLDTEXTSTYLE0
 11
-7.044195017643634E-15
 21
1.0
 31
0.0
 73
     1
 44
1.0
  0
ENDBLK
  5
1CB
330
1C9
100
AcDbEntity
  8
0
100
AcDbBlockEnd
  0
BLOCK
  5
1D4
330
1D3
100
AcDbEntity
  8
0
100
AcDbBlockBegin
  2
_D_4
 70
     0
 10
0.0
 20
0.0
 30
0.0
  3
_D_4
  1

  0
SOLID
  5
1D6
330
1D3
100
AcDbEntity
  8
0
  6
SLD-Durchgehend
 62
     7
370
     0
100
AcDbTrace
 10
54.1298075267
 20
279.1689452865
 30
0.0
 11
56.6298075267
 21
278.7289452865
 31
0.0
 12
56.6298075267
 22
279.6089452865
 32
0.0
 13
56.6298075267
 23
279.6089452865
 33
0.0
  0
SOLID
  5
1D7
330
1D3
100
AcDbEntity
  8
0
  6
SLD-Durchgehend
 62
     7
370
     0
100
AcDbTrace
 10
134.1298075267
 20
279.1689452865
 30
0.0
 11
131.6298075267
 21
279.6089452865
 31
0.0
 12
131.6298075267
 22
278.7289452865
 32
0.0
 13
131.6298075267
 23
278.7289452865
 33
0.0
  0
LINE
  5
1D8
330
1D3
100
AcDbEntity
  8
0
  6
SLD-Durchgehend
 62
     7
370
     0
100
AcDbLine
 10
54.1298075267
 20
235.1689452865
 30
0.0
 11
54.1298075267
 21
280.1689452865
 31
0.0
  0
LINE
  5
1D9
330
1D3
100
AcDbEntity
  8
0
  6
SLD-Durchgehend
 62
     7
370
     0
100
AcDbLine
 10
134.1298075267
 20
235.1689452865
 30
0.0
 11
134.1298075267
 21
280.1689452865
 31
0.0
  0
LINE
  5
1DA
330
1D3
100
AcDbEntity
  8
0
  6
SLD-Durchgehend
 62
     7
370
     0
100
AcDbLine
 10
54.1298075267
 20
279.1689452865
 30
0.0
 11
134.1298075267
 21
279.1689452865
 31
0.0
  0
MTEXT
  5
1DB
330
1D3
100
AcDbEntity
  8
0
  6
SLD-Durchgehend
 62
     7
370
     0
100
AcDbMText
 10
91.8396075267
 20
283.0361487387
 30
0.0
 40
3.0
 41
0.0
 71
     1
 72
     1
  1
80
  7
SLDTEXTSTYLE0
 73
     1
 44
1.0
  0
ENDBLK
  5
1D5
330
1D3
100
AcDbEntity
  8
0
100
AcDbBlockEnd
  0
BLOCK
  5
1DE
330
1DD
100
AcDbEntity
  8
0
100
AcDbBlockBegin
  2
_D_5
 70
     0
 10
0.0
 20
0.0
 30
0.0
  3
_D_5
  1

  0
SOLID
  5
1E0
330
1DD
100
AcDbEntity
  8
0
  6
SLD-Durchgehend
 62
     7
370
     0
100
AcDbTrace
 10
64.1298075267
 20
145.8600825112
 30
0.0
 11
66.6298075267
 21
145.4200825112
 31
0.0
 12
66.6298075267
 22
146.3000825112
 32
0.0
 13
66.6298075267
 23
146.3000825112
 33
0.0
  0
SOLID
  5
1E1
330
1DD
100
AcDbEntity
  8
0
  6
SLD-Durchgehend
 62
     7
370
     0
100
AcDbTrace
 10
124.1298075267
 20
145.8600825112
 30
0.0
 11
121.6298075267
 21
146.3000825112
 31
0.0
 12
121.6298075267
 22
145.4200825112
 32
0.0
 13
121.6298075267
 23
145.4200825112
 33
0.0
  0
LINE
  5
1E2
330
1DD
100
AcDbEntity
  8
0
  6
SLD-Durchgehend
 62
     7
370
     0
100
AcDbLine
 10
64.1298075267
 20
163.1689452865
 30
0.0
 11
64.1298075267
 21
144.8600825112
 31
0.0
  0
LINE
  5
1E3
330
1DD
100
AcDbEntity
  8
0
  6
SLD-Durchgehend
 62
     7
370
     0
100
AcDbLine
 10
124.1298075267
 20
163.1689452865
 30
0.0
 11
124.1298075267
 21
144.8600825112
 31
0.0
  0
LINE
  5
1E4
330
1DD
100
AcDbEntity
  8
0
  6
SLD-Durchgehend
 62
     7
370
     0
100
AcDbLine
 10
64.1298075267
 20
145.8600825112
 30
0.0
 11
124.1298075267
 21
145.8600825112
 31
0.0
  0
MTEXT
  5
1E5
330
1DD
100
AcDbEntity
  8
0
  6
SLD-Durchgehend
 62
     7
370
     0
100
AcDbMText
 10
91.8381409501
 20
149.7272859633
 30
0.0
 40
3.0
 41
0.0
 71
     1
 72
     1
  1
60
  7
SLDTEXTSTYLE0
 73
     1
 44
1.0
  0
ENDBLK
  5
1DF
330
1DD
100
AcDbEntity
  8
0
100
AcDbBlockEnd
  0
BLOCK
  5
1E8
330
1E7
100
AcDbEntity
  8
0
100
AcDbBlockBegin
  2
_D_6
 70
     0
 10
0.0
 20
0.0
 30
0.0
  3
_D_6
  1

  0
SOLID
  5
1EA
330
1E7
100
AcDbEntity
  8
0
  6
SLD-Durchgehend
 62
     7
370
     0
100
AcDbTrace
 10
51.119413822
 20
164.1689452865
 30
0.0
 11
50.679413822
 21
161.6689452865
 31
0.0
 12
51.559413822
 22
161.6689452865
 32
0.0
 13
51.559413822
 23
161.6689452865
 33
0.0
  0
SOLID
  5
1EB
330
1E7
100
AcDbEntity
  8
0
  6
SLD-Durchgehend
 62
     7
370
     0
100
AcDbTrace
 10
51.119413822
 20
154.1689452865
 30
0.0
 11
51.559413822
 21
156.6689452865
 31
0.0
 12
50.679413822
 22
156.6689452865
 32
0.0
 13
50.679413822
 23
156.6689452865
 33
0.0
  0
LINE
  5
1EC
330
1E7
100
AcDbEntity
  8
0
  6
SLD-Durchgehend
 62
     7
370
     0
100
AcDbLine
 10
63.1298075267
 20
164.1689452865
 30
0.0
 11
50.119413822
 21
164.1689452865
 31
0.0
  0
LINE
  5
1ED
330
1E7
100
AcDbEntity
  8
0
  6
SLD-Durchgehend
 62
     7
370
     0
100
AcDbLine
 10
51.119413822
 20
164.1689452865
 30
0.0
 11
51.119413822
 21
154.1689452865
 31
0.0
  0
MTEXT
  5
1EE
330
1E7
100
AcDbEntity
  8
0
  6
SLD-Durchgehend
 62
     7
370
     0
100
AcDbMText
 10
47.2522103699
 20
156.8772787099
 30
0.0
 40
3.0
 41
0.0
 71
     1
 72
     1
  1
10
  7
SLDTEXTSTYLE0
 11
-7.044195017643634E-15
 21
1.0
 31
0.0
 73
     1
 44
1.0
  0
ENDBLK
  5
1E9
330
1E7
100
AcDbEntity
  8
0
100
AcDbBlockEnd
  0
BLOCK
  5
1F0
330
1EF
100
AcDbEntity
  8
0
100
AcDbBlockBegin
  2
SW_CENTERMARKSYMBOL_0
 70
     0
 10
0.0
 20
0.0
 30
0.0
  3
SW_CENTERMARKSYMBOL_0
  1

  0
LINE
  5
1F2
330
1EF
100
AcDbEntity
  8
0
  6
SLD-Durchgehend
 62
     0
370
     0
100
AcDbLine
 10
0.0
 20
0.0
 30
0.0
 11
0.0
 21
1.0
 31
0.0
  0
LINE
  5
1F3
330
1EF
100
AcDbEntity
  8
0
  6
SLD-Durchgehend
 62
     0
370
     0
100
AcDbLine
 10
0.0
 20
0.0
 30
0.0
 11
-1.0
 21
0.0
 31
0.0
  0
LINE
  5
1F4
330
1EF
100
AcDbEntity
  8
0
  6
SLD-Durchgehend
 62
     0
370
     0
100
AcDbLine
 10
0.0
 20
0.0
 30
0.0
 11
0.0
 21
-1.0
 31
0.0
  0
LINE
  5
1F5
330
1EF
100
AcDbEntity
  8
0
  6
SLD-Durchgehend
 62
     0
370
     0
100
AcDbLine
 10
0.0
 20
0.0
 30
0.0
 11
1.0
 21
0.0
 31
0.0
  0
LINE
  5
1F6
330
1EF
100
AcDbEntity
  8
0
  6
SLD-Durchgehend
 62
     0
370
     0
100
AcDbLine
 10
0.0
 20
2.0
 30
0.0
 11
0.0
 21
33.25
 31
0.0
  0
LINE
  5
1F7
330
1EF
100
AcDbEntity
  8
0
  6
SLD-Durchgehend
 62
     0
370
     0
100
AcDbLine
 10
-2.0
 20
0.0
 30
0.0
 11
-33.25
 21
0.0
 31
0.0
  0
LINE
  5
1F8
330
1EF
100
AcDbEntity
  8
0
  6
SLD-Durchgehend
 62
     0
370
     0
100
AcDbLine
 10
0.0
 20
-2.0
 30
0.0
 11
0.0
 21
-33.25
 31
0.0
  0
LINE
  5
1F9
330
1EF
100
AcDbEntity
  8
0
  6
SLD-Durchgehend
 62
     0
370
     0
100
AcDbLine
 10
2.0
 20
0.0
 30
0.0
 11
33.25
 21
0.0
 31
0.0
  0
ENDBLK
  5
1F1
330
1EF
100
AcDbEntity
  8
0
100
AcDbBlockEnd
  0
BLOCK
  5
2FD
330
2FC
100
AcDbEntity
  8
0
100
AcDbBlockBegin
  2
_D_7
 70
     0
 10
0.0
 20
0.0
 30
0.0
  3
_D_7
  1

  0
SOLID
  5
2FF
330
2FC
100
AcDbEntity
  8
0
  6
SLD-Durchgehend
 62
     7
370
     0
100
AcDbTrace
 10
281.722262931
 20
75.8140862656
 30
0.0
 11
284.222262931
 21
75.3740862656
 31
0.0
 12
284.222262931
 22
76.2540862656
 32
0.0
 13
284.222262931
 23
76.2540862656
 33
0.0
  0
SOLID
  5
300
330
2FC
100
AcDbEntity
  8
0
  6
SLD-Durchgehend
 62
     7
370
     0
100
AcDbTrace
 10
385.722262931
 20
75.8140862656
 30
0.0
 11
383.222262931
 21
76.2540862656
 31
0.0
 12
383.222262931
 22
75.3740862656
 32
0.0
 13
383.222262931
 23
75.3740862656
 33
0.0
  0
LINE
  5
301
330
2FC
100
AcDbEntity
  8
0
  6
SLD-Durchgehend
 62
     7
370
     0
100
AcDbLine
 10
281.722262931
 20
97.8140862656
 30
0.0
 11
281.722262931
 21
74.8140862656
 31
0.0
  0
LINE
  5
302
330
2FC
100
AcDbEntity
  8
0
  6
SLD-Durchgehend
 62
     7
370
     0
100
AcDbLine
 10
385.722262931
 20
97.8140862656
 30
0.0
 11
385.722262931
 21
74.8140862656
 31
0.0
  0
LINE
  5
303
330
2FC
100
AcDbEntity
  8
0
  6
SLD-Durchgehend
 62
     7
370
     0
100
AcDbLine
 10
281.722262931
 20
75.8140862656
 30
0.0
 11
385.722262931
 21
75.8140862656
 31
0.0
  0
MTEXT
  5
304
330
2FC
100
AcDbEntity
  8
0
  6
SLD-Durchgehend
 62
     7
370
     0
100
AcDbMText
 10
330.285312931
 20
79.6812897177
 30
0.0
 40
3.0
 41
0.0
 71
     1
 72
     1
  1
104
  7
SLDTEXTSTYLE0
 73
     1
 44
1.0
  0
ENDBLK
  5
2FE
330
2FC
100
AcDbEntity
  8
0
100
AcDbBlockEnd
  0
BLOCK
  5
308
330
307
100
AcDbEntity
  8
0
100
AcDbBlockBegin
  2
_D_8
 70
     0
 10
0.0
 20
0.0
 30
0.0
  3
_D_8
  1

  0
SOLID
  5
30A
330
307
100
AcDbEntity
  8
0
  6
SLD-Durchgehend
 62
     7
370
     0
100
AcDbTrace
 10
259.0881934854
 20
108.8140862656
 30
0.0
 11
259.5281934854
 21
111.3140862656
 31
0.0
 12
258.6481934854
 22
111.3140862656
 32
0.0
 13
258.6481934854
 23
111.3140862656
 33
0.0
  0
SOLID
  5
30B
330
307
100
AcDbEntity
  8
0
  6
SLD-Durchgehend
 62
     7
370
     0
100
AcDbTrace
 10
259.0881934854
 20
99.8140862656
 30
0.0
 11
258.6481934854
 21
97.3140862656
 31
0.0
 12
259.5281934854
 22
97.3140862656
 32
0.0
 13
259.5281934854
 23
97.3140862656
 33
0.0
  0
LINE
  5
30C
330
307
100
AcDbEntity
  8
0
  6
SLD-Durchgehend
 62
     7
370
     0
100
AcDbLine
 10
268.722262931
 20
108.8140862656
 30
0.0
 11
258.0881934854
 21
108.8140862656
 31
0.0
  0
LINE
  5
30D
330
307
100
AcDbEntity
  8
0
  6
SLD-Durchgehend
 62
     7
370
     0
100
AcDbLine
 10
268.722262931
 20
99.8140862656
 30
0.0
 11
258.0881934854
 21
99.8140862656
 31
0.0
  0
LINE
  5
30E
330
307
100
AcDbEntity
  8
0
  6
SLD-Durchgehend
 62
     7
370
     0
100
AcDbLine
 10
259.0881934854
 20
108.8140862656
 30
0.0
 11
259.0881934854
 21
112.3140862656
 31
0.0
  0
LINE
  5
30F
330
307
100
AcDbEntity
  8
0
  6
SLD-Durchgehend
 62
     7
370
     0
100
AcDbLine
 10
259.0881934854
 20
108.8140862656
 30
0.0
 11
259.0881934854
 21
99.8140862656
 31
0.0
  0
LINE
  5
310
330
307
100
AcDbEntity
  8
0
  6
SLD-Durchgehend
 62
     7
370
     0
100
AcDbLine
 10
259.0881934854
 20
99.8140862656
 30
0.0
 11
259.0881934854
 21
96.3140862656
 31
0.0
  0
MTEXT
  5
311
330
307
100
AcDbEntity
  8
0
  6
SLD-Durchgehend
 62
     7
370
     0
100
AcDbMText
 10
255.2209900332
 20
103.1689862656
 30
0.0
 40
3.0
 41
0.0
 71
     1
 72
     1
  1
9
  7
SLDTEXTSTYLE0
 11
-1.414962237524464E-14
 21
1.0
 31
0.0
 73
     1
 44
1.0
  0
ENDBLK
  5
309
330
307
100
AcDbEntity
  8
0
100
AcDbBlockEnd
  0
BLOCK
  5
314
330
313
100
AcDbEntity
  8
0
100
AcDbBlockBegin
  2
_D_9
 70
     0
 10
0.0
 20
0.0
 30
0.0
  3
_D_9
  1

  0
SOLID
  5
316
330
313
100
AcDbEntity
  8
0
  6
SLD-Durchgehend
 62
     7
370
     0
100
AcDbTrace
 10
247.9432261979
 20
122.8140862656
 30
0.0
 11
247.5032261979
 21
120.3140862656
 31
0.0
 12
248.3832261979
 22
120.3140862656
 32
0.0
 13
248.3832261979
 23
120.3140862656
 33
0.0
  0
SOLID
  5
317
330
313
100
AcDbEntity
  8
0
  6
SLD-Durchgehend
 62
     7
370
     0
100
AcDbTrace
 10
247.9432261979
 20
85.8140862656
 30
0.0
 11
248.3832261979
 21
88.3140862656
 31
0.0
 12
247.5032261979
 22
88.3140862656
 32
0.0
 13
247.5032261979
 23
88.3140862656
 33
0.0
  0
LINE
  5
318
330
313
100
AcDbEntity
  8
0
  6
SLD-Durchgehend
 62
     7
370
     0
100
AcDbLine
 10
268.722262931
 20
122.8140862656
 30
0.0
 11
246.9432261979
 21
122.8140862656
 31
0.0
  0
LINE
  5
319
330
313
100
AcDbEntity
  8
0
  6
SLD-Durchgehend
 62
     7
370
     0
100
AcDbLine
 10
268.722262931
 20
85.8140862656
 30
0.0
 11
246.9432261979
 21
85.8140862656
 31
0.0
  0
LINE
  5
31A
330
313
100
AcDbEntity
  8
0
  6
SLD-Durchgehend
 62
     7
370
     0
100
AcDbLine
 10
247.9432261979
 20
122.8140862656
 30
0.0
 11
247.9432261979
 21
85.8140862656
 31
0.0
  0
MTEXT
  5
31B
330
313
100
AcDbEntity
  8
0
  6
SLD-Durchgehend
 62
     7
370
     0
100
AcDbMText
 10
244.0760227457
 20
102.0238862656
 30
0.0
 40
3.0
 41
0.0
 71
     1
 72
     1
  1
37
  7
SLDTEXTSTYLE0
 11
-1.414962237524464E-14
 21
1.0
 31
0.0
 73
     1
 44
1.0
  0
ENDBLK
  5
315
330
313
100
AcDbEntity
  8
0
100
AcDbBlockEnd
  0
BLOCK
  5
31D
330
31C
100
AcDbEntity
  8
0
100
AcDbBlockBegin
  2
SW_CENTERMARKSYMBOL_1
 70
     0
 10
0.0
 20
0.0
 30
0.0
  3
SW_CENTERMARKSYMBOL_1
  1

  0
LINE
  5
31F
330
31C
100
AcDbEntity
  8
0
  6
SLD-Durchgehend
 62
     0
370
     0
100
AcDbLine
 10
0.0
 20
0.0
 30
0.0
 11
0.0
 21
1.0
 31
0.0
  0
LINE
  5
320
330
31C
100
AcDbEntity
  8
0
  6
SLD-Durchgehend
 62
     0
370
     0
100
AcDbLine
 10
0.0
 20
0.0
 30
0.0
 11
-1.0
 21
0.0
 31
0.0
  0
LINE
  5
321
330
31C
100
AcDbEntity
  8
0
  6
SLD-Durchgehend
 62
     0
370
     0
100
AcDbLine
 10
0.0
 20
0.0
 30
0.0
 11
0.0
 21
-1.0
 31
0.0
  0
LINE
  5
322
330
31C
100
AcDbEntity
  8
0
  6
SLD-Durchgehend
 62
     0
370
     0
100
AcDbLine
 10
0.0
 20
0.0
 30
0.0
 11
1.0
 21
0.0
 31
0.0
  0
LINE
  5
323
330
31C
100
AcDbEntity
  8
0
  6
SLD-Durchgehend
 62
     0
370
     0
100
AcDbLine
 10
0.0
 20
2.0
 30
0.0
 11
0.0
 21
5.5
 31
0.0
  0
LINE
  5
324
330
31C
100
AcDbEntity
  8
0
  6
SLD-Durchgehend
 62
     0
370
     0
100
AcDbLine
 10
-2.0
 20
0.0
 30
0.0
 11
-5.5
 21
0.0
 31
0.0
  0
LINE
  5
325
330
31C
100
AcDbEntity
  8
0
  6
SLD-Durchgehend
 62
     0
370
     0
100
AcDbLine
 10
0.0
 20
-2.0
 30
0.0
 11
0.0
 21
-5.5
 31
0.0
  0
LINE
  5
326
330
31C
100
AcDbEntity
  8
0
  6
SLD-Durchgehend
 62
     0
370
     0
100
AcDbLine
 10
2.0
 20
0.0
 30
0.0
 11
5.5
 21
0.0
 31
0.0
  0
ENDBLK
  5
31E
330
31C
100
AcDbEntity
  8
0
100
AcDbBlockEnd
  0
BLOCK
  5
329
330
328
100
AcDbEntity
  8
0
100
AcDbBlockBegin
  2
SW_CENTERMARKSYMBOL_2
 70
     0
 10
0.0
 20
0.0
 30
0.0
  3
SW_CENTERMARKSYMBOL_2
  1

  0
LINE
  5
32B
330
328
100
AcDbEntity
  8
0
  6
SLD-Durchgehend
 62
     0
370
     0
100
AcDbLine
 10
0.0
 20
0.0
 30
0.0
 11
0.0
 21
1.0
 31
0.0
  0
LINE
  5
32C
330
328
100
AcDbEntity
  8
0
  6
SLD-Durchgehend
 62
     0
370
     0
100
AcDbLine
 10
0.0
 20
0.0
 30
0.0
 11
-1.0
 21
0.0
 31
0.0
  0
LINE
  5
32D
330
328
100
AcDbEntity
  8
0
  6
SLD-Durchgehend
 62
     0
370
     0
100
AcDbLine
 10
0.0
 20
0.0
 30
0.0
 11
0.0
 21
-1.0
 31
0.0
  0
LINE
  5
32E
330
328
100
AcDbEntity
  8
0
  6
SLD-Durchgehend
 62
     0
370
     0
100
AcDbLine
 10
0.0
 20
0.0
 30
0.0
 11
1.0
 21
0.0
 31
0.0
  0
LINE
  5
32F
330
328
100
AcDbEntity
  8
0
  6
SLD-Durchgehend
 62
     0
370
     0
100
AcDbLine
 10
0.0
 20
2.0
 30
0.0
 11
0.0
 21
5.5
 31
0.0
  0
LINE
  5
330
330
328
100
AcDbEntity
  8
0
  6
SLD-Durchgehend
 62
     0
370
     0
100
AcDbLine
 10
-2.0
 20
0.0
 30
0.0
 11
-5.5
 21
0.0
 31
0.0
  0
LINE
  5
331
330
328
100
AcDbEntity
  8
0
  6
SLD-Durchgehend
 62
     0
370
     0
100
AcDbLine
 10
0.0
 20
-2.0
 30
0.0
 11
0.0
 21
-5.5
 31
0.0
  0
LINE
  5
332
330
328
100
AcDbEntity
  8
0
  6
SLD-Durchgehend
 62
     0
370
     0
100
AcDbLine
 10
2.0
 20
0.0
 30
0.0
 11
5.5
 21
0.0
 31
0.0
  0
ENDBLK
  5
32A
330
328
100
AcDbEntity
  8
0
100
AcDbBlockEnd
  0
BLOCK
  5
335
330
334
100
AcDbEntity
  8
0
100
AcDbBlockBegin
  2
SW_CENTERMARKSYMBOL_3
 70
     0
 10
0.0
 20
0.0
 30
0.0
  3
SW_CENTERMARKSYMBOL_3
  1

  0
LINE
  5
337
330
334
100
AcDbEntity
  8
0
  6
SLD-Durchgehend
 62
     0
370
     0
100
AcDbLine
 10
0.0
 20
0.0
 30
0.0
 11
0.0
 21
1.0
 31
0.0
  0
LINE
  5
338
330
334
100
AcDbEntity
  8
0
  6
SLD-Durchgehend
 62
     0
370
     0
100
AcDbLine
 10
0.0
 20
0.0
 30
0.0
 11
-1.0
 21
0.0
 31
0.0
  0
LINE
  5
339
330
334
100
AcDbEntity
  8
0
  6
SLD-Durchgehend
 62
     0
370
     0
100
AcDbLine
 10
0.0
 20
0.0
 30
0.0
 11
0.0
 21
-1.0
 31
0.0
  0
LINE
  5
33A
330
334
100
AcDbEntity
  8
0
  6
SLD-Durchgehend
 62
     0
370
     0
100
AcDbLine
 10
0.0
 20
0.0
 30
0.0
 11
1.0
 21
0.0
 31
0.0
  0
LINE
  5
33B
330
334
100
AcDbEntity
  8
0
  6
SLD-Durchgehend
 62
     0
370
     0
100
AcDbLine
 10
0.0
 20
2.0
 30
0.0
 11
0.0
 21
10.25
 31
0.0
  0
LINE
  5
33C
330
334
100
AcDbEntity
  8
0
  6
SLD-Durchgehend
 62
     0
370
     0
100
AcDbLine
 10
-2.0
 20
0.0
 30
0.0
 11
-10.25
 21
0.0
 31
0.0
  0
LINE
  5
33D
330
334
100
AcDbEntity
  8
0
  6
SLD-Durchgehend
 62
     0
370
     0
100
AcDbLine
 10
0.0
 20
-2.0
 30
0.0
 11
0.0
 21
-10.25
 31
0.0
  0
LINE
  5
33E
330
334
100
AcDbEntity
  8
0
  6
SLD-Durchgehend
 62
     0
370
     0
100
AcDbLine
 10
2.0
 20
0.0
 30
0.0
 11
10.25
 21
0.0
 31
0.0
  0
ENDBLK
  5
336
330
334
100
AcDbEntity
  8
0
100
AcDbBlockEnd
  0
BLOCK
  5
341
330
340
100
AcDbEntity
  8
0
100
AcDbBlockBegin
  2
SW_CENTERMARKSYMBOL_4
 70
     0
 10
0.0
 20
0.0
 30
0.0
  3
SW_CENTERMARKSYMBOL_4
  1

  0
LINE
  5
343
330
340
100
AcDbEntity
  8
0
  6
SLD-Durchgehend
 62
     0
370
     0
100
AcDbLine
 10
0.0
 20
0.0
 30
0.0
 11
0.0
 21
1.0
 31
0.0
  0
LINE
  5
344
330
340
100
AcDbEntity
  8
0
  6
SLD-Durchgehend
 62
     0
370
     0
100
AcDbLine
 10
0.0
 20
0.0
 30
0.0
 11
-1.0
 21
0.0
 31
0.0
  0
LINE
  5
345
330
340
100
AcDbEntity
  8
0
  6
SLD-Durchgehend
 62
     0
370
     0
100
AcDbLine
 10
0.0
 20
0.0
 30
0.0
 11
0.0
 21
-1.0
 31
0.0
  0
LINE
  5
346
330
340
100
AcDbEntity
  8
0
  6
SLD-Durchgehend
 62
     0
370
     0
100
AcDbLine
 10
0.0
 20
0.0
 30
0.0
 11
1.0
 21
0.0
 31
0.0
  0
LINE
  5
347
330
340
100
AcDbEntity
  8
0
  6
SLD-Durchgehend
 62
     0
370
     0
100
AcDbLine
 10
0.0
 20
2.0
 30
0.0
 11
0.0
 21
7.7225
 31
0.0
  0
LINE
  5
348
330
340
100
AcDbEntity
  8
0
  6
SLD-Durchgehend
 62
     0
370
     0
100
AcDbLine
 10
-2.0
 20
0.0
 30
0.0
 11
-7.7225
 21
0.0
 31
0.0
  0
LINE
  5
349
330
340
100
AcDbEntity
  8
0
  6
SLD-Durchgehend
 62
     0
370
     0
100
AcDbLine
 10
0.0
 20
-2.0
 30
0.0
 11
0.0
 21
-7.7225
 31
0.0
  0
LINE
  5
34A
330
340
100
AcDbEntity
  8
0
  6
SLD-Durchgehend
 62
     0
370
     0
100
AcDbLine
 10
2.0
 20
0.0
 30
0.0
 11
7.7225
 21
0.0
 31
0.0
  0
ENDBLK
  5
342
330
340
100
AcDbEntity
  8
0
100
AcDbBlockEnd
  0
ENDSEC
  0
SECTION
  2
ENTITIES
  0
HATCH
  5
A1
330
1F
100
AcDbEntity
  8
0
  6
Continuous
 62
    52
100
AcDbHatch
 10
0.0
 20
0.0
 30
0.0
210
0.0
220
0.0
230
1.0
  2
SOLID
 70
     1
 71
     0
 91
        1
 92
        0
 93
        6
 72
     2
 10
397.2166905884209
 20
27.19368183392314
 40
9.336383935046287
 50
28.83743273930608
 51
198.8193368338523
 73
     1
 72
     1
 10
388.3794255903911
 20
24.18190290159952
 11
388.7816097341537
 21
24.18190290159952
 72
     1
 10
388.7816097341537
 20
24.18190290159952
 11
390.8103449730125
 21
31.54854125382066
 72
     1
 10
390.8103449730125
 20
31.54854125382066
 11
392.6133250240622
 21
31.54854125382066
 72
     2
 10
398.3341692458886
 20
29.54038196427235
 40
6.063065424569007
 50
199.3423480985319
 51
339.1651749394908
 73
     0
 72
     1
 10
404.0007687940603
 20
31.69686333522489
 11
405.3952859047894
 21
31.69686333522489
 97
        0
 75
     0
 76
     1
 98
        1
 10
0.0
 20
0.0
  0
HATCH
  5
A2
330
1F
100
AcDbEntity
  8
0
  6
Continuous
 62
     7
100
AcDbHatch
 10
0.0
 20
0.0
 30
0.0
210
0.0
220
0.0
230
1.0
  2
SOLID
 70
     1
 71
     0
 91
        2
 92
        0
 93
        6
 72
     1
 10
390.9093832949075
 20
31.41854125382066
 11
392.7062226385282
 21
31.41854125382066
 72
     2
 10
398.3341692458886
 20
29.54038196427235
 40
5.933065424568984
 50
198.4548941224166
 51
340.0282228512785
 73
     0
 72
     1
 10
403.9104259280544
 20
31.56686333522489
 11
405.6123864120185
 21
31.56686333522489
 72
     2
 10
397.2166905884209
 20
27.19368183392314
 40
9.46638393504625
 50
27.51427472226174
 51
199.3834076115143
 73
     1
 72
     1
 10
388.2868725641771
 20
24.05190290159952
 11
388.8806480560487
 21
24.05190290159952
 72
     1
 10
388.8806480560487
 20
24.05190290159952
 11
390.9093832949075
 21
31.41854125382066
 97
        0
 92
        0
 93
        6
 72
     1
 10
388.7816097341537
 20
24.18190290159952
 11
388.3794255903911
 21
24.18190290159952
 72
     2
 10
397.2166905884209
 20
27.19368183392314
 40
9.336383935046287
 50
161.1806631661485
 51
331.1625672606947
 73
     0
 72
     1
 10
405.3952859047894
 20
31.69686333522489
 11
404.0007687940603
 21
31.69686333522489
 72
     2
 10
398.3341692458886
 20
29.54038196427235
 40
6.063065424569007
 50
20.83482506051003
 51
160.6576519014689
 73
     1
 72
     1
 10
392.6133250240622
 20
31.54854125382066
 11
390.8103449730125
 21
31.54854125382066
 72
     1
 10
390.8103449730125
 20
31.54854125382066
 11
388.7816097341537
 21
24.18190290159952
 97
        0
 75
     0
 76
     1
 98
        1
 10
0.0
 20
0.0
  0
HATCH
  5
A3
330
1F
100
AcDbEntity
  8
0
  6
Continuous
 62
     7
100
AcDbHatch
 10
0.0
 20
0.0
 30
0.0
210
0.0
220
0.0
230
1.0
  2
SOLID
 70
     1
 71
     0
 91
        1
 92
        0
 93
       10
 72
     1
 10
391.2557525416791
 20
31.17133921476775
 11
389.4249433061572
 21
24.10134359540109
 72
     1
 10
389.4249433061572
 20
24.10134359540109
 11
391.9979725360537
 21
24.10134359540109
 72
     1
 10
391.9979725360537
 20
24.10134359540109
 11
392.9875987755306
 21
27.90826414852663
 72
     1
 10
392.9875987755306
 20
27.90826414852663
 11
394.5215202651154
 21
24.1013435954011
 72
     1
 10
394.5215202651154
 20
24.1013435954011
 11
397.1935124966802
 21
24.1013435954011
 72
     1
 10
397.1935124966802
 20
24.1013435954011
 11
398.8758772296985
 21
31.07245782716463
 72
     1
 10
398.8758772296985
 20
31.07245782716463
 11
396.4512925023055
 21
31.07245782716463
 72
     1
 10
396.4512925023055
 20
31.07245782716463
 11
395.5606280054266
 21
27.16665660141341
 72
     1
 10
395.5606280054266
 20
27.16665660141341
 11
393.8782632724091
 21
31.17133921476775
 72
     1
 10
393.8782632724091
 20
31.17133921476775
 11
391.2557525416791
 21
31.17133921476775
 97
        0
 75
     0
 76
     1
 98
        1
 10
0.0
 20
0.0
  0
HATCH
  5
A4
330
1F
100
AcDbEntity
  8
0
  6
Continuous
 62
     7
100
AcDbHatch
 10
0.0
 20
0.0
 30
0.0
210
0.0
220
0.0
230
1.0
  2
SOLID
 70
     1
 71
     0
 91
        2
 92
        0
 93
        3
 72
     1
 10
393.1360432780339
 20
26.3261669517193
 11
392.5549013500252
 21
24.05190290159952
 72
     1
 10
392.5549013500252
 20
24.05190290159952
 11
394.0761880166766
 21
24.05190290159952
 72
     1
 10
394.0761880166766
 20
24.05190290159952
 11
393.1360432780339
 21
26.3261669517193
 97
        0
 92
        0
 93
        3
 72
     1
 10
393.8817783160101
 20
24.18190290159951
 11
392.7222972997866
 21
24.18190290159952
 72
     1
 10
392.7222972997866
 20
24.18190290159952
 11
393.1652269908361
 21
25.91528165906799
 72
     1
 10
393.1652269908361
 20
25.91528165906799
 11
393.8817783160101
 21
24.18190290159951
 97
        0
 75
     0
 76
     1
 98
        1
 10
0.0
 20
0.0
  0
HATCH
  5
A5
330
1F
100
AcDbEntity
  8
0
  6
Continuous
 62
    52
100
AcDbHatch
 10
0.0
 20
0.0
 30
0.0
210
0.0
220
0.0
230
1.0
  2
SOLID
 70
     1
 71
     0
 91
        1
 92
        0
 93
        3
 72
     1
 10
393.1652269908361
 20
25.91528165906799
 11
392.7222972997866
 21
24.18190290159952
 72
     1
 10
392.7222972997866
 20
24.18190290159952
 11
393.8817783160101
 21
24.18190290159951
 72
     1
 10
393.8817783160101
 20
24.18190290159951
 11
393.1652269908361
 21
25.91528165906799
 97
        0
 75
     0
 76
     1
 98
        1
 10
0.0
 20
0.0
  0
HATCH
  5
A6
330
1F
100
AcDbEntity
  8
0
  6
Continuous
 62
     7
100
AcDbHatch
 10
0.0
 20
0.0
 30
0.0
210
0.0
220
0.0
230
1.0
  2
SOLID
 70
     1
 71
     0
 91
        1
 92
        0
 93
        8
 72
     1
 10
399.4696539806409
 20
31.12189852096661
 11
398.7274339862658
 21
28.25434757518244
 72
     1
 10
398.7274339862658
 20
28.25434757518244
 11
399.1727662347047
 21
24.00246292277559
 72
     1
 10
399.1727662347047
 20
24.00246292277559
 11
402.3395709564733
 21
24.00246292277559
 72
     1
 10
402.3395709564733
 20
24.00246292277559
 11
406.5454846776286
 21
31.07245782718087
 72
     1
 10
406.5454846776286
 20
31.07245782718087
 11
403.7745294443889
 21
31.07245782718087
 72
     1
 10
403.7745294443889
 20
31.07245782718087
 11
401.5478694612618
 21
27.0677752138452
 72
     1
 10
401.5478694612618
 20
27.0677752138452
 11
401.0530569710604
 21
31.12189852096661
 72
     1
 10
401.0530569710604
 20
31.12189852096661
 11
399.4696539806409
 21
31.12189852096661
 97
        0
 75
     0
 76
     1
 98
        1
 10
0.0
 20
0.0
  0
HATCH
  5
A7
330
1F
100
AcDbEntity
  8
0
  6
Continuous
 62
     7
100
AcDbHatch
 10
0.0
 20
0.0
 30
0.0
210
0.0
220
0.0
230
1.0
  2
SOLID
 70
     1
 71
     0
 91
        2
 92
        0
 93
        3
 72
     2
 10
398.60159497708
 20
26.88049322517953
 40
8.003675602344106
 50
339.303884922883
 51
377.0191257258724
 73
     1
 72
     1
 10
406.2547664701381
 20
29.22309631691353
 11
403.0323094500141
 21
24.05190290159952
 72
     1
 10
403.0323094500141
 20
24.05190290159952
 11
406.0887773529079
 21
24.05190290159952
 97
        0
 92
        0
 93
        3
 72
     1
 10
403.2664948845861
 20
24.18190290159952
 11
406.2102984795193
 21
28.90593107979706
 72
     2
 10
398.60159497708
 20
26.88049322517953
 40
7.873675602344119
 50
345.0935417050616
 51
380.0436402959713
 73
     0
 72
     1
 10
405.99837655804
 20
24.18190290159952
 11
403.2664948845861
 21
24.18190290159952
 97
        0
 75
     0
 76
     1
 98
        1
 10
0.0
 20
0.0
  0
HATCH
  5
A8
330
1F
100
AcDbEntity
  8
0
  6
Continuous
 62
    52
100
AcDbHatch
 10
0.0
 20
0.0
 30
0.0
210
0.0
220
0.0
230
1.0
  2
SOLID
 70
     1
 71
     0
 91
        1
 92
        0
 93
        3
 72
     2
 10
398.60159497708
 20
26.88049322517953
 40
7.873675602344119
 50
339.9563597040303
 51
374.90645829494
 73
     1
 72
     1
 10
406.2102984795193
 20
28.90593107979706
 11
403.2664948845861
 21
24.18190290159952
 72
     1
 10
403.2664948845861
 20
24.18190290159952
 11
405.99837655804
 21
24.18190290159952
 97
        0
 75
     0
 76
     1
 98
        1
 10
0.0
 20
0.0
  0
LINE
  5
A9
330
1F
100
AcDbEntity
  8
0
  6
SLD-Durchgehend
 62
     7
370
     0
100
AcDbLine
 10
222.0
 20
45.0
 30
0.0
 11
222.0
 21
10.0
 31
0.0
  0
LINE
  5
AA
330
1F
100
AcDbEntity
  8
0
  6
SLD-Durchgehend
 62
     7
370
     0
100
AcDbLine
 10
410.0
 20
65.0
 30
0.0
 11
410.0
 21
10.0
 31
0.0
  0
LINE
  5
AB
330
1F
100
AcDbEntity
  8
0
  6
SLD-Durchgehend
 62
     7
370
     0
100
AcDbLine
 10
222.0
 20
10.0
 30
0.0
 11
410.0
 21
10.0
 31
0.0
  0
LINE
  5
AC
330
1F
100
AcDbEntity
  8
0
  6
SLD-Durchgehend
 62
     7
370
     0
100
AcDbLine
 10
222.0
 20
10.0
 30
0.0
 11
410.0
 21
10.0
 31
0.0
  0
LINE
  5
AD
330
1F
100
AcDbEntity
  8
0
  6
SLD-Durchgehend
 62
     7
370
     0
100
AcDbLine
 10
410.0
 20
45.0
 30
0.0
 11
410.0
 21
10.0
 31
0.0
  0
LINE
  5
AE
330
1F
100
AcDbEntity
  8
0
  6
SLD-Durchgehend
 62
     7
370
     0
100
AcDbLine
 10
222.0
 20
45.0
 30
0.0
 11
410.0
 21
45.0
 31
0.0
  0
LINE
  5
AF
330
1F
100
AcDbEntity
  8
0
  6
SLD-Durchgehend
 62
     7
370
     0
100
AcDbLine
 10
345.0
 20
45.0
 30
0.0
 11
345.0
 21
10.0
 31
0.0
  0
LINE
  5
B0
330
1F
100
AcDbEntity
  8
0
  6
SLD-Durchgehend
 62
     7
370
     0
100
AcDbLine
 10
274.0
 20
45.0
 30
0.0
 11
274.0
 21
10.0
 31
0.0
  0
LINE
  5
B1
330
1F
100
AcDbEntity
  8
0
  6
SLD-Durchgehend
 62
     7
370
     0
100
AcDbLine
 10
222.0
 20
24.5
 30
0.0
 11
274.0
 21
24.5
 31
0.0
  0
LINE
  5
B2
330
1F
100
AcDbEntity
  8
0
  6
SLD-Durchgehend
 62
     7
370
     0
100
AcDbLine
 10
222.0
 20
17.25
 30
0.0
 11
274.0
 21
17.25
 31
0.0
  0
LINE
  5
B3
330
1F
100
AcDbEntity
  8
0
  6
SLD-Durchgehend
 62
     7
370
     0
100
AcDbLine
 10
388.2868725642
 20
24.0519029016
 30
0.0
 11
388.880648056
 21
24.0519029016
 31
0.0
  0
LINE
  5
B4
330
1F
100
AcDbEntity
  8
0
  6
SLD-Durchgehend
 62
     7
370
     0
100
AcDbLine
 10
388.880648056
 20
24.0519029016
 30
0.0
 11
390.9093832949
 21
31.4185412538
 31
0.0
  0
LINE
  5
B5
330
1F
100
AcDbEntity
  8
0
  6
SLD-Durchgehend
 62
     7
370
     0
100
AcDbLine
 10
390.9093832949
 20
31.4185412538
 30
0.0
 11
392.7062226385
 21
31.4185412538
 31
0.0
  0
LINE
  5
B6
330
1F
100
AcDbEntity
  8
0
  6
SLD-Durchgehend
 62
     7
370
     0
100
AcDbLine
 10
403.9104259281
 20
31.5668633352
 30
0.0
 11
405.612386412
 21
31.5668633352
 31
0.0
  0
LINE
  5
B7
330
1F
100
AcDbEntity
  8
0
  6
SLD-Durchgehend
 62
     7
370
     0
100
AcDbLine
 10
391.2557525417
 20
31.1713392148
 30
0.0
 11
393.8782632724
 21
31.1713392148
 31
0.0
  0
LINE
  5
B8
330
1F
100
AcDbEntity
  8
0
  6
SLD-Durchgehend
 62
     7
370
     0
100
AcDbLine
 10
393.8782632724
 20
31.1713392148
 30
0.0
 11
395.5606280054
 21
27.1666566014
 31
0.0
  0
LINE
  5
B9
330
1F
100
AcDbEntity
  8
0
  6
SLD-Durchgehend
 62
     7
370
     0
100
AcDbLine
 10
395.5606280054
 20
27.1666566014
 30
0.0
 11
396.4512925023
 21
31.0724578272
 31
0.0
  0
LINE
  5
BA
330
1F
100
AcDbEntity
  8
0
  6
SLD-Durchgehend
 62
     7
370
     0
100
AcDbLine
 10
396.4512925023
 20
31.0724578272
 30
0.0
 11
398.8758772297
 21
31.0724578272
 31
0.0
  0
LINE
  5
BB
330
1F
100
AcDbEntity
  8
0
  6
SLD-Durchgehend
 62
     7
370
     0
100
AcDbLine
 10
398.8758772297
 20
31.0724578272
 30
0.0
 11
397.1935124967
 21
24.1013435954
 31
0.0
  0
LINE
  5
BC
330
1F
100
AcDbEntity
  8
0
  6
SLD-Durchgehend
 62
     7
370
     0
100
AcDbLine
 10
397.1935124967
 20
24.1013435954
 30
0.0
 11
394.5215202651
 21
24.1013435954
 31
0.0
  0
LINE
  5
BD
330
1F
100
AcDbEntity
  8
0
  6
SLD-Durchgehend
 62
     7
370
     0
100
AcDbLine
 10
394.5215202651
 20
24.1013435954
 30
0.0
 11
392.9875987755
 21
27.9082641485
 31
0.0
  0
LINE
  5
BE
330
1F
100
AcDbEntity
  8
0
  6
SLD-Durchgehend
 62
     7
370
     0
100
AcDbLine
 10
392.9875987755
 20
27.9082641485
 30
0.0
 11
391.9979725361
 21
24.1013435954
 31
0.0
  0
LINE
  5
BF
330
1F
100
AcDbEntity
  8
0
  6
SLD-Durchgehend
 62
     7
370
     0
100
AcDbLine
 10
391.9979725361
 20
24.1013435954
 30
0.0
 11
389.4249433062
 21
24.1013435954
 31
0.0
  0
LINE
  5
C0
330
1F
100
AcDbEntity
  8
0
  6
SLD-Durchgehend
 62
     7
370
     0
100
AcDbLine
 10
389.4249433062
 20
24.1013435954
 30
0.0
 11
391.2557525417
 21
31.1713392148
 31
0.0
  0
LINE
  5
C1
330
1F
100
AcDbEntity
  8
0
  6
SLD-Durchgehend
 62
     7
370
     0
100
AcDbLine
 10
393.136043278
 20
26.3261669517
 30
0.0
 11
394.0761880167
 21
24.0519029016
 31
0.0
  0
LINE
  5
C2
330
1F
100
AcDbEntity
  8
0
  6
SLD-Durchgehend
 62
     7
370
     0
100
AcDbLine
 10
394.0761880167
 20
24.0519029016
 30
0.0
 11
392.55490135
 21
24.0519029016
 31
0.0
  0
LINE
  5
C3
330
1F
100
AcDbEntity
  8
0
  6
SLD-Durchgehend
 62
     7
370
     0
100
AcDbLine
 10
392.55490135
 20
24.0519029016
 30
0.0
 11
393.136043278
 21
26.3261669517
 31
0.0
  0
LINE
  5
C4
330
1F
100
AcDbEntity
  8
0
  6
SLD-Durchgehend
 62
     7
370
     0
100
AcDbLine
 10
399.4696539806
 20
31.121898521
 30
0.0
 11
401.0530569711
 21
31.121898521
 31
0.0
  0
LINE
  5
C5
330
1F
100
AcDbEntity
  8
0
  6
SLD-Durchgehend
 62
     7
370
     0
100
AcDbLine
 10
401.0530569711
 20
31.121898521
 30
0.0
 11
401.5478694613
 21
27.0677752138
 31
0.0
  0
LINE
  5
C6
330
1F
100
AcDbEntity
  8
0
  6
SLD-Durchgehend
 62
     7
370
     0
100
AcDbLine
 10
222.0
 20
10.0
 30
0.0
 11
410.0
 21
10.0
 31
0.0
  0
LINE
  5
C7
330
1F
100
AcDbEntity
  8
0
  6
SLD-Durchgehend
 62
     7
370
     0
100
AcDbLine
 10
401.5478694613
 20
27.0677752138
 30
0.0
 11
403.7745294444
 21
31.0724578272
 31
0.0
  0
LINE
  5
C8
330
1F
100
AcDbEntity
  8
0
  6
SLD-Durchgehend
 62
     7
370
     0
100
AcDbLine
 10
403.7745294444
 20
31.0724578272
 30
0.0
 11
406.5454846776
 21
31.0724578272
 31
0.0
  0
LINE
  5
C9
330
1F
100
AcDbEntity
  8
0
  6
SLD-Durchgehend
 62
     7
370
     0
100
AcDbLine
 10
406.5454846776
 20
31.0724578272
 30
0.0
 11
402.3395709565
 21
24.0024629228
 31
0.0
  0
LINE
  5
CA
330
1F
100
AcDbEntity
  8
0
  6
SLD-Durchgehend
 62
     7
370
     0
100
AcDbLine
 10
402.3395709565
 20
24.0024629228
 30
0.0
 11
399.1727662347
 21
24.0024629228
 31
0.0
  0
LINE
  5
CB
330
1F
100
AcDbEntity
  8
0
  6
SLD-Durchgehend
 62
     7
370
     0
100
AcDbLine
 10
399.1727662347
 20
24.0024629228
 30
0.0
 11
398.7274339863
 21
28.2543475752
 31
0.0
  0
LINE
  5
CC
330
1F
100
AcDbEntity
  8
0
  6
SLD-Durchgehend
 62
     7
370
     0
100
AcDbLine
 10
398.7274339863
 20
28.2543475752
 30
0.0
 11
399.4696539806
 21
31.121898521
 31
0.0
  0
LINE
  5
CD
330
1F
100
AcDbEntity
  8
0
  6
SLD-Durchgehend
 62
     7
370
     0
100
AcDbLine
 10
403.03230945
 20
24.0519029016
 30
0.0
 11
406.2547664701
 21
29.2230963169
 31
0.0
  0
LINE
  5
CE
330
1F
100
AcDbEntity
  8
0
  6
SLD-Durchgehend
 62
     7
370
     0
100
AcDbLine
 10
403.03230945
 20
24.0519029016
 30
0.0
 11
406.0887773529
 21
24.0519029016
 31
0.0
  0
LINE
  5
CF
330
1F
100
AcDbEntity
  8
0
  6
SLD-Durchgehend
 62
     7
370
     0
100
AcDbLine
 10
403.2664948846
 20
24.1819029016
 30
0.0
 11
405.998376558
 21
24.1819029016
 31
0.0
  0
LINE
  5
D0
330
1F
100
AcDbEntity
  8
0
  6
SLD-Durchgehend
 62
     7
370
     0
100
AcDbLine
 10
222.0
 20
10.0
 30
0.0
 11
410.0
 21
10.0
 31
0.0
  0
LINE
  5
D1
330
1F
100
AcDbEntity
  8
0
  6
SLD-Durchgehend
 62
     7
370
     0
100
AcDbLine
 10
410.0
 20
42.5
 30
0.0
 11
410.0
 21
10.0
 31
0.0
  0
LINE
  5
D2
330
1F
100
AcDbEntity
  8
0
  6
SLD-Durchgehend
 62
     7
370
     0
100
AcDbLine
 10
403.2664948846
 20
24.1819029016
 30
0.0
 11
406.2102984795
 21
28.9059310798
 31
0.0
  0
LINE
  5
D3
330
1F
100
AcDbEntity
  8
0
  6
SLD-Durchgehend
 62
     7
370
     0
100
AcDbLine
 10
404.0007687941
 20
31.6968633352
 30
0.0
 11
405.3952859048
 21
31.6968633352
 31
0.0
  0
LINE
  5
D4
330
1F
100
AcDbEntity
  8
0
  6
SLD-Durchgehend
 62
     7
370
     0
100
AcDbLine
 10
388.3794255904
 20
24.1819029016
 30
0.0
 11
388.7816097342
 21
24.1819029016
 31
0.0
  0
LINE
  5
D5
330
1F
100
AcDbEntity
  8
0
  6
SLD-Durchgehend
 62
     7
370
     0
100
AcDbLine
 10
388.7816097342
 20
24.1819029016
 30
0.0
 11
390.810344973
 21
31.5485412538
 31
0.0
  0
LINE
  5
D6
330
1F
100
AcDbEntity
  8
0
  6
SLD-Durchgehend
 62
     7
370
     0
100
AcDbLine
 10
390.810344973
 20
31.5485412538
 30
0.0
 11
392.6133250241
 21
31.5485412538
 31
0.0
  0
LINE
  5
D7
330
1F
100
AcDbEntity
  8
0
  6
SLD-Durchgehend
 62
     7
370
     0
100
AcDbLine
 10
393.1652269908
 20
25.9152816591
 30
0.0
 11
393.881778316
 21
24.1819029016
 31
0.0
  0
LINE
  5
D8
330
1F
100
AcDbEntity
  8
0
  6
SLD-Durchgehend
 62
     7
370
     0
100
AcDbLine
 10
393.881778316
 20
24.1819029016
 30
0.0
 11
392.7222972998
 21
24.1819029016
 31
0.0
  0
LINE
  5
D9
330
1F
100
AcDbEntity
  8
0
  6
SLD-Durchgehend
 62
     7
370
     0
100
AcDbLine
 10
392.7222972998
 20
24.1819029016
 30
0.0
 11
393.1652269908
 21
25.9152816591
 31
0.0
  0
LINE
  5
DA
330
1F
100
AcDbEntity
  8
0
  6
SLD-Durchgehend
 62
     7
370
     0
100
AcDbLine
 10
410.0
 20
50.5
 30
0.0
 11
410.0
 21
42.5
 31
0.0
  0
LINE
  5
DB
330
1F
100
AcDbEntity
  8
0
  6
SLD-Durchgehend
 62
     7
370
     0
100
AcDbLine
 10
410.0
 20
73.0
 30
0.0
 11
410.0
 21
65.0
 31
0.0
  0
LINE
  5
DC
330
1F
100
AcDbEntity
  8
0
  6
SLD-Durchgehend
 62
     7
370
     0
100
AcDbLine
 10
260.0
 20
10.0
 30
0.0
 11
260.0
 21
5.0
 31
0.0
  0
LINE
  5
DD
330
1F
100
AcDbEntity
  8
0
  6
SLD-Durchgehend
 62
     7
370
     0
100
AcDbLine
 10
410.0
 20
287.0
 30
0.0
 11
10.0
 21
287.0
 31
0.0
  0
LINE
  5
DE
330
1F
100
AcDbEntity
  8
0
  6
SLD-Durchgehend
 62
     7
370
     0
100
AcDbLine
 10
10.0
 20
10.0
 30
0.0
 11
410.0
 21
10.0
 31
0.0
  0
LINE
  5
DF
330
1F
100
AcDbEntity
  8
0
  6
SLD-Durchgehend
 62
     7
370
     0
100
AcDbLine
 10
5.0
 20
5.0
 30
0.0
 11
415.0
 21
5.0
 31
0.0
  0
LINE
  5
E0
330
1F
100
AcDbEntity
  8
0
  6
SLD-Durchgehend
 62
     7
370
     0
100
AcDbLine
 10
415.0
 20
292.0
 30
0.0
 11
5.0
 21
292.0
 31
0.0
  0
LINE
  5
E1
330
1F
100
AcDbEntity
  8
0
  6
SLD-Durchgehend
 62
     7
370
     0
100
AcDbLine
 10
310.0
 20
10.0
 30
0.0
 11
310.0
 21
5.0
 31
0.0
  0
LINE
  5
E2
330
1F
100
AcDbEntity
  8
0
  6
SLD-Durchgehend
 62
     7
370
     0
100
AcDbLine
 10
5.0
 20
292.0
 30
0.0
 11
5.0
 21
5.0
 31
0.0
  0
LINE
  5
E3
330
1F
100
AcDbEntity
  8
0
  6
SLD-Durchgehend
 62
     7
370
     0
100
AcDbLine
 10
10.0
 20
287.0
 30
0.0
 11
10.0
 21
191.5
 31
0.0
  0
LINE
  5
E4
330
1F
100
AcDbEntity
  8
0
  6
SLD-Durchgehend
 62
     7
370
     0
100
AcDbLine
 10
60.0
 20
10.0
 30
0.0
 11
60.0
 21
5.0
 31
0.0
  0
LINE
  5
E5
330
1F
100
AcDbEntity
  8
0
  6
SLD-Durchgehend
 62
     7
370
     0
100
AcDbLine
 10
10.0
 20
56.166
 30
0.0
 11
5.0
 21
56.166
 31
0.0
  0
LINE
  5
E6
330
1F
100
AcDbEntity
  8
0
  6
SLD-Durchgehend
 62
     7
370
     0
100
AcDbLine
 10
10.0
 20
102.332
 30
0.0
 11
5.0
 21
102.332
 31
0.0
  0
LINE
  5
E7
330
1F
100
AcDbEntity
  8
0
  6
SLD-Durchgehend
 62
     7
370
     0
100
AcDbLine
 10
10.0
 20
148.498
 30
0.0
 11
5.0
 21
148.498
 31
0.0
  0
LINE
  5
E8
330
1F
100
AcDbEntity
  8
0
  6
SLD-Durchgehend
 62
     7
370
     0
100
AcDbLine
 10
110.0
 20
10.0
 30
0.0
 11
110.0
 21
5.0
 31
0.0
  0
LINE
  5
E9
330
1F
100
AcDbEntity
  8
0
  6
SLD-Durchgehend
 62
     7
370
     0
100
AcDbLine
 10
360.0
 20
10.0
 30
0.0
 11
360.0
 21
5.0
 31
0.0
  0
LINE
  5
EA
330
1F
100
AcDbEntity
  8
0
  6
SLD-Durchgehend
 62
     7
370
     0
100
AcDbLine
 10
210.0
 20
10.0
 30
0.0
 11
210.0
 21
5.0
 31
0.0
  0
LINE
  5
EB
330
1F
100
AcDbEntity
  8
0
  6
SLD-Durchgehend
 62
     7
370
     0
100
AcDbLine
 10
160.0
 20
10.0
 30
0.0
 11
160.0
 21
5.0
 31
0.0
  0
LINE
  5
EC
330
1F
100
AcDbEntity
  8
0
  6
SLD-Durchgehend
 62
     7
370
     0
100
AcDbLine
 10
10.0
 20
194.664
 30
0.0
 11
5.0
 21
194.664
 31
0.0
  0
LINE
  5
ED
330
1F
100
AcDbEntity
  8
0
  6
SLD-Durchgehend
 62
     7
370
     0
100
AcDbLine
 10
10.0
 20
240.83
 30
0.0
 11
5.0
 21
240.83
 31
0.0
  0
LINE
  5
EE
330
1F
100
AcDbEntity
  8
0
  6
SLD-Durchgehend
 62
     7
370
     0
100
AcDbLine
 10
60.0
 20
292.0
 30
0.0
 11
60.0
 21
287.0
 31
0.0
  0
LINE
  5
EF
330
1F
100
AcDbEntity
  8
0
  6
SLD-Durchgehend
 62
     7
370
     0
100
AcDbLine
 10
110.0
 20
292.0
 30
0.0
 11
110.0
 21
287.0
 31
0.0
  0
LINE
  5
F0
330
1F
100
AcDbEntity
  8
0
  6
SLD-Durchgehend
 62
     7
370
     0
100
AcDbLine
 10
210.0
 20
292.0
 30
0.0
 11
210.0
 21
287.0
 31
0.0
  0
LINE
  5
F1
330
1F
100
AcDbEntity
  8
0
  6
SLD-Durchgehend
 62
     7
370
     0
100
AcDbLine
 10
160.0
 20
292.0
 30
0.0
 11
160.0
 21
287.0
 31
0.0
  0
LINE
  5
F2
330
1F
100
AcDbEntity
  8
0
  6
SLD-Durchgehend
 62
     7
370
     0
100
AcDbLine
 10
410.0
 20
287.0
 30
0.0
 11
410.0
 21
10.0
 31
0.0
  0
LINE
  5
F3
330
1F
100
AcDbEntity
  8
0
  6
SLD-Durchgehend
 62
     7
370
     0
100
AcDbLine
 10
415.0
 20
292.0
 30
0.0
 11
415.0
 21
5.0
 31
0.0
  0
LINE
  5
F4
330
1F
100
AcDbEntity
  8
0
  6
SLD-Durchgehend
 62
     7
370
     0
100
AcDbLine
 10
415.0
 20
56.166
 30
0.0
 11
410.0
 21
56.166
 31
0.0
  0
LINE
  5
F5
330
1F
100
AcDbEntity
  8
0
  6
SLD-Durchgehend
 62
     7
370
     0
100
AcDbLine
 10
415.0
 20
102.332
 30
0.0
 11
410.0
 21
102.332
 31
0.0
  0
LINE
  5
F6
330
1F
100
AcDbEntity
  8
0
  6
SLD-Durchgehend
 62
     7
370
     0
100
AcDbLine
 10
415.0
 20
148.498
 30
0.0
 11
410.0
 21
148.498
 31
0.0
  0
LINE
  5
F7
330
1F
100
AcDbEntity
  8
0
  6
SLD-Durchgehend
 62
     7
370
     0
100
AcDbLine
 10
260.0
 20
292.0
 30
0.0
 11
260.0
 21
287.0
 31
0.0
  0
LINE
  5
F8
330
1F
100
AcDbEntity
  8
0
  6
SLD-Durchgehend
 62
     7
370
     0
100
AcDbLine
 10
310.0
 20
292.0
 30
0.0
 11
310.0
 21
287.0
 31
0.0
  0
LINE
  5
F9
330
1F
100
AcDbEntity
  8
0
  6
SLD-Durchgehend
 62
     7
370
     0
100
AcDbLine
 10
415.0
 20
194.664
 30
0.0
 11
410.0
 21
194.664
 31
0.0
  0
LINE
  5
FA
330
1F
100
AcDbEntity
  8
0
  6
SLD-Durchgehend
 62
     7
370
     0
100
AcDbLine
 10
415.0
 20
240.83
 30
0.0
 11
410.0
 21
240.83
 31
0.0
  0
LINE
  5
FB
330
1F
100
AcDbEntity
  8
0
  6
SLD-Durchgehend
 62
     7
370
     0
100
AcDbLine
 10
360.0
 20
292.0
 30
0.0
 11
360.0
 21
287.0
 31
0.0
  0
LINE
  5
FC
330
1F
100
AcDbEntity
  8
0
  6
SLD-Durchgehend
 62
     7
370
     0
100
AcDbLine
 10
222.0
 20
5.0
 30
0.0
 11
222.0
 21
0.0
 31
0.0
  0
LINE
  5
FD
330
1F
100
AcDbEntity
  8
0
  6
SLD-Durchgehend
 62
     7
370
     0
100
AcDbLine
 10
120.0
 20
5.0
 30
0.0
 11
120.0
 21
0.0
 31
0.0
  0
LINE
  5
FE
330
1F
100
AcDbEntity
  8
0
  6
SLD-Durchgehend
 62
     7
370
     0
100
AcDbLine
 10
120.0
 20
292.0
 30
0.0
 11
120.0
 21
297.0
 31
0.0
  0
LINE
  5
FF
330
1F
100
AcDbEntity
  8
0
  6
SLD-Durchgehend
 62
     7
370
     0
100
AcDbLine
 10
222.0
 20
292.0
 30
0.0
 11
222.0
 21
297.0
 31
0.0
  0
LINE
  5
100
330
1F
100
AcDbEntity
  8
0
  6
SLD-Durchgehend
 62
     7
370
     0
100
AcDbLine
 10
5.0
 20
148.5
 30
0.0
 11
0.0
 21
148.5
 31
0.0
  0
LINE
  5
101
330
1F
100
AcDbEntity
  8
0
  6
SLD-Durchgehend
 62
     7
370
     0
100
AcDbLine
 10
10.0
 20
185.5
 30
0.0
 11
10.0
 21
111.5
 31
0.0
  0
LINE
  5
102
330
1F
100
AcDbEntity
  8
0
  6
SLD-Durchgehend
 62
     7
370
     0
100
AcDbLine
 10
10.0
 20
105.5
 30
0.0
 11
10.0
 21
10.0
 31
0.0
  0
LINE
  5
103
330
1F
100
AcDbEntity
  8
0
  6
SLD-Durchgehend
 62
     7
370
     0
100
AcDbLine
 10
222.0
 20
31.75
 30
0.0
 11
274.0
 21
31.75
 31
0.0
  0
LINE
  5
104
330
1F
100
AcDbEntity
  8
0
  6
SLD-Durchgehend
 62
     7
370
     0
100
AcDbLine
 10
0.0
 20
0.0
 30
0.0
 11
420.0
 21
0.0
 31
0.0
  0
LINE
  5
105
330
1F
100
AcDbEntity
  8
0
  6
SLD-Durchgehend
 62
     7
370
     0
100
AcDbLine
 10
0.0
 20
0.0
 30
0.0
 11
0.0
 21
297.0
 31
0.0
  0
LINE
  5
106
330
1F
100
AcDbEntity
  8
0
  6
SLD-Durchgehend
 62
     7
370
     0
100
AcDbLine
 10
0.0
 20
297.0
 30
0.0
 11
420.0
 21
297.0
 31
0.0
  0
LINE
  5
107
330
1F
100
AcDbEntity
  8
0
  6
SLD-Durchgehend
 62
     7
370
     0
100
AcDbLine
 10
420.0
 20
0.0
 30
0.0
 11
420.0
 21
297.0
 31
0.0
  0
CIRCLE
  5
108
330
1F
100
AcDbEntity
  8
0
  6
SLD-Durchgehend
 62
     7
370
     0
100
AcDbCircle
 10
10.0
 20
188.5
 30
0.0
 40
3.000000000000001
  0
CIRCLE
  5
109
330
1F
100
AcDbEntity
  8
0
  6
SLD-Durchgehend
 62
     7
370
     0
100
AcDbCircle
 10
10.0
 20
108.5
 30
0.0
 40
3.000000000000005
  0
ARC
  5
10A
330
1F
100
AcDbEntity
  8
0
  6
SLD-Durchgehend
 62
     7
370
     0
100
AcDbCircle
 10
397.2166905884
 20
27.1936818339
 30
0.0
 40
9.466383935046306
100
AcDbArc
 50
27.5142747223
 51
199.3834076115
  0
ARC
  5
10B
330
1F
100
AcDbEntity
  8
0
  6
SLD-Durchgehend
 62
     7
370
     0
100
AcDbCircle
 10
398.3341692459
 20
29.5403819643
 30
0.0
 40
5.933065424568992
100
AcDbArc
 50
19.9717771487
 51
161.5451058776
  0
ARC
  5
10C
330
1F
100
AcDbEntity
  8
0
  6
SLD-Durchgehend
 62
     7
370
     0
100
AcDbCircle
 10
398.6015949771
 20
26.8804932252
 30
0.0
 40
8.003675602344112
100
AcDbArc
 50
339.3038849229
 51
17.0191257259
  0
CIRCLE
  5
10D
330
1F
100
AcDbEntity
  8
0
  6
SLD-Durchgehend
 62
     7
370
     0
100
AcDbCircle
 10
407.3866676737
 20
30.5286123403
 30
0.0
 40
0.6921638106894162
  0
ARC
  5
10E
330
1F
100
AcDbEntity
  8
0
  6
SLD-Durchgehend
 62
     7
370
     0
100
AcDbCircle
 10
398.6015949771
 20
26.8804932252
 30
0.0
 40
7.873675602344121
100
AcDbArc
 50
339.956359704
 51
14.9064582949
  0
ARC
  5
10F
330
1F
100
AcDbEntity
  8
0
  6
SLD-Durchgehend
 62
     7
370
     0
100
AcDbCircle
 10
398.3341692459
 20
29.5403819643
 30
0.0
 40
6.063065424569016
100
AcDbArc
 50
20.8348250605
 51
160.6576519015
  0
ARC
  5
110
330
1F
100
AcDbEntity
  8
0
  6
SLD-Durchgehend
 62
     7
370
     0
100
AcDbCircle
 10
397.2166905884
 20
27.1936818339
 30
0.0
 40
9.336383935046333
100
AcDbArc
 50
28.8374327393
 51
198.8193368339
  0
MTEXT
  5
111
330
1F
100
AcDbEntity
  8
0
  6
Continuous
 62
     7
370
     0
100
AcDbMText
 10
5.7028577714
 20
34.989604144
 30
0.0
 40
4.0
 41
0.0
 71
     1
 72
     1
  1
A
  7
SLDTEXTSTYLE0
 73
     1
 44
1.0
  0
MTEXT
  5
112
330
1F
100
AcDbEntity
  8
0
  6
Continuous
 62
     7
370
     0
100
AcDbMText
 10
33.5
 20
9.489604144
 30
0.0
 40
4.0
 41
0.0
 71
     1
 72
     1
  1
8
  7
SLDTEXTSTYLE0
 73
     1
 44
1.0
  0
MTEXT
  5
113
330
1F
100
AcDbEntity
  8
0
  6
Continuous
 62
     7
370
     0
100
AcDbMText
 10
5.7622862171
 20
80.989604144
 30
0.0
 40
4.0
 41
0.0
 71
     1
 72
     1
  1
B
  7
SLDTEXTSTYLE0
 73
     1
 44
1.0
  0
MTEXT
  5
114
330
1F
100
AcDbEntity
  8
0
  6
Continuous
 62
     7
370
     0
100
AcDbMText
 10
5.6317379175
 20
126.8054731028
 30
0.0
 40
4.0
 41
0.0
 71
     1
 72
     1
  1
C
  7
SLDTEXTSTYLE0
 73
     1
 44
1.0
  0
MTEXT
  5
115
330
1F
100
AcDbEntity
  8
0
  6
Continuous
 62
     7
370
     0
100
AcDbMText
 10
133.5
 20
9.489604144
 30
0.0
 40
4.0
 41
0.0
 71
     1
 72
     1
  1
6
  7
SLDTEXTSTYLE0
 73
     1
 44
1.0
  0
MTEXT
  5
116
330
1F
100
AcDbEntity
  8
0
  6
Continuous
 62
     7
370
     0
100
AcDbMText
 10
83.5
 20
9.489604144
 30
0.0
 40
4.0
 41
0.0
 71
     1
 72
     1
  1
7
  7
SLDTEXTSTYLE0
 73
     1
 44
1.0
  0
MTEXT
  5
117
330
1F
100
AcDbEntity
  8
0
  6
Continuous
 62
     7
370
     0
100
AcDbMText
 10
183.5
 20
9.489604144
 30
0.0
 40
4.0
 41
0.0
 71
     1
 72
     1
  1
5
  7
SLDTEXTSTYLE0
 73
     1
 44
1.0
  0
MTEXT
  5
118
330
1F
100
AcDbEntity
  8
0
  6
Continuous
 62
     7
370
     0
100
AcDbMText
 10
5.5396723969
 20
173.989604144
 30
0.0
 40
4.0
 41
0.0
 71
     1
 72
     1
  1
D
  7
SLDTEXTSTYLE0
 73
     1
 44
1.0
  0
MTEXT
  5
119
330
1F
100
AcDbEntity
  8
0
  6
Continuous
 62
     7
370
     0
100
AcDbMText
 10
5.7692745255
 20
219.989604144
 30
0.0
 40
4.0
 41
0.0
 71
     1
 72
     1
  1
E
  7
SLDTEXTSTYLE0
 73
     1
 44
1.0
  0
MTEXT
  5
11A
330
1F
100
AcDbEntity
  8
0
  6
Continuous
 62
     7
370
     0
100
AcDbMText
 10
6.0
 20
265.989604144
 30
0.0
 40
4.0
 41
0.0
 71
     1
 72
     1
  1
F
  7
SLDTEXTSTYLE0
 73
     1
 44
1.0
  0
MTEXT
  5
11B
330
1F
100
AcDbEntity
  8
0
  6
Continuous
 62
     7
370
     0
100
AcDbMText
 10
33.5
 20
291.489604144
 30
0.0
 40
4.0
 41
0.0
 71
     1
 72
     1
  1
8
  7
SLDTEXTSTYLE0
 73
     1
 44
1.0
  0
MTEXT
  5
11C
330
1F
100
AcDbEntity
  8
0
  6
Continuous
 62
     7
370
     0
100
AcDbMText
 10
83.5
 20
291.489604144
 30
0.0
 40
4.0
 41
0.0
 71
     1
 72
     1
  1
7
  7
SLDTEXTSTYLE0
 73
     1
 44
1.0
  0
MTEXT
  5
11D
330
1F
100
AcDbEntity
  8
0
  6
Continuous
 62
     7
370
     0
100
AcDbMText
 10
133.5
 20
291.489604144
 30
0.0
 40
4.0
 41
0.0
 71
     1
 72
     1
  1
6
  7
SLDTEXTSTYLE0
 73
     1
 44
1.0
  0
MTEXT
  5
11E
330
1F
100
AcDbEntity
  8
0
  6
Continuous
 62
     7
370
     0
100
AcDbMText
 10
183.5
 20
291.489604144
 30
0.0
 40
4.0
 41
0.0
 71
     1
 72
     1
  1
5
  7
SLDTEXTSTYLE0
 73
     1
 44
1.0
  0
MTEXT
  5
11F
330
1F
100
AcDbEntity
  8
0
  6
Continuous
 62
     7
370
     0
100
AcDbMText
 10
410.7729847128
 20
34.9442010866
 30
0.0
 40
4.0
 41
0.0
 71
     1
 72
     1
  1
A
  7
SLDTEXTSTYLE0
 73
     1
 44
1.0
  0
MTEXT
  5
120
330
1F
100
AcDbEntity
  8
0
  6
Continuous
 62
     7
370
     0
100
AcDbMText
 10
410.7121909102
 20
81.1364716754
 30
0.0
 40
4.0
 41
0.0
 71
     1
 72
     1
  1
B
  7
SLDTEXTSTYLE0
 73
     1
 44
1.0
  0
MTEXT
  5
121
330
1F
100
AcDbEntity
  8
0
  6
Continuous
 62
     7
370
     0
100
AcDbMText
 10
410.6203893089
 20
126.989604144
 30
0.0
 40
4.0
 41
0.0
 71
     1
 72
     1
  1
C
  7
SLDTEXTSTYLE0
 73
     1
 44
1.0
  0
MTEXT
  5
122
330
1F
100
AcDbEntity
  8
0
  6
Continuous
 62
     7
370
     0
100
AcDbMText
 10
233.5
 20
291.489604144
 30
0.0
 40
4.0
 41
0.0
 71
     1
 72
     1
  1
4
  7
SLDTEXTSTYLE0
 73
     1
 44
1.0
  0
MTEXT
  5
123
330
1F
100
AcDbEntity
  8
0
  6
Continuous
 62
     7
370
     0
100
AcDbMText
 10
284.0
 20
291.489604144
 30
0.0
 40
4.0
 41
0.0
 71
     1
 72
     1
  1
3
  7
SLDTEXTSTYLE0
 73
     1
 44
1.0
  0
MTEXT
  5
124
330
1F
100
AcDbEntity
  8
0
  6
Continuous
 62
     7
370
     0
100
AcDbMText
 10
334.0
 20
291.489604144
 30
0.0
 40
4.0
 41
0.0
 71
     1
 72
     1
  1
2
  7
SLDTEXTSTYLE0
 73
     1
 44
1.0
  0
MTEXT
  5
125
330
1F
100
AcDbEntity
  8
0
  6
Continuous
 62
     7
370
     0
100
AcDbMText
 10
410.5396138496
 20
174.1137585664
 30
0.0
 40
4.0
 41
0.0
 71
     1
 72
     1
  1
D
  7
SLDTEXTSTYLE0
 73
     1
 44
1.0
  0
MTEXT
  5
126
330
1F
100
AcDbEntity
  8
0
  6
Continuous
 62
     7
370
     0
100
AcDbMText
 10
410.7442616209
 20
220.1816801137
 30
0.0
 40
4.0
 41
0.0
 71
     1
 72
     1
  1
E
  7
SLDTEXTSTYLE0
 73
     1
 44
1.0
  0
MTEXT
  5
127
330
1F
100
AcDbEntity
  8
0
  6
Continuous
 62
     7
370
     0
100
AcDbMText
 10
384.0
 20
291.489604144
 30
0.0
 40
4.0
 41
0.0
 71
     1
 72
     1
  1
1
  7
SLDTEXTSTYLE0
 73
     1
 44
1.0
  0
MTEXT
  5
128
330
1F
100
AcDbEntity
  8
0
  6
Continuous
 62
     7
370
     0
100
AcDbMText
 10
411.0
 20
265.989604144
 30
0.0
 40
4.0
 41
0.0
 71
     1
 72
     1
  1
F
  7
SLDTEXTSTYLE0
 73
     1
 44
1.0
  0
MTEXT
  5
129
330
1F
100
AcDbEntity
  8
0
  6
Continuous
 62
     7
370
     0
100
AcDbMText
 10
233.8998971425
 20
9.6619578374
 30
0.0
 40
4.0
 41
0.0
 71
     1
 72
     1
  1
4
  7
SLDTEXTSTYLE0
 73
     1
 44
1.0
  0
MTEXT
  5
12A
330
1F
100
AcDbEntity
  8
0
  6
Continuous
 62
     7
370
     0
100
AcDbMText
 10
284.3998971425
 20
9.6619578374
 30
0.0
 40
4.0
 41
0.0
 71
     1
 72
     1
  1
3
  7
SLDTEXTSTYLE0
 73
     1
 44
1.0
  0
MTEXT
  5
12B
330
1F
100
AcDbEntity
  8
0
  6
Continuous
 62
     7
370
     0
100
AcDbMText
 10
334.3998971425
 20
9.6619578374
 30
0.0
 40
4.0
 41
0.0
 71
     1
 72
     1
  1
2
  7
SLDTEXTSTYLE0
 73
     1
 44
1.0
  0
MTEXT
  5
12C
330
1F
100
AcDbEntity
  8
0
  6
Continuous
 62
     7
370
     0
100
AcDbMText
 10
384.3998971425
 20
9.6619578374
 30
0.0
 40
4.0
 41
0.0
 71
     1
 72
     1
  1
1
  7
SLDTEXTSTYLE0
 73
     1
 44
1.0
  0
MTEXT
  5
12D
330
1F
100
AcDbEntity
  8
0
  6
Continuous
 62
     7
370
     0
100
AcDbMText
 10
235.333368457
 20
13.9532375323
 30
0.0
 40
3.0
 41
0.0
 71
     1
 72
     1
  1
01820000
  7
SLDTEXTSTYLE0
 73
     1
 44
1.0
  0
MTEXT
  5
12E
330
1F
100
AcDbEntity
  8
0
  6
Continuous
 62
     7
370
     0
100
AcDbMText
 10
277.5042038186
 20
17.4849420031
 30
0.0
 40
4.0
 41
0.0
 71
     1
 72
     1
  1
Vibrateur à bille
  7
SLDTEXTSTYLE0
 73
     1
 44
1.0
  0
MTEXT
  5
12F
330
1F
100
AcDbEntity
  8
0
  6
Continuous
 62
     7
370
     0
100
AcDbMText
 10
223.3772893016
 20
16.5178662951
 30
0.0
 40
2.0
 41
0.0
 71
     1
 72
     1
  1
Bestell Nr.: / Part no.: / No d`article:
  7
SLDTEXTSTYLE0
 73
     1
 44
1.0
  0
INSERT
  5
139
330
1F
100
AcDbEntity
  8
0
  6
Continuous
 62
     7
370
     0
100
AcDbBlockReference
  2
SW_NOTE_3
 10
347.2177413053
 20
17.0976931256
 30
0.0
  0
MTEXT
  5
13A
330
1F
100
AcDbEntity
  8
0
  6
Continuous
 62
     7
370
     0
100
AcDbMText
 10
347.2177413053
 20
22.8281708005
 30
0.0
 40
1.8520833333
 41
0.0
 71
     1
 72
     1
  1
Fritz-Lenges-Straße 3,  55252 Mainz-Kastel
  7
SLDTEXTSTYLE0
 73
     1
 44
1.0
  0
INSERT
  5
140
330
1F
100
AcDbEntity
  8
0
  6
Continuous
 62
     7
370
     0
100
AcDbBlockReference
  2
SW_NOTE_4
 10
347.2177413053
 20
23.0066254519
 30
0.0
  0
MTEXT
  5
141
330
1F
100
AcDbEntity
  8
0
  6
Continuous
 62
     7
370
     0
100
AcDbMText
 10
407.0748866834
 20
30.8708309295
 30
0.0
 40
0.65
 41
0.0
 71
     1
 72
     1
  1
R
  7
SLDTEXTSTYLE0
 73
     1
 44
1.0
  0
MTEXT
  5
142
330
1F
100
AcDbEntity
  8
0
  6
Continuous
 62
     7
370
     0
100
AcDbMText
 10
277.5042038186
 20
24.4879186679
 30
0.0
 40
4.0
 41
0.0
 71
     1
 72
     1
  1
Ball vibrator
  7
SLDTEXTSTYLE0
 73
     1
 44
1.0
  0
MTEXT
  5
143
330
1F
100
AcDbEntity
  8
0
  6
Continuous
 62
     7
370
     0
100
AcDbMText
 10
277.5042038186
 20
31.495794101
 30
0.0
 40
4.0
 41
0.0
 71
     1
 72
     1
  1
Kugelvibrator
  7
SLDTEXTSTYLE0
 73
     1
 44
1.0
  0
MTEXT
  5
145
330
1F
100
AcDbEntity
  8
0
  6
Continuous
 62
     7
370
     0
100
AcDbMText
 10
277.5042038186
 20
40.9994003142
 30
0.0
 40
4.0
 41
0.0
 71
     1
 72
     1
  1
NCB 20
  7
SLDTEXTSTYLE3
 73
     1
 44
1.0
  0
MTEXT
  5
146
330
1F
100
AcDbEntity
  8
0
  6
Continuous
 62
     7
370
     0
100
AcDbMText
 10
223.3772893016
 20
23.7813752683
 30
0.0
 40
2.0
 41
0.0
 71
     1
 72
     1
  1
Angebot Nr.: / Quotation no.: / Offre no.:
  7
SLDTEXTSTYLE0
 73
     1
 44
1.0
  0
MTEXT
  5
147
330
1F
100
AcDbEntity
  8
0
  6
Continuous
 62
     7
370
     0
100
AcDbMText
 10
225.29574253
 20
36.1700862926
 30
0.0
 40
2.5
 41
0.0
 71
     1
 72
     1
  1
tous droits réservés
  7
SLDTEXTSTYLE0
 73
     1
 44
1.0
  0
MTEXT
  5
148
330
1F
100
AcDbEntity
  8
0
  6
Continuous
 62
     7
370
     0
100
AcDbMText
 10
225.29574253
 20
40.2315981188
 30
0.0
 40
2.5
 41
0.0
 71
     1
 72
     1
  1
all rights reserved
  7
SLDTEXTSTYLE0
 73
     1
 44
1.0
  0
MTEXT
  5
149
330
1F
100
AcDbEntity
  8
0
  6
Continuous
 62
     7
370
     0
100
AcDbMText
 10
225.29574253
 20
44.0417302482
 30
0.0
 40
2.5
 41
0.0
 71
     1
 72
     1
  1
alle Schutzrechte vorbehalten
  7
SLDTEXTSTYLE0
 73
     1
 44
1.0
  0
MTEXT
  5
14A
330
1F
100
AcDbEntity
  8
0
  6
Continuous
 62
     7
370
     0
100
AcDbMText
 10
223.3772893016
 20
31.3281263199
 30
0.0
 40
2.0
 41
0.0
 71
     1
 72
     1
  1
Datum: / Date: / Date:
  7
SLDTEXTSTYLE0
 73
     1
 44
1.0
  0
MTEXT
  5
14B
330
1F
100
AcDbEntity
  8
0
  6
Continuous
 62
     7
370
     0
100
AcDbMText
 10
235.333368457
 20
28.459898148
 30
0.0
 40
3.0
 41
0.0
 71
     1
 72
     1
  1
27.06.2022
  7
SLDTEXTSTYLE0
 73
     1
 44
1.0
  0
LINE
  5
14C
330
1F
100
AcDbEntity
  8
0
  6
SLD-Durchgehend
 62
     7
370
    15
100
AcDbLine
 10
81.8798078471
 20
234.6689454057
 30
0.0
 11
81.8798078471
 21
265.6689486244
 31
0.0
  0
LINE
  5
14D
330
1F
100
AcDbEntity
  8
0
  6
SLD-Durchgehend
 62
     7
370
    15
100
AcDbLine
 10
62.3798065134
 20
242.1689457037
 30
0.0
 11
62.3798065134
 21
234.6689454057
 31
0.0
  0
LINE
  5
14E
330
1F
100
AcDbEntity
  8
0
  6
SLD-Durchgehend
 62
     7
370
    15
100
AcDbLine
 10
62.3798065134
 20
250.168947015
 30
0.0
 11
62.3798065134
 21
244.1689460316
 31
0.0
  0
LINE
  5
14F
330
1F
100
AcDbEntity
  8
0
  6
SLD-Durchgehend
 62
     7
370
    15
100
AcDbLine
 10
62.3798065134
 20
258.1689483263
 30
0.0
 11
62.3798065134
 21
252.1689436176
 31
0.0
  0
LINE
  5
150
330
1F
100
AcDbEntity
  8
0
  6
SLD-Durchgehend
 62
     7
370
    15
100
AcDbLine
 10
62.3798065134
 20
265.6689486244
 30
0.0
 11
62.3798065134
 21
260.1689449289
 31
0.0
  0
ARC
  5
151
330
1F
100
AcDbEntity
  8
0
  6
SLD-Durchgehend
 62
     7
370
    15
100
AcDbCircle
 10
62.8798075267
 20
265.6689452865
 30
0.0
 40
0.5
100
AcDbArc
 50
90.0
 51
180.0
  0
ARC
  5
152
330
1F
100
AcDbEntity
  8
0
  6
SLD-Durchgehend
 62
     7
370
    15
100
AcDbCircle
 10
81.3798075267
 20
265.6689452865
 30
0.0
 40
0.5000000000000142
100
AcDbArc
 50
0.0
 51
90.0
  0
ARC
  5
153
330
1F
100
AcDbEntity
  8
0
  6
SLD-Durchgehend
 62
     7
370
    15
100
AcDbCircle
 10
62.8798075267
 20
234.6689452865
 30
0.0
 40
0.5000000000000071
100
AcDbArc
 50
180.0
 51
270.0
  0
ARC
  5
154
330
1F
100
AcDbEntity
  8
0
  6
SLD-Durchgehend
 62
     7
370
    15
100
AcDbCircle
 10
81.3798075267
 20
234.6689452865
 30
0.0
 40
0.5000000000000142
100
AcDbArc
 50
270.0
 51
0.0
  0
LINE
  5
155
330
1F
100
AcDbEntity
  8
0
  6
SLD-Durchgehend
 62
     7
370
    15
100
AcDbLine
 10
63.629807184
 20
252.1689436176
 30
0.0
 11
63.629807184
 21
250.168947015
 31
0.0
  0
LINE
  5
156
330
1F
100
AcDbEntity
  8
0
  6
SLD-Durchgehend
 62
     7
370
    15
100
AcDbLine
 10
63.629807184
 20
244.1689460316
 30
0.0
 11
63.629807184
 21
242.1689457037
 31
0.0
  0
LINE
  5
157
330
1F
100
AcDbEntity
  8
0
  6
SLD-Durchgehend
 62
     7
370
    15
100
AcDbLine
 10
63.629807184
 20
260.1689449289
 30
0.0
 11
63.629807184
 21
258.1689483263
 31
0.0
  0
LINE
  5
158
330
1F
100
AcDbEntity
  8
0
  6
SLD-Durchgehend
 62
     7
370
    15
100
AcDbLine
 10
72.1298076459
 20
244.1689460316
 30
0.0
 11
72.1298076459
 21
242.1689457037
 31
0.0
  0
LINE
  5
159
330
1F
100
AcDbEntity
  8
0
  6
SLD-Durchgehend
 62
     7
370
    15
100
AcDbLine
 10
62.3798065134
 20
244.1689460316
 30
0.0
 11
72.1298076459
 21
244.1689460316
 31
0.0
  0
LINE
  5
15A
330
1F
100
AcDbEntity
  8
0
  6
SLD-Durchgehend
 62
     7
370
    15
100
AcDbLine
 10
62.3798065134
 20
242.1689457037
 30
0.0
 11
72.1298076459
 21
242.1689457037
 31
0.0
  0
LINE
  5
15B
330
1F
100
AcDbEntity
  8
0
  6
SLD-Durchgehend
 62
     7
370
    15
100
AcDbLine
 10
62.3798065134
 20
250.168947015
 30
0.0
 11
72.1298076459
 21
250.168947015
 31
0.0
  0
LINE
  5
15C
330
1F
100
AcDbEntity
  8
0
  6
SLD-Durchgehend
 62
     7
370
    15
100
AcDbLine
 10
72.1298076459
 20
250.168947015
 30
0.0
 11
72.1298076459
 21
252.1689436176
 31
0.0
  0
LINE
  5
15D
330
1F
100
AcDbEntity
  8
0
  6
SLD-Durchgehend
 62
     7
370
    15
100
AcDbLine
 10
62.3798065134
 20
252.1689436176
 30
0.0
 11
72.1298076459
 21
252.1689436176
 31
0.0
  0
LINE
  5
15E
330
1F
100
AcDbEntity
  8
0
  6
SLD-Durchgehend
 62
     7
370
    15
100
AcDbLine
 10
62.3798065134
 20
258.1689483263
 30
0.0
 11
72.1298076459
 21
258.1689483263
 31
0.0
  0
LINE
  5
15F
330
1F
100
AcDbEntity
  8
0
  6
SLD-Durchgehend
 62
     7
370
    15
100
AcDbLine
 10
72.1298076459
 20
258.1689483263
 30
0.0
 11
72.1298076459
 21
260.1689449289
 31
0.0
  0
LINE
  5
160
330
1F
100
AcDbEntity
  8
0
  6
SLD-Durchgehend
 62
     7
370
    15
100
AcDbLine
 10
62.3798065134
 20
260.1689449289
 30
0.0
 11
72.1298076459
 21
260.1689449289
 31
0.0
  0
LINE
  5
161
330
1F
100
AcDbEntity
  8
0
  6
SLD-Durchgehend
 62
     7
370
    15
100
AcDbLine
 10
62.8798075267
 20
266.1689421871
 30
0.0
 11
81.3798077651
 21
266.1689421871
 31
0.0
  0
LINE
  5
162
330
1F
100
AcDbEntity
  8
0
  6
SLD-Durchgehend
 62
     7
370
    15
100
AcDbLine
 10
66.1298066624
 20
269.1689482667
 30
0.0
 11
72.1298076459
 21
269.1689482667
 31
0.0
  0
LINE
  5
163
330
1F
100
AcDbEntity
  8
0
  6
SLD-Durchgehend
 62
     7
370
    15
100
AcDbLine
 10
72.1298076459
 20
269.1689482667
 30
0.0
 11
78.1298067668
 21
269.1689482667
 31
0.0
  0
ARC
  5
164
330
1F
100
AcDbEntity
  8
0
  6
SLD-Durchgehend
 62
     7
370
    15
100
AcDbCircle
 10
79.1298075267
 20
266.6689452865
 30
0.0
 40
0.5000000000000284
100
AcDbArc
 50
180.0
 51
270.0
  0
ARC
  5
165
330
1F
100
AcDbEntity
  8
0
  6
SLD-Durchgehend
 62
     7
370
    15
100
AcDbCircle
 10
65.1298075267
 20
266.6689452865
 30
0.0
 40
0.5000000000000142
100
AcDbArc
 50
270.0
 51
0.0
  0
ARC
  5
166
330
1F
100
AcDbEntity
  8
0
  6
SLD-Durchgehend
 62
     7
370
    15
100
AcDbCircle
 10
66.1298075267
 20
268.6689452865
 30
0.0
 40
0.5
100
AcDbArc
 50
90.0
 51
180.0
  0
LINE
  5
167
330
1F
100
AcDbEntity
  8
0
  6
SLD-Durchgehend
 62
     7
370
    15
100
AcDbLine
 10
65.6298075118
 20
266.6689432003
 30
0.0
 11
65.6298075118
 21
268.6689472535
 31
0.0
  0
ARC
  5
168
330
1F
100
AcDbEntity
  8
0
  6
SLD-Durchgehend
 62
     7
370
    15
100
AcDbCircle
 10
78.1298075267
 20
268.6689452865
 30
0.0
 40
0.5
100
AcDbArc
 50
0.0
 51
90.0
  0
LINE
  5
169
330
1F
100
AcDbEntity
  8
0
  6
SLD-Durchgehend
 62
     7
370
    15
100
AcDbLine
 10
78.62980778
 20
268.6689472535
 30
0.0
 11
78.62980778
 21
266.6689432003
 31
0.0
  0
CIRCLE
  5
16A
330
1F
100
AcDbEntity
  8
0
  6
SLD-Durchgehend
 62
     7
370
    15
100
AcDbCircle
 10
94.1298075267
 20
194.1689452865
 30
0.0
 40
32.06698729810779
  0
LINE
  5
16B
330
1F
100
AcDbEntity
  8
0
  6
SLD-Durchgehend
 62
     7
370
    15
100
AcDbLine
 10
127.1298073479
 20
220.1689458229
 30
0.0
 11
124.1298068562
 21
214.1689448395
 31
0.0
  0
CIRCLE
  5
16C
330
1F
100
AcDbEntity
  8
0
  6
SLD-Durchgehend
 62
     7
370
    15
100
AcDbCircle
 10
124.1298075267
 20
164.1689452865
 30
0.0
 40
1.0
  0
LINE
  5
16D
330
1F
100
AcDbEntity
  8
0
  6
SLD-Durchgehend
 62
     7
370
    15
100
AcDbLine
 10
125.1298070201
 20
154.6689434686
 30
0.0
 11
63.1298080334
 21
154.6689434686
 31
0.0
  0
LINE
  5
16E
330
1F
100
AcDbEntity
  8
0
  6
SLD-Durchgehend
 62
     7
370
    15
100
AcDbLine
 10
125.1298070201
 20
220.1689458229
 30
0.0
 11
127.1298073479
 21
220.1689458229
 31
0.0
  0
ARC
  5
16F
330
1F
100
AcDbEntity
  8
0
  6
SLD-Durchgehend
 62
     7
370
    15
100
AcDbCircle
 10
136.6298075267
 20
172.6689452865
 30
0.0
 40
2.5
100
AcDbArc
 50
180.0
 51
270.0
  0
LINE
  5
170
330
1F
100
AcDbEntity
  8
0
  6
SLD-Durchgehend
 62
     7
370
    15
100
AcDbLine
 10
61.1298077055
 20
222.1689461508
 30
0.0
 11
63.1298080334
 21
222.1689461508
 31
0.0
  0
LINE
  5
171
330
1F
100
AcDbEntity
  8
0
  6
SLD-Durchgehend
 62
     7
370
    15
100
AcDbLine
 10
125.1298070201
 20
228.1689471343
 30
0.0
 11
125.1298070201
 21
220.1689458229
 31
0.0
  0
LINE
  5
172
330
1F
100
AcDbEntity
  8
0
  6
SLD-Durchgehend
 62
     7
370
    15
100
AcDbLine
 10
123.1298066922
 20
220.1689458229
 30
0.0
 11
123.1298066922
 21
228.1689471343
 31
0.0
  0
LINE
  5
173
330
1F
100
AcDbEntity
  8
0
  6
SLD-Durchgehend
 62
     7
370
    15
100
AcDbLine
 10
63.1298080334
 20
214.1689448395
 30
0.0
 11
65.1298083612
 21
214.1689448395
 31
0.0
  0
LINE
  5
174
330
1F
100
AcDbEntity
  8
0
  6
SLD-Durchgehend
 62
     7
370
    15
100
AcDbLine
 10
124.1298068562
 20
214.1689448395
 30
0.0
 11
121.1298082271
 21
220.1689458229
 31
0.0
  0
LINE
  5
175
330
1F
100
AcDbEntity
  8
0
  6
SLD-Durchgehend
 62
     7
370
    15
100
AcDbLine
 10
65.1298083612
 20
222.1689461508
 30
0.0
 11
67.1298068264
 21
222.1689461508
 31
0.0
  0
ARC
  5
176
330
1F
100
AcDbEntity
  8
0
  6
SLD-Durchgehend
 62
     7
370
    15
100
AcDbCircle
 10
51.6298075267
 20
172.6689452865
 30
0.0
 40
2.5
100
AcDbArc
 50
270.0
 51
0.0
  0
LINE
  5
177
330
1F
100
AcDbEntity
  8
0
  6
SLD-Durchgehend
 62
     7
370
    15
100
AcDbLine
 10
64.1298081973
 20
228.1689471343
 30
0.0
 11
61.1298077055
 21
222.1689461508
 31
0.0
  0
CIRCLE
  5
178
330
1F
100
AcDbEntity
  8
0
  6
SLD-Durchgehend
 62
     7
370
    15
100
AcDbCircle
 10
94.1298075267
 20
194.1689452865
 30
0.0
 40
32.24999999999999
  0
LINE
  5
179
330
1F
100
AcDbEntity
  8
0
  6
SLD-Durchgehend
 62
     7
370
    15
100
AcDbLine
 10
63.1298080334
 20
222.1689461508
 30
0.0
 11
63.1298080334
 21
214.1689448395
 31
0.0
  0
CIRCLE
  5
17A
330
1F
100
AcDbEntity
  8
0
  6
SLD-Durchgehend
 62
     7
370
    15
100
AcDbCircle
 10
64.1298075267
 20
164.1689452865
 30
0.0
 40
1.0
  0
LINE
  5
17B
330
1F
100
AcDbEntity
  8
0
  6
SLD-Durchgehend
 62
     7
370
    15
100
AcDbLine
 10
125.1298070201
 20
154.1689461806
 30
0.0
 11
125.1298070201
 21
154.6689434686
 31
0.0
  0
LINE
  5
17C
330
1F
100
AcDbEntity
  8
0
  6
SLD-Durchgehend
 62
     7
370
    15
100
AcDbLine
 10
63.1298080334
 20
154.6689434686
 30
0.0
 11
63.1298080334
 21
154.1689461806
 31
0.0
  0
LINE
  5
17D
330
1F
100
AcDbEntity
  8
0
  6
SLD-Durchgehend
 62
     7
370
    15
100
AcDbLine
 10
134.1298066326
 20
234.1689443924
 30
0.0
 11
134.1298066326
 21
172.6689445564
 31
0.0
  0
LINE
  5
17E
330
1F
100
AcDbEntity
  8
0
  6
SLD-Durchgehend
 62
     7
370
    15
100
AcDbLine
 10
136.6298079737
 20
170.1689450779
 30
0.0
 11
158.1298105666
 21
170.1689450779
 31
0.0
  0
LINE
  5
17F
330
1F
100
AcDbEntity
  8
0
  6
SLD-Durchgehend
 62
     7
370
    15
100
AcDbLine
 10
30.1298044869
 20
170.1689450779
 30
0.0
 11
51.6298070797
 21
170.1689450779
 31
0.0
  0
LINE
  5
180
330
1F
100
AcDbEntity
  8
0
  6
SLD-Durchgehend
 62
     7
370
    15
100
AcDbLine
 10
54.1298084208
 20
172.6689445564
 30
0.0
 11
54.1298084208
 21
234.1689443924
 31
0.0
  0
LINE
  5
181
330
1F
100
AcDbEntity
  8
0
  6
SLD-Durchgehend
 62
     7
370
    15
100
AcDbLine
 10
65.1298083612
 20
214.1689448395
 30
0.0
 11
65.1298083612
 21
222.1689461508
 31
0.0
  0
LINE
  5
182
330
1F
100
AcDbEntity
  8
0
  6
SLD-Durchgehend
 62
     7
370
    15
100
AcDbLine
 10
134.1298066326
 20
234.1689443924
 30
0.0
 11
54.1298084208
 21
234.1689443924
 31
0.0
  0
LINE
  5
183
330
1F
100
AcDbEntity
  8
0
  6
SLD-Durchgehend
 62
     7
370
    15
100
AcDbLine
 10
67.1298068264
 20
222.1689461508
 30
0.0
 11
64.1298081973
 21
228.1689471343
 31
0.0
  0
LINE
  5
184
330
1F
100
AcDbEntity
  8
0
  6
SLD-Durchgehend
 62
     7
370
    15
100
AcDbLine
 10
125.1298070201
 20
154.1689461806
 30
0.0
 11
158.1298105666
 21
154.1689461806
 31
0.0
  0
LINE
  5
185
330
1F
100
AcDbEntity
  8
0
  6
SLD-Durchgehend
 62
     7
370
    15
100
AcDbLine
 10
30.1298044869
 20
170.1689450779
 30
0.0
 11
30.1298044869
 21
154.1689461806
 31
0.0
  0
LINE
  5
186
330
1F
100
AcDbEntity
  8
0
  6
SLD-Durchgehend
 62
     7
370
    15
100
AcDbLine
 10
30.1298044869
 20
154.1689461806
 30
0.0
 11
63.1298080334
 21
154.1689461806
 31
0.0
  0
LINE
  5
187
330
1F
100
AcDbEntity
  8
0
  6
SLD-Durchgehend
 62
     7
370
    15
100
AcDbLine
 10
123.1298066922
 20
228.1689471343
 30
0.0
 11
125.1298070201
 21
228.1689471343
 31
0.0
  0
LINE
  5
188
330
1F
100
AcDbEntity
  8
0
  6
SLD-Durchgehend
 62
     7
370
    15
100
AcDbLine
 10
158.1298105666
 20
154.1689461806
 30
0.0
 11
158.1298105666
 21
170.1689450779
 31
0.0
  0
LINE
  5
189
330
1F
100
AcDbEntity
  8
0
  6
SLD-Durchgehend
 62
     7
370
    15
100
AcDbLine
 10
121.1298082271
 20
220.1689458229
 30
0.0
 11
123.1298066922
 21
220.1689458229
 31
0.0
  0
LINE
  5
18A
330
1F
100
AcDbEntity
  8
0
  6
SLD-Durchgehend
 62
     8
370
     0
100
AcDbLine
 10
81.8798078471
 20
265.6689486244
 30
0.0
 11
62.3798065134
 21
265.6689486244
 31
0.0
  0
LINE
  5
18B
330
1F
100
AcDbEntity
  8
0
  6
SLD-Durchgehend
 62
     8
370
     0
100
AcDbLine
 10
62.3798065134
 20
234.6689454057
 30
0.0
 11
81.8798078471
 21
234.6689454057
 31
0.0
  0
LWPOLYLINE
  5
18C
330
1F
100
AcDbEntity
  8
0
  6
SLD-Durchgehend
 62
     8
370
     0
100
AcDbPolyline
 90
        9
 70
   128
 43
0.0
 10
71.6298066326
 20
266.1689421871
 10
71.6785799959
 20
266.178553436
 10
71.7254776754
 20
266.2070072033
 10
71.7687003561
 20
266.2532082536
 10
71.8065846958
 20
266.3153907993
 10
71.837674106
 20
266.391163204
 10
71.8607764938
 20
266.47760484
 10
71.8750033774
 20
266.5714001992
 10
71.8798071393
 20
266.6689432003
  0
LINE
  5
18D
330
1F
100
AcDbEntity
  8
0
  6
SLD-Durchgehend
 62
     8
370
     0
100
AcDbLine
 10
72.3798081526
 20
266.6689432003
 30
0.0
 11
71.8798071393
 21
266.6689432003
 31
0.0
  0
LWPOLYLINE
  5
18E
330
1F
100
AcDbEntity
  8
0
  6
SLD-Durchgehend
 62
     8
370
     0
100
AcDbPolyline
 90
        9
 70
   128
 43
0.0
 10
72.6298067966
 20
266.1689421871
 10
72.581035296
 20
266.178553436
 10
72.5341357538
 20
266.2070072033
 10
72.4909149357
 20
266.2532082536
 10
72.453030596
 20
266.3153907993
 10
72.4219393232
 20
266.391163204
 10
72.3988369354
 20
266.47760484
 10
72.3846119144
 20
266.5714001992
 10
72.3798081526
 20
266.6689432003
  0
LINE
  5
18F
330
1F
100
AcDbEntity
  8
0
  6
SLD-Durchgehend
 62
     8
370
     0
100
AcDbLine
 10
72.3798081526
 20
266.6689432003
 30
0.0
 11
78.3798072734
 21
266.6689432003
 31
0.0
  0
LWPOLYLINE
  5
190
330
1F
100
AcDbEntity
  8
0
  6
SLD-Durchgehend
 62
     8
370
     0
100
AcDbPolyline
 90
        9
 70
   128
 43
0.0
 10
78.62980778
 20
266.1689421871
 10
78.5810353481
 20
266.178553436
 10
78.5341367372
 20
266.2070072033
 10
78.4909140565
 20
266.2532082536
 10
78.4530315795
 20
266.3153907993
 10
78.4219403067
 20
266.391163204
 10
78.3988379189
 20
266.47760484
 10
78.3846110352
 20
266.5714001992
 10
78.3798072734
 20
266.6689432003
  0
LWPOLYLINE
  5
191
330
1F
100
AcDbEntity
  8
0
  6
SLD-Durchgehend
 62
     8
370
     0
100
AcDbPolyline
 90
        9
 70
   128
 43
0.0
 10
65.6298075118
 20
266.1689421871
 10
65.678580875
 20
266.178553436
 10
65.7254785546
 20
266.2070072033
 10
65.7686993727
 20
266.2532082536
 10
65.8065837123
 20
266.3153907993
 10
65.8376749852
 20
266.391163204
 10
65.860777373
 20
266.47760484
 10
65.8750042566
 20
266.5714001992
 10
65.8798080185
 20
266.6689432003
  0
LINE
  5
192
330
1F
100
AcDbEntity
  8
0
  6
SLD-Durchgehend
 62
     8
370
     0
100
AcDbLine
 10
65.8798080185
 20
266.6689432003
 30
0.0
 11
71.8798071393
 21
266.6689432003
 31
0.0
  0
LWPOLYLINE
  5
193
330
1F
100
AcDbEntity
  8
0
  6
SLD-Durchgehend
 62
     8
370
     0
100
AcDbPolyline
 90
        9
 70
   128
 43
0.0
 10
71.8798071393
 20
268.6689472535
 10
71.8846109011
 20
268.7664902546
 10
71.8988377848
 20
268.8602856138
 10
71.9219401726
 20
268.9467272499
 10
71.9530314454
 20
269.0224996545
 10
71.9909157851
 20
269.0846822002
 10
72.0341366031
 20
269.1308832505
 10
72.0810342827
 20
269.1593370178
 10
72.1298076459
 20
269.1689482667
  0
LWPOLYLINE
  5
194
330
1F
100
AcDbEntity
  8
0
  6
SLD-Durchgehend
 62
     8
370
     0
100
AcDbPolyline
 90
        9
 70
   128
 43
0.0
 10
72.3798081526
 20
268.6689472535
 10
72.3750043907
 20
268.7664902546
 10
72.3607775071
 20
268.8602856138
 10
72.3376751193
 20
268.9467272499
 10
72.3065838465
 20
269.0224996545
 10
72.2686995068
 20
269.0846822002
 10
72.2254786887
 20
269.1308832505
 10
72.1785810092
 20
269.1593370178
 10
72.1298076459
 20
269.1689482667
  0
LINE
  5
195
330
1F
100
AcDbEntity
  8
0
  6
SLD-Durchgehend
 62
     8
370
     0
100
AcDbLine
 10
71.8798071393
 20
268.6689472535
 30
0.0
 11
72.3798081526
 21
268.6689472535
 31
0.0
  0
LINE
  5
196
330
1F
100
AcDbEntity
  8
0
  6
SLD-Durchgehend
 62
     8
370
     0
100
AcDbLine
 10
71.8798071393
 20
266.6689432003
 30
0.0
 11
71.8798071393
 21
268.6689472535
 31
0.0
  0
LINE
  5
197
330
1F
100
AcDbEntity
  8
0
  6
SLD-Durchgehend
 62
     8
370
     0
100
AcDbLine
 10
72.3798081526
 20
268.6689472535
 30
0.0
 11
72.3798081526
 21
266.6689432003
 31
0.0
  0
LINE
  5
198
330
1F
100
AcDbEntity
  8
0
  6
SLD-Durchgehend
 62
     8
370
     0
100
AcDbLine
 10
71.8798071393
 20
268.6689472535
 30
0.0
 11
65.8798080185
 21
268.6689472535
 31
0.0
  0
LWPOLYLINE
  5
199
330
1F
100
AcDbEntity
  8
0
  6
SLD-Durchgehend
 62
     8
370
     0
100
AcDbPolyline
 90
        9
 70
   128
 43
0.0
 10
65.8798080185
 20
268.6689472535
 10
65.8846117803
 20
268.7664902546
 10
65.8988368013
 20
268.8602856138
 10
65.9219410517
 20
268.9467272499
 10
65.9530304619
 20
269.0224996545
 10
65.9909148016
 20
269.0846822002
 10
66.0341374823
 20
269.1308832505
 10
66.0810351619
 20
269.1593370178
 10
66.1298066624
 20
269.1689482667
  0
LINE
  5
19A
330
1F
100
AcDbEntity
  8
0
  6
SLD-Durchgehend
 62
     8
370
     0
100
AcDbLine
 10
65.8798080185
 20
268.6689472535
 30
0.0
 11
65.8798080185
 21
266.6689432003
 31
0.0
  0
LINE
  5
19B
330
1F
100
AcDbEntity
  8
0
  6
SLD-Durchgehend
 62
     8
370
     0
100
AcDbLine
 10
78.3798072734
 20
268.6689472535
 30
0.0
 11
72.3798081526
 21
268.6689472535
 31
0.0
  0
LWPOLYLINE
  5
19C
330
1F
100
AcDbEntity
  8
0
  6
SLD-Durchgehend
 62
     8
370
     0
100
AcDbPolyline
 90
        9
 70
   128
 43
0.0
 10
78.3798072734
 20
268.6689472535
 10
78.3750035116
 20
268.7664902546
 10
78.3607766279
 20
268.8602856138
 10
78.3376742401
 20
268.9467272499
 10
78.3065848299
 20
269.0224996545
 10
78.2687004902
 20
269.0846822002
 10
78.2254778096
 20
269.1308832505
 10
78.17858013
 20
269.1593370178
 10
78.1298067668
 20
269.1689482667
  0
LINE
  5
19D
330
1F
100
AcDbEntity
  8
0
  6
SLD-Durchgehend
 62
     8
370
     0
100
AcDbLine
 10
78.3798072734
 20
266.6689432003
 30
0.0
 11
78.3798072734
 21
268.6689472535
 31
0.0
  0
LINE
  5
19E
330
1F
100
AcDbEntity
  8
0
  6
SLD-Durchgehend
 62
     8
370
     0
100
AcDbLine
 10
78.62980778
 20
266.6689432003
 30
0.0
 11
78.3798072734
 21
266.6689432003
 31
0.0
  0
LINE
  5
19F
330
1F
100
AcDbEntity
  8
0
  6
SLD-Durchgehend
 62
     8
370
     0
100
AcDbLine
 10
65.8798080185
 20
266.6689432003
 30
0.0
 11
65.6298075118
 21
266.6689432003
 31
0.0
  0
LINE
  5
1A0
330
1F
100
AcDbEntity
  8
0
  6
SLD-Durchgehend
 62
     8
370
     0
100
AcDbLine
 10
65.6298075118
 20
268.6689472535
 30
0.0
 11
65.8798080185
 21
268.6689472535
 31
0.0
  0
LINE
  5
1A1
330
1F
100
AcDbEntity
  8
0
  6
SLD-Durchgehend
 62
     8
370
     0
100
AcDbLine
 10
78.3798072734
 20
268.6689472535
 30
0.0
 11
78.62980778
 21
268.6689472535
 31
0.0
  0
CIRCLE
  5
1A2
330
1F
100
AcDbEntity
  8
0
  6
SLD-Durchgehend
 62
     8
370
     0
100
AcDbCircle
 10
94.1298075267
 20
194.1689452865
 30
0.0
 40
9.0
  0
CIRCLE
  5
1A3
330
1F
100
AcDbEntity
  8
0
  6
SLD-Durchgehend
 62
     8
370
     0
100
AcDbCircle
 10
94.1298075267
 20
194.1689452865
 30
0.0
 40
21.23228752215593
  0
CIRCLE
  5
1A4
330
1F
100
AcDbEntity
  8
0
  6
SLD-Durchgehend
 62
     8
370
     0
100
AcDbCircle
 10
94.1298075267
 20
194.1689452865
 30
0.0
 40
29.4689110867545
  0
CIRCLE
  5
1A5
330
1F
100
AcDbEntity
  8
0
  6
SLD-Durchgehend
 62
     8
370
     0
100
AcDbCircle
 10
94.1298075267
 20
194.1689452865
 30
0.0
 40
28.60288568297008
  0
CIRCLE
  5
1A6
330
1F
100
AcDbEntity
  8
0
  6
SLD-Durchgehend
 62
     8
370
     0
100
AcDbCircle
 10
94.1298075267
 20
194.1689452865
 30
0.0
 40
21.95183384698862
  0
INSERT
  5
1A7
330
1F
100
AcDbEntity
  8
0
  6
Continuous
 62
     7
100
AcDbBlockReference
  2
Abluft Text
 10
30.3408649761
 20
254.9212398563
 30
0.0
  0
INSERT
  5
1A8
330
1F
100
AcDbEntity
  8
0
  6
Continuous
 62
     7
100
AcDbBlockReference
  2
Zuluft Text
 10
134.300240404
 20
251.007061052
 30
0.0
  0
DIMENSION
  5
1A9
330
1F
100
AcDbEntity
  8
0
  6
SLD-Durchgehend
 62
     7
370
     0
100
AcDbDimension
  2
_D
 10
158.1298075267
 20
133.98
 30
0.0
 11
94.1298075267
 21
133.98
 31
0.0
 70
   160
  1
<>
 71
     2
 42
-1.0
  3
SLDDIMSTYLE2
100
AcDbAlignedDimension
 13
30.1298075267
 23
154.1689452865
 33
0.0
 14
158.1298075267
 24
154.1689452865
 34
0.0
100
AcDbRotatedDimension
  0
DIMENSION
  5
1B4
330
1F
100
AcDbEntity
  8
0
  6
SLD-Durchgehend
 62
     7
370
     0
100
AcDbDimension
  2
_D_1
 10
169.1791232837
 20
154.1689452865
 30
0.0
 11
169.1791232837
 21
162.1689452865
 31
0.0
 70
   160
  1
<>
 71
     2
 42
-1.0
  3
SLDDIMSTYLE2
100
AcDbAlignedDimension
 13
158.1298075267
 23
170.1689452865
 33
0.0
 14
158.1298075267
 24
154.1689452865
 34
0.0
 50
90.0
100
AcDbRotatedDimension
  0
DIMENSION
  5
1BE
330
1F
100
AcDbEntity
  8
0
  6
SLD-Durchgehend
 62
     7
370
     0
100
AcDbDimension
  2
_D_2
 10
182.1298075267
 20
154.1689452865
 30
0.0
 11
182.1298075267
 21
194.1689452865
 31
0.0
 70
   160
  1
<>
 71
     2
 42
-1.0
  3
SLDDIMSTYLE2
100
AcDbAlignedDimension
 13
134.1298075267
 23
234.1689452865
 33
0.0
 14
158.1298075267
 24
154.1689452865
 34
0.0
 50
90.0
100
AcDbRotatedDimension
  0
DIMENSION
  5
1C8
330
1F
100
AcDbEntity
  8
0
  6
SLD-Durchgehend
 62
     7
370
     0
100
AcDbDimension
  2
_D_3
 10
196.1298075267
 20
154.1689452865
 30
0.0
 11
196.1298075267
 21
211.6689452865
 31
0.0
 70
   160
  1
<>
 71
     2
 42
-1.0
  3
SLDDIMSTYLE2
100
AcDbAlignedDimension
 13
72.1298075267
 23
269.1689452865
 33
0.0
 14
158.1298075267
 24
154.1689452865
 34
0.0
 50
90.0
100
AcDbRotatedDimension
  0
DIMENSION
  5
1D2
330
1F
100
AcDbEntity
  8
0
  6
SLD-Durchgehend
 62
     7
370
     0
100
AcDbDimension
  2
_D_4
 10
134.1298075267
 20
279.1689452865
 30
0.0
 11
94.1298075267
 21
279.1689452865
 31
0.0
 70
   160
  1
<>
 71
     2
 42
-1.0
  3
SLDDIMSTYLE2
100
AcDbAlignedDimension
 13
54.1298075267
 23
234.1689452865
 33
0.0
 14
134.1298075267
 24
234.1689452865
 34
0.0
100
AcDbRotatedDimension
  0
DIMENSION
  5
1DC
330
1F
100
AcDbEntity
  8
0
  6
SLD-Durchgehend
 62
     7
370
     0
100
AcDbDimension
  2
_D_5
 10
124.1298075267
 20
145.8600825112
 30
0.0
 11
94.1298075267
 21
145.8600825112
 31
0.0
 70
   160
  1
<>
 71
     2
 42
-1.0
  3
SLDDIMSTYLE2
100
AcDbAlignedDimension
 13
64.1298075267
 23
164.1689452865
 33
0.0
 14
124.1298075267
 24
164.1689452865
 34
0.0
100
AcDbRotatedDimension
  0
DIMENSION
  5
1E6
330
1F
100
AcDbEntity
  8
0
  6
SLD-Durchgehend
 62
     7
370
     0
100
AcDbDimension
  2
_D_6
 10
51.119413822
 20
154.1689452865
 30
0.0
 11
51.119413822
 21
159.1689452865
 31
0.0
 70
   160
  1
<>
 71
     2
 42
-1.0
  3
SLDDIMSTYLE2
100
AcDbAlignedDimension
 13
64.1298075267
 23
164.1689452865
 33
0.0
 14
63.1298075267
 24
154.1689452865
 34
0.0
 50
90.0
100
AcDbRotatedDimension
  0
INSERT
  5
1FA
330
1F
100
AcDbEntity
  8
0
  6
SLD-Durchgehend
 62
     7
370
     0
100
AcDbBlockReference
  2
SW_CENTERMARKSYMBOL_0
 10
94.1298075267
 20
194.1689452865
 30
0.0
  0
ARC
  5
1FB
330
1F
100
AcDbEntity
  8
0
  6
SLD-Durchgehend
 62
     7
370
    15
100
AcDbCircle
 10
222.9121257341
 20
234.6689452865
 30
0.0
 40
0.5
100
AcDbArc
 50
180.0
 51
270.0
  0
ARC
  5
1FC
330
1F
100
AcDbEntity
  8
0
  6
SLD-Durchgehend
 62
     7
370
    15
100
AcDbCircle
 10
241.4121257341
 20
234.6689452865
 30
0.0
 40
0.5
100
AcDbArc
 50
270.0
 51
0.0
  0
LINE
  5
1FD
330
1F
100
AcDbEntity
  8
0
  6
SLD-Durchgehend
 62
     7
370
    15
100
AcDbLine
 10
241.9121259353
 20
260.1689449289
 30
0.0
 11
241.9121259353
 21
265.6689486244
 31
0.0
  0
LINE
  5
1FE
330
1F
100
AcDbEntity
  8
0
  6
SLD-Durchgehend
 62
     7
370
    15
100
AcDbLine
 10
241.9121259353
 20
252.1689436176
 30
0.0
 11
241.9121259353
 21
258.1689483263
 31
0.0
  0
LINE
  5
1FF
330
1F
100
AcDbEntity
  8
0
  6
SLD-Durchgehend
 62
     7
370
    15
100
AcDbLine
 10
241.9121259353
 20
244.1689460316
 30
0.0
 11
241.9121259353
 21
250.168947015
 31
0.0
  0
LINE
  5
200
330
1F
100
AcDbEntity
  8
0
  6
SLD-Durchgehend
 62
     7
370
    15
100
AcDbLine
 10
241.9121259353
 20
234.6689454057
 30
0.0
 11
241.9121259353
 21
242.1689457037
 31
0.0
  0
LINE
  5
201
330
1F
100
AcDbEntity
  8
0
  6
SLD-Durchgehend
 62
     7
370
    15
100
AcDbLine
 10
222.4121255329
 20
242.1689457037
 30
0.0
 11
222.4121255329
 21
234.6689454057
 31
0.0
  0
LINE
  5
202
330
1F
100
AcDbEntity
  8
0
  6
SLD-Durchgehend
 62
     7
370
    15
100
AcDbLine
 10
222.4121255329
 20
250.168947015
 30
0.0
 11
222.4121255329
 21
244.1689460316
 31
0.0
  0
LINE
  5
203
330
1F
100
AcDbEntity
  8
0
  6
SLD-Durchgehend
 62
     7
370
    15
100
AcDbLine
 10
222.4121255329
 20
258.1689483263
 30
0.0
 11
222.4121255329
 21
252.1689436176
 31
0.0
  0
LINE
  5
204
330
1F
100
AcDbEntity
  8
0
  6
SLD-Durchgehend
 62
     7
370
    15
100
AcDbLine
 10
222.4121255329
 20
265.6689486244
 30
0.0
 11
222.4121255329
 21
260.1689449289
 31
0.0
  0
ARC
  5
205
330
1F
100
AcDbEntity
  8
0
  6
SLD-Durchgehend
 62
     7
370
    15
100
AcDbCircle
 10
222.9121257341
 20
265.6689452865
 30
0.0
 40
0.5000000000000284
100
AcDbArc
 50
90.0
 51
180.0
  0
ARC
  5
206
330
1F
100
AcDbEntity
  8
0
  6
SLD-Durchgehend
 62
     7
370
    15
100
AcDbCircle
 10
241.4121257341
 20
265.6689452865
 30
0.0
 40
0.5
100
AcDbArc
 50
0.0
 51
90.0
  0
ARC
  5
207
330
1F
100
AcDbEntity
  8
0
  6
SLD-Durchgehend
 62
     7
370
    15
100
AcDbCircle
 10
224.2339225038
 20
266.6689452865
 30
0.0
 40
0.5
100
AcDbArc
 50
270.0
 51
0.0
  0
ARC
  5
208
330
1F
100
AcDbEntity
  8
0
  6
SLD-Durchgehend
 62
     7
370
    15
100
AcDbCircle
 10
240.0903289644
 20
266.6689452865
 30
0.0
 40
0.5
100
AcDbArc
 50
180.0
 51
270.0
  0
ARC
  5
209
330
1F
100
AcDbEntity
  8
0
  6
SLD-Durchgehend
 62
     7
370
    15
100
AcDbCircle
 10
225.2339225038
 20
268.6689452865
 30
0.0
 40
0.5000000000000568
100
AcDbArc
 50
90.0
 51
180.0
  0
LINE
  5
20A
330
1F
100
AcDbEntity
  8
0
  6
SLD-Durchgehend
 62
     7
370
    15
100
AcDbLine
 10
224.7339224903
 20
268.6689472535
 30
0.0
 11
224.7339224903
 21
266.6689432003
 31
0.0
  0
LINE
  5
20B
330
1F
100
AcDbEntity
  8
0
  6
SLD-Durchgehend
 62
     7
370
    15
100
AcDbLine
 10
239.5903289779
 20
266.6689432003
 30
0.0
 11
239.5903289779
 21
268.6689472535
 31
0.0
  0
ARC
  5
20C
330
1F
100
AcDbEntity
  8
0
  6
SLD-Durchgehend
 62
     7
370
    15
100
AcDbCircle
 10
239.0903289644
 20
268.6689452865
 30
0.0
 40
0.5
100
AcDbArc
 50
0.0
 51
90.0
  0
LINE
  5
20D
330
1F
100
AcDbEntity
  8
0
  6
SLD-Durchgehend
 62
     7
370
    15
100
AcDbLine
 10
213.6621254957
 20
208.1689457186
 30
0.0
 11
213.4621258354
 21
208.1689457186
 31
0.0
  0
LINE
  5
20E
330
1F
100
AcDbEntity
  8
0
  6
SLD-Durchgehend
 62
     7
370
    15
100
AcDbLine
 10
213.6621254957
 20
233.1689460912
 30
0.0
 11
213.4621258354
 21
233.1689460912
 31
0.0
  0
LINE
  5
20F
330
1F
100
AcDbEntity
  8
0
  6
SLD-Durchgehend
 62
     7
370
    15
100
AcDbLine
 10
213.4621258354
 20
233.1689460912
 30
0.0
 11
213.4621258354
 21
208.1689457186
 31
0.0
  0
LINE
  5
210
330
1F
100
AcDbEntity
  8
0
  6
SLD-Durchgehend
 62
     7
370
    15
100
AcDbLine
 10
241.9121259353
 20
244.1689460316
 30
0.0
 11
241.9121259353
 21
242.1689457037
 31
0.0
  0
LINE
  5
211
330
1F
100
AcDbEntity
  8
0
  6
SLD-Durchgehend
 62
     7
370
    15
100
AcDbLine
 10
222.4121255329
 20
244.1689460316
 30
0.0
 11
241.9121259353
 21
244.1689460316
 31
0.0
  0
LINE
  5
212
330
1F
100
AcDbEntity
  8
0
  6
SLD-Durchgehend
 62
     7
370
    15
100
AcDbLine
 10
222.4121255329
 20
242.1689457037
 30
0.0
 11
222.4121255329
 21
244.1689460316
 31
0.0
  0
LINE
  5
213
330
1F
100
AcDbEntity
  8
0
  6
SLD-Durchgehend
 62
     7
370
    15
100
AcDbLine
 10
222.4121255329
 20
242.1689457037
 30
0.0
 11
241.9121259353
 21
242.1689457037
 31
0.0
  0
LINE
  5
214
330
1F
100
AcDbEntity
  8
0
  6
SLD-Durchgehend
 62
     7
370
    15
100
AcDbLine
 10
222.4121255329
 20
250.168947015
 30
0.0
 11
241.9121259353
 21
250.168947015
 31
0.0
  0
LINE
  5
215
330
1F
100
AcDbEntity
  8
0
  6
SLD-Durchgehend
 62
     7
370
    15
100
AcDbLine
 10
241.9121259353
 20
250.168947015
 30
0.0
 11
241.9121259353
 21
252.1689436176
 31
0.0
  0
LINE
  5
216
330
1F
100
AcDbEntity
  8
0
  6
SLD-Durchgehend
 62
     7
370
    15
100
AcDbLine
 10
222.4121255329
 20
252.1689436176
 30
0.0
 11
241.9121259353
 21
252.1689436176
 31
0.0
  0
LINE
  5
217
330
1F
100
AcDbEntity
  8
0
  6
SLD-Durchgehend
 62
     7
370
    15
100
AcDbLine
 10
222.4121255329
 20
252.1689436176
 30
0.0
 11
222.4121255329
 21
250.168947015
 31
0.0
  0
LINE
  5
218
330
1F
100
AcDbEntity
  8
0
  6
SLD-Durchgehend
 62
     7
370
    15
100
AcDbLine
 10
222.4121255329
 20
258.1689483263
 30
0.0
 11
241.9121259353
 21
258.1689483263
 31
0.0
  0
LINE
  5
219
330
1F
100
AcDbEntity
  8
0
  6
SLD-Durchgehend
 62
     7
370
    15
100
AcDbLine
 10
241.9121259353
 20
258.1689483263
 30
0.0
 11
241.9121259353
 21
260.1689449289
 31
0.0
  0
LINE
  5
21A
330
1F
100
AcDbEntity
  8
0
  6
SLD-Durchgehend
 62
     7
370
    15
100
AcDbLine
 10
222.4121255329
 20
260.1689449289
 30
0.0
 11
241.9121259353
 21
260.1689449289
 31
0.0
  0
LINE
  5
21B
330
1F
100
AcDbEntity
  8
0
  6
SLD-Durchgehend
 62
     7
370
    15
100
AcDbLine
 10
222.4121255329
 20
260.1689449289
 30
0.0
 11
222.4121255329
 21
258.1689483263
 31
0.0
  0
LINE
  5
21C
330
1F
100
AcDbEntity
  8
0
  6
SLD-Durchgehend
 62
     7
370
    15
100
AcDbLine
 10
222.9121256149
 20
266.1689421871
 30
0.0
 11
241.4121258533
 21
266.1689421871
 31
0.0
  0
LINE
  5
21D
330
1F
100
AcDbEntity
  8
0
  6
SLD-Durchgehend
 62
     7
370
    15
100
AcDbLine
 10
223.6621252722
 20
252.1689436176
 30
0.0
 11
223.6621252722
 21
250.168947015
 31
0.0
  0
LINE
  5
21E
330
1F
100
AcDbEntity
  8
0
  6
SLD-Durchgehend
 62
     7
370
    15
100
AcDbLine
 10
240.662126196
 20
252.1689436176
 30
0.0
 11
240.662126196
 21
250.168947015
 31
0.0
  0
LINE
  5
21F
330
1F
100
AcDbEntity
  8
0
  6
SLD-Durchgehend
 62
     7
370
    15
100
AcDbLine
 10
240.662126196
 20
242.1689457037
 30
0.0
 11
240.662126196
 21
244.1689460316
 31
0.0
  0
LINE
  5
220
330
1F
100
AcDbEntity
  8
0
  6
SLD-Durchgehend
 62
     7
370
    15
100
AcDbLine
 10
223.6621252722
 20
242.1689457037
 30
0.0
 11
223.6621252722
 21
244.1689460316
 31
0.0
  0
LINE
  5
221
330
1F
100
AcDbEntity
  8
0
  6
SLD-Durchgehend
 62
     7
370
    15
100
AcDbLine
 10
223.6621252722
 20
260.1689449289
 30
0.0
 11
223.6621252722
 21
258.1689483263
 31
0.0
  0
LINE
  5
222
330
1F
100
AcDbEntity
  8
0
  6
SLD-Durchgehend
 62
     7
370
    15
100
AcDbLine
 10
240.662126196
 20
260.1689449289
 30
0.0
 11
240.662126196
 21
258.1689483263
 31
0.0
  0
LINE
  5
223
330
1F
100
AcDbEntity
  8
0
  6
SLD-Durchgehend
 62
     7
370
    15
100
AcDbLine
 10
228.6980241532
 20
269.1689482667
 30
0.0
 11
235.626227315
 21
269.1689482667
 31
0.0
  0
LINE
  5
224
330
1F
100
AcDbEntity
  8
0
  6
SLD-Durchgehend
 62
     7
370
    15
100
AcDbLine
 10
225.2339225723
 20
269.1689482667
 30
0.0
 11
228.6980241532
 21
269.1689482667
 31
0.0
  0
LINE
  5
225
330
1F
100
AcDbEntity
  8
0
  6
SLD-Durchgehend
 62
     7
370
    15
100
AcDbLine
 10
235.626227315
 20
269.1689482667
 30
0.0
 11
239.0903288959
 21
269.1689482667
 31
0.0
  0
LINE
  5
226
330
1F
100
AcDbEntity
  8
0
  6
SLD-Durchgehend
 62
     7
370
    15
100
AcDbLine
 10
213.6621254957
 20
170.1689450779
 30
0.0
 11
213.6621254957
 21
154.1689461806
 31
0.0
  0
LINE
  5
227
330
1F
100
AcDbEntity
  8
0
  6
SLD-Durchgehend
 62
     7
370
    15
100
AcDbLine
 10
227.6621259278
 20
154.1689461806
 30
0.0
 11
227.6621259278
 21
170.1689450779
 31
0.0
  0
LINE
  5
228
330
1F
100
AcDbEntity
  8
0
  6
SLD-Durchgehend
 62
     7
370
    15
100
AcDbLine
 10
213.6621254957
 20
170.1689450779
 30
0.0
 11
227.6621259278
 21
170.1689450779
 31
0.0
  0
LINE
  5
229
330
1F
100
AcDbEntity
  8
0
  6
SLD-Durchgehend
 62
     7
370
    15
100
AcDbLine
 10
227.6621259278
 20
154.1689461806
 30
0.0
 11
213.6621254957
 21
154.1689461806
 31
0.0
  0
LINE
  5
22A
330
1F
100
AcDbEntity
  8
0
  6
SLD-Durchgehend
 62
     7
370
    15
100
AcDbLine
 10
250.6621259725
 20
170.1689450779
 30
0.0
 11
250.6621259725
 21
154.1689461806
 31
0.0
  0
LINE
  5
22B
330
1F
100
AcDbEntity
  8
0
  6
SLD-Durchgehend
 62
     7
370
    15
100
AcDbLine
 10
236.6621255404
 20
154.1689461806
 30
0.0
 11
236.6621255404
 21
170.1689450779
 31
0.0
  0
LINE
  5
22C
330
1F
100
AcDbEntity
  8
0
  6
SLD-Durchgehend
 62
     7
370
    15
100
AcDbLine
 10
236.6621255404
 20
170.1689450779
 30
0.0
 11
250.6621259725
 21
170.1689450779
 31
0.0
  0
LINE
  5
22D
330
1F
100
AcDbEntity
  8
0
  6
SLD-Durchgehend
 62
     7
370
    15
100
AcDbLine
 10
250.6621259725
 20
154.1689461806
 30
0.0
 11
236.6621255404
 21
154.1689461806
 31
0.0
  0
LINE
  5
22E
330
1F
100
AcDbEntity
  8
0
  6
SLD-Durchgehend
 62
     7
370
    15
100
AcDbLine
 10
236.6621255404
 20
170.1689450779
 30
0.0
 11
227.6621259278
 21
170.1689450779
 31
0.0
  0
LINE
  5
22F
330
1F
100
AcDbEntity
  8
0
  6
SLD-Durchgehend
 62
     7
370
    15
100
AcDbLine
 10
236.6621255404
 20
154.1689461806
 30
0.0
 11
227.6621259278
 21
154.1689461806
 31
0.0
  0
LINE
  5
230
330
1F
100
AcDbEntity
  8
0
  6
SLD-Durchgehend
 62
     7
370
    15
100
AcDbLine
 10
250.6621259725
 20
172.6689445564
 30
0.0
 11
250.6621259725
 21
170.1689450779
 31
0.0
  0
LINE
  5
231
330
1F
100
AcDbEntity
  8
0
  6
SLD-Durchgehend
 62
     7
370
    15
100
AcDbLine
 10
213.6621254957
 20
170.1689450779
 30
0.0
 11
213.6621254957
 21
172.6689445564
 31
0.0
  0
LINE
  5
232
330
1F
100
AcDbEntity
  8
0
  6
SLD-Durchgehend
 62
     7
370
    15
100
AcDbLine
 10
213.6621254957
 20
234.1689443924
 30
0.0
 11
250.6621259725
 21
234.1689443924
 31
0.0
  0
LINE
  5
233
330
1F
100
AcDbEntity
  8
0
  6
SLD-Durchgehend
 62
     7
370
    15
100
AcDbLine
 10
250.6621259725
 20
172.6689445564
 30
0.0
 11
250.6621259725
 21
234.1689443924
 31
0.0
  0
LINE
  5
234
330
1F
100
AcDbEntity
  8
0
  6
SLD-Durchgehend
 62
     7
370
    15
100
AcDbLine
 10
213.6621254957
 20
172.6689445564
 30
0.0
 11
213.6621254957
 21
234.1689443924
 31
0.0
  0
LINE
  5
235
330
1F
100
AcDbEntity
  8
0
  6
SLD-Durchgehend
 62
     8
370
     0
100
AcDbLine
 10
222.4121255329
 20
234.6689454057
 30
0.0
 11
241.9121259353
 21
234.6689454057
 31
0.0
  0
LINE
  5
236
330
1F
100
AcDbEntity
  8
0
  6
SLD-Durchgehend
 62
     8
370
     0
100
AcDbLine
 10
241.9121259353
 20
265.6689486244
 30
0.0
 11
222.4121255329
 21
265.6689486244
 31
0.0
  0
ARC
  5
237
330
1F
100
AcDbEntity
  8
0
  6
SLD-Durchgehend
 62
     8
370
     0
100
AcDbCircle
 10
227.7959062491
 20
266.6376991436
 30
0.0
 40
0.4701443919298695
100
AcDbArc
 50
274.4028637984
 51
3.8104738203
  0
LINE
  5
238
330
1F
100
AcDbEntity
  8
0
  6
SLD-Durchgehend
 62
     8
370
     0
100
AcDbLine
 10
228.2650113101
 20
266.6689432003
 30
0.0
 11
228.6980241532
 21
266.6689432003
 31
0.0
  0
LINE
  5
239
330
1F
100
AcDbEntity
  8
0
  6
SLD-Durchgehend
 62
     8
370
     0
100
AcDbLine
 10
228.6980241532
 20
266.1689421871
 30
0.0
 11
228.6980241532
 21
266.6689432003
 31
0.0
  0
LINE
  5
23A
330
1F
100
AcDbEntity
  8
0
  6
SLD-Durchgehend
 62
     8
370
     0
100
AcDbLine
 10
228.6980241532
 20
266.6689432003
 30
0.0
 11
235.626227315
 21
266.6689432003
 31
0.0
  0
LINE
  5
23B
330
1F
100
AcDbEntity
  8
0
  6
SLD-Durchgehend
 62
     8
370
     0
100
AcDbLine
 10
235.626227315
 20
266.1689421871
 30
0.0
 11
235.626227315
 21
266.6689432003
 31
0.0
  0
LINE
  5
23C
330
1F
100
AcDbEntity
  8
0
  6
SLD-Durchgehend
 62
     8
370
     0
100
AcDbLine
 10
236.0592401581
 20
266.6689432003
 30
0.0
 11
235.626227315
 21
266.6689432003
 31
0.0
  0
ARC
  5
23D
330
1F
100
AcDbEntity
  8
0
  6
SLD-Durchgehend
 62
     8
370
     0
100
AcDbCircle
 10
236.528345219
 20
266.6376991436
 30
0.0
 40
0.4701443919298695
100
AcDbArc
 50
176.1895261797
 51
265.5971362016
  0
LINE
  5
23E
330
1F
100
AcDbEntity
  8
0
  6
SLD-Durchgehend
 62
     8
370
     0
100
AcDbLine
 10
228.6980241532
 20
268.6689472535
 30
0.0
 11
228.6980241532
 21
266.6689432003
 31
0.0
  0
LINE
  5
23F
330
1F
100
AcDbEntity
  8
0
  6
SLD-Durchgehend
 62
     8
370
     0
100
AcDbLine
 10
228.2650113101
 20
266.6689432003
 30
0.0
 11
228.2650113101
 21
268.6689472535
 31
0.0
  0
LINE
  5
240
330
1F
100
AcDbEntity
  8
0
  6
SLD-Durchgehend
 62
     8
370
     0
100
AcDbLine
 10
228.6980241532
 20
268.6689472535
 30
0.0
 11
228.2650113101
 21
268.6689472535
 31
0.0
  0
LINE
  5
241
330
1F
100
AcDbEntity
  8
0
  6
SLD-Durchgehend
 62
     8
370
     0
100
AcDbLine
 10
224.8009097292
 20
266.6689432003
 30
0.0
 11
228.2650113101
 21
266.6689432003
 31
0.0
  0
ARC
  5
242
330
1F
100
AcDbEntity
  8
0
  6
SLD-Durchgehend
 62
     8
370
     0
100
AcDbCircle
 10
224.3318047124
 20
266.6376991221
 30
0.0
 40
0.4701443492788142
100
AcDbArc
 50
274.4028303406
 51
3.8104767863
  0
ARC
  5
243
330
1F
100
AcDbEntity
  8
0
  6
SLD-Durchgehend
 62
     8
370
     0
100
AcDbCircle
 10
228.7341166998
 20
268.7001910087
 30
0.0
 40
0.4701446999756331
100
AcDbArc
 50
94.4028726398
 51
183.810434487
  0
LINE
  5
244
330
1F
100
AcDbEntity
  8
0
  6
SLD-Durchgehend
 62
     8
370
     0
100
AcDbLine
 10
228.6980241532
 20
268.6689472535
 30
0.0
 11
228.6980241532
 21
269.1689482667
 31
0.0
  0
LINE
  5
245
330
1F
100
AcDbEntity
  8
0
  6
SLD-Durchgehend
 62
     8
370
     0
100
AcDbLine
 10
235.626227315
 20
268.6689472535
 30
0.0
 11
228.6980241532
 21
268.6689472535
 31
0.0
  0
LINE
  5
246
330
1F
100
AcDbEntity
  8
0
  6
SLD-Durchgehend
 62
     8
370
     0
100
AcDbLine
 10
235.626227315
 20
268.6689472535
 30
0.0
 11
235.626227315
 21
269.1689482667
 31
0.0
  0
LINE
  5
247
330
1F
100
AcDbEntity
  8
0
  6
SLD-Durchgehend
 62
     8
370
     0
100
AcDbLine
 10
235.626227315
 20
266.6689432003
 30
0.0
 11
235.626227315
 21
268.6689472535
 31
0.0
  0
LINE
  5
248
330
1F
100
AcDbEntity
  8
0
  6
SLD-Durchgehend
 62
     8
370
     0
100
AcDbLine
 10
236.0592401581
 20
266.6689432003
 30
0.0
 11
239.523341739
 21
266.6689432003
 31
0.0
  0
ARC
  5
249
330
1F
100
AcDbEntity
  8
0
  6
SLD-Durchgehend
 62
     8
370
     0
100
AcDbCircle
 10
239.9924467558
 20
266.6376991221
 30
0.0
 40
0.4701443492788142
100
AcDbArc
 50
176.1895232137
 51
265.5971696594
  0
LINE
  5
24A
330
1F
100
AcDbEntity
  8
0
  6
SLD-Durchgehend
 62
     8
370
     0
100
AcDbLine
 10
235.626227315
 20
268.6689472535
 30
0.0
 11
236.0592401581
 21
268.6689472535
 31
0.0
  0
LINE
  5
24B
330
1F
100
AcDbEntity
  8
0
  6
SLD-Durchgehend
 62
     8
370
     0
100
AcDbLine
 10
236.0592401581
 20
268.6689472535
 30
0.0
 11
236.0592401581
 21
266.6689432003
 31
0.0
  0
ARC
  5
24C
330
1F
100
AcDbEntity
  8
0
  6
SLD-Durchgehend
 62
     8
370
     0
100
AcDbCircle
 10
235.5901347684
 20
268.7001910087
 30
0.0
 40
0.4701446999756331
100
AcDbArc
 50
356.189565513
 51
85.5971273602
  0
LINE
  5
24D
330
1F
100
AcDbEntity
  8
0
  6
SLD-Durchgehend
 62
     8
370
     0
100
AcDbLine
 10
228.2650113101
 20
268.6689472535
 30
0.0
 11
224.8009097292
 21
268.6689472535
 31
0.0
  0
ARC
  5
24E
330
1F
100
AcDbEntity
  8
0
  6
SLD-Durchgehend
 62
     8
370
     0
100
AcDbCircle
 10
225.2700152787
 20
268.7001908702
 30
0.0
 40
0.4701448502668367
100
AcDbArc
 50
94.4028907672
 51
183.8104163597
  0
LINE
  5
24F
330
1F
100
AcDbEntity
  8
0
  6
SLD-Durchgehend
 62
     8
370
     0
100
AcDbLine
 10
224.8009097292
 20
268.6689472535
 30
0.0
 11
224.8009097292
 21
266.6689432003
 31
0.0
  0
LINE
  5
250
330
1F
100
AcDbEntity
  8
0
  6
SLD-Durchgehend
 62
     8
370
     0
100
AcDbLine
 10
239.523341739
 20
268.6689472535
 30
0.0
 11
236.0592401581
 21
268.6689472535
 31
0.0
  0
ARC
  5
251
330
1F
100
AcDbEntity
  8
0
  6
SLD-Durchgehend
 62
     8
370
     0
100
AcDbCircle
 10
239.0542361895
 20
268.7001908702
 30
0.0
 40
0.4701448502668083
100
AcDbArc
 50
356.1895836403
 51
85.5971092328
  0
LINE
  5
252
330
1F
100
AcDbEntity
  8
0
  6
SLD-Durchgehend
 62
     8
370
     0
100
AcDbLine
 10
239.523341739
 20
266.6689432003
 30
0.0
 11
239.523341739
 21
268.6689472535
 31
0.0
  0
LINE
  5
253
330
1F
100
AcDbEntity
  8
0
  6
SLD-Durchgehend
 62
     8
370
     0
100
AcDbLine
 10
224.8009097292
 20
266.6689432003
 30
0.0
 11
224.7339224903
 21
266.6689432003
 31
0.0
  0
LINE
  5
254
330
1F
100
AcDbEntity
  8
0
  6
SLD-Durchgehend
 62
     8
370
     0
100
AcDbLine
 10
239.5903289779
 20
266.6689432003
 30
0.0
 11
239.523341739
 21
266.6689432003
 31
0.0
  0
LINE
  5
255
330
1F
100
AcDbEntity
  8
0
  6
SLD-Durchgehend
 62
     8
370
     0
100
AcDbLine
 10
224.7339224903
 20
268.6689472535
 30
0.0
 11
224.8009097292
 21
268.6689472535
 31
0.0
  0
LINE
  5
256
330
1F
100
AcDbEntity
  8
0
  6
SLD-Durchgehend
 62
     8
370
     0
100
AcDbLine
 10
239.523341739
 20
268.6689472535
 30
0.0
 11
239.5903289779
 21
268.6689472535
 31
0.0
  0
LINE
  5
257
330
1F
100
AcDbEntity
  8
0
  6
SLD-Durchgehend
 62
     8
370
     0
100
AcDbLine
 10
213.6621254957
 20
172.6689445564
 30
0.0
 11
250.6621259725
 21
172.6689445564
 31
0.0
  0
LINE
  5
258
330
1F
100
AcDbEntity
  8
0
  6
SLD-Punktstrich
 62
     7
370
     0
100
AcDbLine
 10
232.1621257341
 20
152.1689452865
 30
0.0
 11
232.1621257341
 21
172.1689452865
 31
0.0
  0
ARC
  5
259
330
1F
100
AcDbEntity
  8
0
  6
SLD-Durchgehend
 62
     7
370
    15
100
AcDbCircle
 10
346.472262931
 20
234.6689452865
 30
0.0
 40
0.5
100
AcDbArc
 50
180.0
 51
270.0
  0
ARC
  5
25A
330
1F
100
AcDbEntity
  8
0
  6
SLD-Durchgehend
 62
     7
370
    15
100
AcDbCircle
 10
364.972262931
 20
234.6689452865
 30
0.0
 40
0.5
100
AcDbArc
 50
270.0
 51
0.0
  0
LINE
  5
25B
330
1F
100
AcDbEntity
  8
0
  6
SLD-Durchgehend
 62
     7
370
    15
100
AcDbLine
 10
365.472262931
 20
260.1689452865
 30
0.0
 11
365.472262931
 21
265.6689452865
 31
0.0
  0
LINE
  5
25C
330
1F
100
AcDbEntity
  8
0
  6
SLD-Durchgehend
 62
     7
370
    15
100
AcDbLine
 10
365.472262931
 20
252.1689452865
 30
0.0
 11
365.472262931
 21
258.1689452865
 31
0.0
  0
LINE
  5
25D
330
1F
100
AcDbEntity
  8
0
  6
SLD-Durchgehend
 62
     7
370
    15
100
AcDbLine
 10
365.472262931
 20
244.1689452865
 30
0.0
 11
365.472262931
 21
250.1689452865
 31
0.0
  0
LINE
  5
25E
330
1F
100
AcDbEntity
  8
0
  6
SLD-Durchgehend
 62
     7
370
    15
100
AcDbLine
 10
365.472262931
 20
234.6689452865
 30
0.0
 11
365.472262931
 21
242.1689452865
 31
0.0
  0
LINE
  5
25F
330
1F
100
AcDbEntity
  8
0
  6
SLD-Durchgehend
 62
     7
370
    15
100
AcDbLine
 10
345.972262931
 20
265.6689452865
 30
0.0
 11
345.972262931
 21
234.6689452865
 31
0.0
  0
ARC
  5
260
330
1F
100
AcDbEntity
  8
0
  6
SLD-Durchgehend
 62
     7
370
    15
100
AcDbCircle
 10
346.472262931
 20
265.6689452865
 30
0.0
 40
0.5
100
AcDbArc
 50
90.0
 51
180.0
  0
ARC
  5
261
330
1F
100
AcDbEntity
  8
0
  6
SLD-Durchgehend
 62
     7
370
    15
100
AcDbCircle
 10
364.972262931
 20
265.6689452865
 30
0.0
 40
0.5
100
AcDbArc
 50
0.0
 51
90.0
  0
LINE
  5
262
330
1F
100
AcDbEntity
  8
0
  6
SLD-Durchgehend
 62
     7
370
    15
100
AcDbLine
 10
364.222262931
 20
258.1689452865
 30
0.0
 11
364.222262931
 21
260.1689452865
 31
0.0
  0
LINE
  5
263
330
1F
100
AcDbEntity
  8
0
  6
SLD-Durchgehend
 62
     7
370
    15
100
AcDbLine
 10
364.222262931
 20
242.1689452865
 30
0.0
 11
364.222262931
 21
244.1689452865
 31
0.0
  0
LINE
  5
264
330
1F
100
AcDbEntity
  8
0
  6
SLD-Durchgehend
 62
     7
370
    15
100
AcDbLine
 10
364.222262931
 20
250.1689452865
 30
0.0
 11
364.222262931
 21
252.1689452865
 31
0.0
  0
LINE
  5
265
330
1F
100
AcDbEntity
  8
0
  6
SLD-Durchgehend
 62
     7
370
    15
100
AcDbLine
 10
308.722262931
 20
233.1689452865
 30
0.0
 11
308.722262931
 21
208.1689452865
 31
0.0
  0
LINE
  5
266
330
1F
100
AcDbEntity
  8
0
  6
SLD-Durchgehend
 62
     7
370
    15
100
AcDbLine
 10
308.722262931
 20
233.1689452865
 30
0.0
 11
358.722262931
 21
233.1689452865
 31
0.0
  0
LINE
  5
267
330
1F
100
AcDbEntity
  8
0
  6
SLD-Durchgehend
 62
     7
370
    15
100
AcDbLine
 10
358.722262931
 20
233.1689452865
 30
0.0
 11
358.722262931
 21
208.1689452865
 31
0.0
  0
LINE
  5
268
330
1F
100
AcDbEntity
  8
0
  6
SLD-Durchgehend
 62
     7
370
    15
100
AcDbLine
 10
308.722262931
 20
208.1689452865
 30
0.0
 11
358.722262931
 21
208.1689452865
 31
0.0
  0
LINE
  5
269
330
1F
100
AcDbEntity
  8
0
  6
SLD-Durchgehend
 62
     7
370
    15
100
AcDbLine
 10
355.722262931
 20
244.1689452865
 30
0.0
 11
365.472262931
 21
244.1689452865
 31
0.0
  0
LINE
  5
26A
330
1F
100
AcDbEntity
  8
0
  6
SLD-Durchgehend
 62
     7
370
    15
100
AcDbLine
 10
355.722262931
 20
242.1689452865
 30
0.0
 11
355.722262931
 21
244.1689452865
 31
0.0
  0
LINE
  5
26B
330
1F
100
AcDbEntity
  8
0
  6
SLD-Durchgehend
 62
     7
370
    15
100
AcDbLine
 10
355.722262931
 20
242.1689452865
 30
0.0
 11
365.472262931
 21
242.1689452865
 31
0.0
  0
LINE
  5
26C
330
1F
100
AcDbEntity
  8
0
  6
SLD-Durchgehend
 62
     7
370
    15
100
AcDbLine
 10
355.722262931
 20
250.1689452865
 30
0.0
 11
365.472262931
 21
250.1689452865
 31
0.0
  0
LINE
  5
26D
330
1F
100
AcDbEntity
  8
0
  6
SLD-Durchgehend
 62
     7
370
    15
100
AcDbLine
 10
355.722262931
 20
252.1689452865
 30
0.0
 11
365.472262931
 21
252.1689452865
 31
0.0
  0
LINE
  5
26E
330
1F
100
AcDbEntity
  8
0
  6
SLD-Durchgehend
 62
     7
370
    15
100
AcDbLine
 10
355.722262931
 20
252.1689452865
 30
0.0
 11
355.722262931
 21
250.1689452865
 31
0.0
  0
LINE
  5
26F
330
1F
100
AcDbEntity
  8
0
  6
SLD-Durchgehend
 62
     7
370
    15
100
AcDbLine
 10
355.722262931
 20
258.1689452865
 30
0.0
 11
365.472262931
 21
258.1689452865
 31
0.0
  0
LINE
  5
270
330
1F
100
AcDbEntity
  8
0
  6
SLD-Durchgehend
 62
     7
370
    15
100
AcDbLine
 10
355.722262931
 20
260.1689452865
 30
0.0
 11
365.472262931
 21
260.1689452865
 31
0.0
  0
LINE
  5
271
330
1F
100
AcDbEntity
  8
0
  6
SLD-Durchgehend
 62
     7
370
    15
100
AcDbLine
 10
355.722262931
 20
260.1689452865
 30
0.0
 11
355.722262931
 21
258.1689452865
 31
0.0
  0
LINE
  5
272
330
1F
100
AcDbEntity
  8
0
  6
SLD-Durchgehend
 62
     7
370
    15
100
AcDbLine
 10
355.722262931
 20
266.1689452865
 30
0.0
 11
364.972262931
 21
266.1689452865
 31
0.0
  0
LINE
  5
273
330
1F
100
AcDbEntity
  8
0
  6
SLD-Durchgehend
 62
     7
370
    15
100
AcDbLine
 10
346.472262931
 20
266.1689452865
 30
0.0
 11
355.722262931
 21
266.1689452865
 31
0.0
  0
LINE
  5
274
330
1F
100
AcDbEntity
  8
0
  6
SLD-Durchgehend
 62
     7
370
    15
100
AcDbLine
 10
349.722262931
 20
269.1689452865
 30
0.0
 11
355.722262931
 21
269.1689452865
 31
0.0
  0
LINE
  5
275
330
1F
100
AcDbEntity
  8
0
  6
SLD-Durchgehend
 62
     7
370
    15
100
AcDbLine
 10
355.722262931
 20
269.1689452865
 30
0.0
 11
361.722262931
 21
269.1689452865
 31
0.0
  0
ARC
  5
276
330
1F
100
AcDbEntity
  8
0
  6
SLD-Durchgehend
 62
     7
370
    15
100
AcDbCircle
 10
348.722262931
 20
266.6689452865
 30
0.0
 40
0.5
100
AcDbArc
 50
270.0
 51
0.0
  0
ARC
  5
277
330
1F
100
AcDbEntity
  8
0
  6
SLD-Durchgehend
 62
     7
370
    15
100
AcDbCircle
 10
362.722262931
 20
266.6689452865
 30
0.0
 40
0.5
100
AcDbArc
 50
180.0
 51
270.0
  0
ARC
  5
278
330
1F
100
AcDbEntity
  8
0
  6
SLD-Durchgehend
 62
     7
370
    15
100
AcDbCircle
 10
349.722262931
 20
268.6689452865
 30
0.0
 40
0.5000000000000568
100
AcDbArc
 50
90.0
 51
180.0
  0
LINE
  5
279
330
1F
100
AcDbEntity
  8
0
  6
SLD-Durchgehend
 62
     7
370
    15
100
AcDbLine
 10
349.222262931
 20
266.6689452865
 30
0.0
 11
349.222262931
 21
268.6689452865
 31
0.0
  0
ARC
  5
27A
330
1F
100
AcDbEntity
  8
0
  6
SLD-Durchgehend
 62
     7
370
    15
100
AcDbCircle
 10
361.722262931
 20
268.6689452865
 30
0.0
 40
0.5
100
AcDbArc
 50
0.0
 51
90.0
  0
LINE
  5
27B
330
1F
100
AcDbEntity
  8
0
  6
SLD-Durchgehend
 62
     7
370
    15
100
AcDbLine
 10
362.222262931
 20
268.6689452865
 30
0.0
 11
362.222262931
 21
266.6689452865
 31
0.0
  0
LINE
  5
27C
330
1F
100
AcDbEntity
  8
0
  6
SLD-Durchgehend
 62
     7
370
    15
100
AcDbLine
 10
302.722262931
 20
154.6689452865
 30
0.0
 11
364.722262931
 21
154.6689452865
 31
0.0
  0
LINE
  5
27D
330
1F
100
AcDbEntity
  8
0
  6
SLD-Durchgehend
 62
     7
370
    15
100
AcDbLine
 10
302.722262931
 20
154.1689452865
 30
0.0
 11
302.722262931
 21
154.6689452865
 31
0.0
  0
LINE
  5
27E
330
1F
100
AcDbEntity
  8
0
  6
SLD-Durchgehend
 62
     7
370
    15
100
AcDbLine
 10
302.722262931
 20
154.1689452865
 30
0.0
 11
269.722262931
 21
154.1689452865
 31
0.0
  0
LINE
  5
27F
330
1F
100
AcDbEntity
  8
0
  6
SLD-Durchgehend
 62
     7
370
    15
100
AcDbLine
 10
269.722262931
 20
154.1689452865
 30
0.0
 11
269.722262931
 21
170.1689452865
 31
0.0
  0
LINE
  5
280
330
1F
100
AcDbEntity
  8
0
  6
SLD-Durchgehend
 62
     7
370
    15
100
AcDbLine
 10
291.222262931
 20
170.1689452865
 30
0.0
 11
269.722262931
 21
170.1689452865
 31
0.0
  0
ARC
  5
281
330
1F
100
AcDbEntity
  8
0
  6
SLD-Durchgehend
 62
     7
370
    15
100
AcDbCircle
 10
291.222262931
 20
172.6689452865
 30
0.0
 40
2.5
100
AcDbArc
 50
270.0
 51
0.0
  0
LINE
  5
282
330
1F
100
AcDbEntity
  8
0
  6
SLD-Durchgehend
 62
     7
370
    15
100
AcDbLine
 10
293.722262931
 20
234.1689452865
 30
0.0
 11
293.722262931
 21
172.6689452865
 31
0.0
  0
LINE
  5
283
330
1F
100
AcDbEntity
  8
0
  6
SLD-Durchgehend
 62
     7
370
    15
100
AcDbLine
 10
293.722262931
 20
234.1689452865
 30
0.0
 11
373.722262931
 21
234.1689452865
 31
0.0
  0
LINE
  5
284
330
1F
100
AcDbEntity
  8
0
  6
SLD-Durchgehend
 62
     7
370
    15
100
AcDbLine
 10
373.722262931
 20
172.6689452865
 30
0.0
 11
373.722262931
 21
234.1689452865
 31
0.0
  0
ARC
  5
285
330
1F
100
AcDbEntity
  8
0
  6
SLD-Durchgehend
 62
     7
370
    15
100
AcDbCircle
 10
376.222262931
 20
172.6689452865
 30
0.0
 40
2.5
100
AcDbArc
 50
180.0
 51
270.0
  0
LINE
  5
286
330
1F
100
AcDbEntity
  8
0
  6
SLD-Durchgehend
 62
     7
370
    15
100
AcDbLine
 10
397.722262931
 20
170.1689452865
 30
0.0
 11
376.222262931
 21
170.1689452865
 31
0.0
  0
LINE
  5
287
330
1F
100
AcDbEntity
  8
0
  6
SLD-Durchgehend
 62
     7
370
    15
100
AcDbLine
 10
397.722262931
 20
170.1689452865
 30
0.0
 11
397.722262931
 21
154.1689452865
 31
0.0
  0
LINE
  5
288
330
1F
100
AcDbEntity
  8
0
  6
SLD-Durchgehend
 62
     7
370
    15
100
AcDbLine
 10
397.722262931
 20
154.1689452865
 30
0.0
 11
364.722262931
 21
154.1689452865
 31
0.0
  0
LINE
  5
289
330
1F
100
AcDbEntity
  8
0
  6
SLD-Durchgehend
 62
     7
370
    15
100
AcDbLine
 10
364.722262931
 20
154.6689452865
 30
0.0
 11
364.722262931
 21
154.1689452865
 31
0.0
  0
LINE
  5
28A
330
1F
100
AcDbEntity
  8
0
  6
SLD-Durchgehend
 62
     8
370
     0
100
AcDbLine
 10
355.722262931
 20
234.6689452865
 30
0.0
 11
365.472262931
 21
234.6689452865
 31
0.0
  0
LINE
  5
28B
330
1F
100
AcDbEntity
  8
0
  6
SLD-Durchgehend
 62
     8
370
     0
100
AcDbLine
 10
345.972262931
 20
234.6689452865
 30
0.0
 11
355.722262931
 21
234.6689452865
 31
0.0
  0
LINE
  5
28C
330
1F
100
AcDbEntity
  8
0
  6
SLD-Durchgehend
 62
     8
370
     0
100
AcDbLine
 10
355.722262931
 20
265.6689452865
 30
0.0
 11
345.972262931
 21
265.6689452865
 31
0.0
  0
LINE
  5
28D
330
1F
100
AcDbEntity
  8
0
  6
SLD-Durchgehend
 62
     8
370
     0
100
AcDbLine
 10
365.472262931
 20
265.6689452865
 30
0.0
 11
355.722262931
 21
265.6689452865
 31
0.0
  0
LINE
  5
28E
330
1F
100
AcDbEntity
  8
0
  6
SLD-Durchgehend
 62
     8
370
     0
100
AcDbLine
 10
355.972262931
 20
266.6689452865
 30
0.0
 11
355.472262931
 21
266.6689452865
 31
0.0
  0
LWPOLYLINE
  5
28F
330
1F
100
AcDbEntity
  8
0
  6
SLD-Durchgehend
 62
     8
370
     0
100
AcDbPolyline
 90
        9
 70
   128
 43
0.0
 10
355.972262931
 20
266.6689452865
 10
355.9770666109
 20
266.5714001255
 10
355.9912930479
 20
266.4776035703
 10
356.014395528
 20
266.39116017
 10
356.0454862357
 20
266.3153918959
 10
356.0833703728
 20
266.2532104804
 10
356.1265920729
 20
266.2070055203
 10
356.1734903505
 20
266.1785526463
 10
356.222262931
 20
266.1689452865
  0
LWPOLYLINE
  5
290
330
1F
100
AcDbEntity
  8
0
  6
SLD-Durchgehend
 62
     8
370
     0
100
AcDbPolyline
 90
        9
 70
   128
 43
0.0
 10
355.472262931
 20
266.6689452865
 10
355.4674592511
 20
266.5714001255
 10
355.4532328142
 20
266.4776035703
 10
355.4301303341
 20
266.39116017
 10
355.3990396263
 20
266.3153918959
 10
355.3611554893
 20
266.2532104804
 10
355.3179337891
 20
266.2070055203
 10
355.2710355115
 20
266.1785526463
 10
355.222262931
 20
266.1689452865
  0
LINE
  5
291
330
1F
100
AcDbEntity
  8
0
  6
SLD-Durchgehend
 62
     8
370
     0
100
AcDbLine
 10
349.472262931
 20
266.6689452865
 30
0.0
 11
355.472262931
 21
266.6689452865
 31
0.0
  0
LWPOLYLINE
  5
292
330
1F
100
AcDbEntity
  8
0
  6
SLD-Durchgehend
 62
     8
370
     0
100
AcDbPolyline
 90
        9
 70
   128
 43
0.0
 10
349.472262931
 20
266.6689452865
 10
349.4674592511
 20
266.5714001255
 10
349.4532328142
 20
266.4776035703
 10
349.4301303341
 20
266.39116017
 10
349.3990396263
 20
266.3153918959
 10
349.3611554893
 20
266.2532104804
 10
349.3179337891
 20
266.2070055203
 10
349.2710355115
 20
266.1785526463
 10
349.222262931
 20
266.1689452865
  0
LINE
  5
293
330
1F
100
AcDbEntity
  8
0
  6
SLD-Durchgehend
 62
     8
370
     0
100
AcDbLine
 10
355.972262931
 20
266.6689452865
 30
0.0
 11
361.972262931
 21
266.6689452865
 31
0.0
  0
LWPOLYLINE
  5
294
330
1F
100
AcDbEntity
  8
0
  6
SLD-Durchgehend
 62
     8
370
     0
100
AcDbPolyline
 90
        9
 70
   128
 43
0.0
 10
361.972262931
 20
266.6689452865
 10
361.9770666109
 20
266.5714001255
 10
361.9912930479
 20
266.4776035703
 10
362.014395528
 20
266.39116017
 10
362.0454862357
 20
266.3153918959
 10
362.0833703728
 20
266.2532104804
 10
362.1265920729
 20
266.2070055203
 10
362.1734903505
 20
266.1785526463
 10
362.222262931
 20
266.1689452865
  0
LINE
  5
295
330
1F
100
AcDbEntity
  8
0
  6
SLD-Durchgehend
 62
     8
370
     0
100
AcDbLine
 10
355.972262931
 20
268.6689452865
 30
0.0
 11
355.972262931
 21
266.6689452865
 31
0.0
  0
LINE
  5
296
330
1F
100
AcDbEntity
  8
0
  6
SLD-Durchgehend
 62
     8
370
     0
100
AcDbLine
 10
355.472262931
 20
266.6689452865
 30
0.0
 11
355.472262931
 21
268.6689452865
 31
0.0
  0
LINE
  5
297
330
1F
100
AcDbEntity
  8
0
  6
SLD-Durchgehend
 62
     8
370
     0
100
AcDbLine
 10
355.472262931
 20
268.6689452865
 30
0.0
 11
355.972262931
 21
268.6689452865
 31
0.0
  0
LWPOLYLINE
  5
298
330
1F
100
AcDbEntity
  8
0
  6
SLD-Durchgehend
 62
     8
370
     0
100
AcDbPolyline
 90
        9
 70
   128
 43
0.0
 10
355.722262931
 20
269.1689452865
 10
355.7710355115
 20
269.1593379267
 10
355.8179337891
 20
269.1308850528
 10
355.8611554893
 20
269.0846800927
 10
355.8990396263
 20
269.0224986771
 10
355.9301303341
 20
268.946730403
 10
355.9532328142
 20
268.8602870027
 10
355.9674592511
 20
268.7664904475
 10
355.972262931
 20
268.6689452865
  0
LWPOLYLINE
  5
299
330
1F
100
AcDbEntity
  8
0
  6
SLD-Durchgehend
 62
     8
370
     0
100
AcDbPolyline
 90
        9
 70
   128
 43
0.0
 10
355.722262931
 20
269.1689452865
 10
355.6734903505
 20
269.1593379267
 10
355.6265920729
 20
269.1308850528
 10
355.5833703728
 20
269.0846800927
 10
355.5454862357
 20
269.0224986771
 10
355.514395528
 20
268.946730403
 10
355.4912930479
 20
268.8602870027
 10
355.4770666109
 20
268.7664904475
 10
355.472262931
 20
268.6689452865
  0
LINE
  5
29A
330
1F
100
AcDbEntity
  8
0
  6
SLD-Durchgehend
 62
     8
370
     0
100
AcDbLine
 10
355.472262931
 20
268.6689452865
 30
0.0
 11
349.472262931
 21
268.6689452865
 31
0.0
  0
LINE
  5
29B
330
1F
100
AcDbEntity
  8
0
  6
SLD-Durchgehend
 62
     8
370
     0
100
AcDbLine
 10
349.472262931
 20
268.6689452865
 30
0.0
 11
349.472262931
 21
266.6689452865
 31
0.0
  0
LWPOLYLINE
  5
29C
330
1F
100
AcDbEntity
  8
0
  6
SLD-Durchgehend
 62
     8
370
     0
100
AcDbPolyline
 90
        9
 70
   128
 43
0.0
 10
349.722262931
 20
269.1689452865
 10
349.6734903505
 20
269.1593379267
 10
349.6265920729
 20
269.1308850528
 10
349.5833703728
 20
269.0846800927
 10
349.5454862357
 20
269.0224986771
 10
349.514395528
 20
268.946730403
 10
349.4912930479
 20
268.8602870027
 10
349.4770666109
 20
268.7664904475
 10
349.472262931
 20
268.6689452865
  0
LWPOLYLINE
  5
29D
330
1F
100
AcDbEntity
  8
0
  6
SLD-Durchgehend
 62
     8
370
     0
100
AcDbPolyline
 90
        9
 70
   128
 43
0.0
 10
361.722262931
 20
269.1689452865
 10
361.7710355115
 20
269.1593379267
 10
361.8179337891
 20
269.1308850528
 10
361.8611554893
 20
269.0846800927
 10
361.8990396263
 20
269.0224986771
 10
361.9301303341
 20
268.946730403
 10
361.9532328142
 20
268.8602870027
 10
361.9674592511
 20
268.7664904475
 10
361.972262931
 20
268.6689452865
  0
LINE
  5
29E
330
1F
100
AcDbEntity
  8
0
  6
SLD-Durchgehend
 62
     8
370
     0
100
AcDbLine
 10
361.972262931
 20
268.6689452865
 30
0.0
 11
355.972262931
 21
268.6689452865
 31
0.0
  0
LINE
  5
29F
330
1F
100
AcDbEntity
  8
0
  6
SLD-Durchgehend
 62
     8
370
     0
100
AcDbLine
 10
361.972262931
 20
266.6689452865
 30
0.0
 11
361.972262931
 21
268.6689452865
 31
0.0
  0
LINE
  5
2A0
330
1F
100
AcDbEntity
  8
0
  6
SLD-Durchgehend
 62
     8
370
     0
100
AcDbLine
 10
349.472262931
 20
266.6689452865
 30
0.0
 11
349.222262931
 21
266.6689452865
 31
0.0
  0
LINE
  5
2A1
330
1F
100
AcDbEntity
  8
0
  6
SLD-Durchgehend
 62
     8
370
     0
100
AcDbLine
 10
361.972262931
 20
266.6689452865
 30
0.0
 11
362.222262931
 21
266.6689452865
 31
0.0
  0
LINE
  5
2A2
330
1F
100
AcDbEntity
  8
0
  6
SLD-Durchgehend
 62
     8
370
     0
100
AcDbLine
 10
349.222262931
 20
268.6689452865
 30
0.0
 11
349.472262931
 21
268.6689452865
 31
0.0
  0
LINE
  5
2A3
330
1F
100
AcDbEntity
  8
0
  6
SLD-Durchgehend
 62
     8
370
     0
100
AcDbLine
 10
362.222262931
 20
268.6689452865
 30
0.0
 11
361.972262931
 21
268.6689452865
 31
0.0
  0
LINE
  5
2A4
330
1F
100
AcDbEntity
  8
0
  6
SLD-Durchgehend
 62
     7
370
    15
100
AcDbLine
 10
308.7222625585
 20
85.6140863669
 30
0.0
 11
308.7222625585
 21
85.8140860272
 31
0.0
  0
LINE
  5
2A5
330
1F
100
AcDbEntity
  8
0
  6
SLD-Durchgehend
 62
     7
370
    15
100
AcDbLine
 10
358.7222633036
 20
85.8140860272
 30
0.0
 11
358.7222633036
 21
85.6140863669
 31
0.0
  0
LINE
  5
2A6
330
1F
100
AcDbEntity
  8
0
  6
SLD-Durchgehend
 62
     7
370
    15
100
AcDbLine
 10
308.7222625585
 20
85.6140863669
 30
0.0
 11
358.7222633036
 21
85.6140863669
 31
0.0
  0
LINE
  5
2A7
330
1F
100
AcDbEntity
  8
0
  6
SLD-Durchgehend
 62
     7
370
    15
100
AcDbLine
 10
349.4722631844
 20
108.2112006896
 30
0.0
 11
355.4722623052
 21
111.6753022705
 31
0.0
  0
ARC
  5
2A8
330
1F
100
AcDbEntity
  8
0
  6
SLD-Durchgehend
 62
     7
370
    15
100
AcDbCircle
 10
355.722262931
 20
111.2422894959
 30
0.0
 40
0.5000000000000041
100
AcDbArc
 50
60.0
 51
120.0
  0
LINE
  5
2A9
330
1F
100
AcDbEntity
  8
0
  6
SLD-Durchgehend
 62
     7
370
    15
100
AcDbLine
 10
355.9722633185
 20
111.6753022705
 30
0.0
 11
361.9722624393
 21
108.2112006896
 31
0.0
  0
LINE
  5
2AA
330
1F
100
AcDbEntity
  8
0
  6
SLD-Durchgehend
 62
     7
370
    15
100
AcDbLine
 10
362.2222629459
 20
107.7781878465
 30
0.0
 11
362.2222629459
 21
100.8499846847
 31
0.0
  0
ARC
  5
2AB
330
1F
100
AcDbEntity
  8
0
  6
SLD-Durchgehend
 62
     7
370
    15
100
AcDbCircle
 10
361.722262931
 20
107.7781878807
 30
0.0
 40
0.5
100
AcDbArc
 50
0.0
 51
60.0
  0
ARC
  5
2AC
330
1F
100
AcDbEntity
  8
0
  6
SLD-Durchgehend
 62
     7
370
    15
100
AcDbCircle
 10
349.722262931
 20
107.7781878807
 30
0.0
 40
0.5000000000000202
100
AcDbArc
 50
120.0
 51
180.0
  0
LINE
  5
2AD
330
1F
100
AcDbEntity
  8
0
  6
SLD-Durchgehend
 62
     7
370
    15
100
AcDbLine
 10
349.2222626777
 20
100.8499846847
 30
0.0
 11
349.2222626777
 21
107.7781878465
 31
0.0
  0
ARC
  5
2AE
330
1F
100
AcDbEntity
  8
0
  6
SLD-Durchgehend
 62
     7
370
    15
100
AcDbCircle
 10
361.722262931
 20
100.8499846505
 30
0.0
 40
0.5
100
AcDbArc
 50
300.0
 51
0.0
  0
LINE
  5
2AF
330
1F
100
AcDbEntity
  8
0
  6
SLD-Durchgehend
 62
     7
370
    15
100
AcDbLine
 10
361.9722624393
 20
100.4169718416
 30
0.0
 11
355.9722633185
 21
96.9528702607
 31
0.0
  0
LINE
  5
2B0
330
1F
100
AcDbEntity
  8
0
  6
SLD-Durchgehend
 62
     7
370
    15
100
AcDbLine
 10
355.4722623052
 20
96.9528702607
 30
0.0
 11
349.4722631844
 21
100.4169718416
 31
0.0
  0
ARC
  5
2B1
330
1F
100
AcDbEntity
  8
0
  6
SLD-Durchgehend
 62
     7
370
    15
100
AcDbCircle
 10
349.722262931
 20
100.8499846505
 30
0.0
 40
0.5000000000000202
100
AcDbArc
 50
180.0
 51
240.0
  0
ARC
  5
2B2
330
1F
100
AcDbEntity
  8
0
  6
SLD-Durchgehend
 62
     7
370
    15
100
AcDbCircle
 10
355.722262931
 20
97.3858830353
 30
0.0
 40
0.5000000000000572
100
AcDbArc
 50
240.0
 51
300.0
  0
CIRCLE
  5
2B3
330
1F
100
AcDbEntity
  8
0
  6
SLD-Durchgehend
 62
     7
370
    15
100
AcDbCircle
 10
355.722262931
 20
104.3140862656
 30
0.0
 40
9.750000000000014
  0
LINE
  5
2B4
330
1F
100
AcDbEntity
  8
0
  6
SLD-Durchgehend
 62
     7
370
    15
100
AcDbLine
 10
373.722262037
 20
85.8140860272
 30
0.0
 11
373.722262037
 21
122.814086504
 31
0.0
  0
LINE
  5
2B5
330
1F
100
AcDbEntity
  8
0
  6
SLD-Durchgehend
 62
     7
370
    15
100
AcDbLine
 10
293.7222638251
 20
85.8140860272
 30
0.0
 11
373.722262037
 21
85.8140860272
 31
0.0
  0
LINE
  5
2B6
330
1F
100
AcDbEntity
  8
0
  6
SLD-Durchgehend
 62
     7
370
    15
100
AcDbLine
 10
293.7222638251
 20
85.8140860272
 30
0.0
 11
293.7222638251
 21
122.814086504
 31
0.0
  0
LINE
  5
2B7
330
1F
100
AcDbEntity
  8
0
  6
SLD-Durchgehend
 62
     7
370
    15
100
AcDbLine
 10
293.7222638251
 20
122.814086504
 30
0.0
 11
373.722262037
 21
122.814086504
 31
0.0
  0
CIRCLE
  5
2B8
330
1F
100
AcDbEntity
  8
0
  6
SLD-Durchgehend
 62
     7
370
    15
100
AcDbCircle
 10
313.422262931
 20
104.3140862656
 30
0.0
 40
6.722500000000025
  0
CIRCLE
  5
2B9
330
1F
100
AcDbEntity
  8
0
  6
SLD-Durchgehend
 62
     7
370
    15
100
AcDbCircle
 10
313.422262931
 20
104.3140862656
 30
0.0
 40
5.722499999999997
  0
CIRCLE
  5
2BA
330
1F
100
AcDbEntity
  8
0
  6
SLD-Durchgehend
 62
     7
370
    15
100
AcDbCircle
 10
313.422262931
 20
104.3140862656
 30
0.0
 40
3.150000000000006
  0
CIRCLE
  5
2BB
330
1F
100
AcDbEntity
  8
0
  6
SLD-Durchgehend
 62
     7
370
    15
100
AcDbCircle
 10
313.422262931
 20
104.3140862656
 30
0.0
 40
1.249999999999986
  0
LINE
  5
2BC
330
1F
100
AcDbEntity
  8
0
  6
SLD-Durchgehend
 62
     7
370
    15
100
AcDbLine
 10
376.2222633781
 20
85.8140860272
 30
0.0
 11
373.722262037
 21
85.8140860272
 31
0.0
  0
LINE
  5
2BD
330
1F
100
AcDbEntity
  8
0
  6
SLD-Durchgehend
 62
     7
370
    15
100
AcDbLine
 10
373.722262037
 20
122.814086504
 30
0.0
 11
376.2222633781
 21
122.814086504
 31
0.0
  0
LINE
  5
2BE
330
1F
100
AcDbEntity
  8
0
  6
SLD-Durchgehend
 62
     7
370
    15
100
AcDbLine
 10
293.7222638251
 20
85.8140860272
 30
0.0
 11
291.222262484
 21
85.8140860272
 31
0.0
  0
LINE
  5
2BF
330
1F
100
AcDbEntity
  8
0
  6
SLD-Durchgehend
 62
     7
370
    15
100
AcDbLine
 10
291.222262484
 20
122.814086504
 30
0.0
 11
293.7222638251
 21
122.814086504
 31
0.0
  0
LINE
  5
2C0
330
1F
100
AcDbEntity
  8
0
  6
SLD-Durchgehend
 62
     7
370
    15
100
AcDbLine
 10
397.7222659709
 20
108.8140860719
 30
0.0
 11
397.7222659709
 21
122.814086504
 31
0.0
  0
LINE
  5
2C1
330
1F
100
AcDbEntity
  8
0
  6
SLD-Durchgehend
 62
     7
370
    15
100
AcDbLine
 10
397.7222659709
 20
108.8140860719
 30
0.0
 11
385.7222640039
 21
108.8140860719
 31
0.0
  0
ARC
  5
2C2
330
1F
100
AcDbEntity
  8
0
  6
SLD-Durchgehend
 62
     7
370
    15
100
AcDbCircle
 10
385.722262931
 20
104.3140862656
 30
0.0
 40
4.5
100
AcDbArc
 50
90.0
 51
270.0
  0
LINE
  5
2C3
330
1F
100
AcDbEntity
  8
0
  6
SLD-Durchgehend
 62
     7
370
    15
100
AcDbLine
 10
385.7222640039
 20
99.8140864593
 30
0.0
 11
397.7222659709
 21
99.8140864593
 31
0.0
  0
LINE
  5
2C4
330
1F
100
AcDbEntity
  8
0
  6
SLD-Durchgehend
 62
     7
370
    15
100
AcDbLine
 10
397.7222659709
 20
85.8140860272
 30
0.0
 11
397.7222659709
 21
99.8140864593
 31
0.0
  0
LINE
  5
2C5
330
1F
100
AcDbEntity
  8
0
  6
SLD-Durchgehend
 62
     7
370
    15
100
AcDbLine
 10
397.7222659709
 20
85.8140860272
 30
0.0
 11
376.2222633781
 21
85.8140860272
 31
0.0
  0
LINE
  5
2C6
330
1F
100
AcDbEntity
  8
0
  6
SLD-Durchgehend
 62
     7
370
    15
100
AcDbLine
 10
397.7222659709
 20
122.814086504
 30
0.0
 11
376.2222633781
 21
122.814086504
 31
0.0
  0
LINE
  5
2C7
330
1F
100
AcDbEntity
  8
0
  6
SLD-Durchgehend
 62
     7
370
    15
100
AcDbLine
 10
269.7222598912
 20
85.8140860272
 30
0.0
 11
269.7222598912
 21
99.8140864593
 31
0.0
  0
LINE
  5
2C8
330
1F
100
AcDbEntity
  8
0
  6
SLD-Durchgehend
 62
     7
370
    15
100
AcDbLine
 10
269.7222598912
 20
99.8140864593
 30
0.0
 11
281.7222618582
 21
99.8140864593
 31
0.0
  0
ARC
  5
2C9
330
1F
100
AcDbEntity
  8
0
  6
SLD-Durchgehend
 62
     7
370
    15
100
AcDbCircle
 10
281.722262931
 20
104.3140862656
 30
0.0
 40
4.5
100
AcDbArc
 50
270.0
 51
90.0
  0
LINE
  5
2CA
330
1F
100
AcDbEntity
  8
0
  6
SLD-Durchgehend
 62
     7
370
    15
100
AcDbLine
 10
281.7222618582
 20
108.8140860719
 30
0.0
 11
269.7222598912
 21
108.8140860719
 31
0.0
  0
LINE
  5
2CB
330
1F
100
AcDbEntity
  8
0
  6
SLD-Durchgehend
 62
     7
370
    15
100
AcDbLine
 10
269.7222598912
 20
108.8140860719
 30
0.0
 11
269.7222598912
 21
122.814086504
 31
0.0
  0
LINE
  5
2CC
330
1F
100
AcDbEntity
  8
0
  6
SLD-Durchgehend
 62
     7
370
    15
100
AcDbLine
 10
291.222262484
 20
85.8140860272
 30
0.0
 11
269.7222598912
 21
85.8140860272
 31
0.0
  0
LINE
  5
2CD
330
1F
100
AcDbEntity
  8
0
  6
SLD-Durchgehend
 62
     7
370
    15
100
AcDbLine
 10
291.222262484
 20
122.814086504
 30
0.0
 11
269.7222598912
 21
122.814086504
 31
0.0
  0
LWPOLYLINE
  5
2CE
330
1F
100
AcDbEntity
  8
0
  6
SLD-Durchgehend
 62
     8
370
     0
100
AcDbPolyline
 90
        9
 70
   128
 43
0.0
 10
355.4722623052
 20
111.6753022705
 10
355.477066067
 20
111.6669818347
 10
355.4912929507
 20
111.642340902
 10
355.5143953385
 20
111.6023266276
 10
355.5454866113
 20
111.5484756937
 10
355.583370951
 20
111.4828584303
 10
355.626591769
 20
111.4079963935
 10
355.6734894486
 20
111.3267659729
 10
355.7222628118
 20
111.2422894274
  0
LINE
  5
2CF
330
1F
100
AcDbEntity
  8
0
  6
SLD-Durchgehend
 62
     8
370
     0
100
AcDbLine
 10
355.7222628118
 20
111.2422894274
 30
0.0
 11
349.722263691
 21
107.7781878465
 31
0.0
  0
LWPOLYLINE
  5
2D0
330
1F
100
AcDbEntity
  8
0
  6
SLD-Durchgehend
 62
     8
370
     0
100
AcDbPolyline
 90
        9
 70
   128
 43
0.0
 10
349.4722631844
 20
108.2112006896
 10
349.4770669462
 20
108.2028802538
 10
349.4912938298
 20
108.1782395539
 10
349.5143962176
 20
108.1382248138
 10
349.5454856278
 20
108.0843741128
 10
349.5833699675
 20
108.0187568494
 10
349.6265926482
 20
107.9438945798
 10
349.6734903278
 20
107.862664392
 10
349.722263691
 20
107.7781878465
  0
LWPOLYLINE
  5
2D1
330
1F
100
AcDbEntity
  8
0
  6
SLD-Durchgehend
 62
     8
370
     0
100
AcDbPolyline
 90
        9
 70
   128
 43
0.0
 10
355.9722633185
 20
111.6753022705
 10
355.9674595566
 20
111.6669818347
 10
355.953232673
 20
111.642340902
 10
355.9301302852
 20
111.6023266276
 10
355.8990390124
 20
111.5484756937
 10
355.8611546727
 20
111.4828584303
 10
355.8179338546
 20
111.4079963935
 10
355.7710361751
 20
111.3267659729
 10
355.7222628118
 20
111.2422894274
  0
LINE
  5
2D2
330
1F
100
AcDbEntity
  8
0
  6
SLD-Durchgehend
 62
     8
370
     0
100
AcDbLine
 10
361.7222637953
 20
107.7781878465
 30
0.0
 11
355.7222628118
 21
111.2422894274
 31
0.0
  0
LINE
  5
2D3
330
1F
100
AcDbEntity
  8
0
  6
SLD-Durchgehend
 62
     8
370
     0
100
AcDbLine
 10
361.7222637953
 20
100.8499846847
 30
0.0
 11
361.7222637953
 21
107.7781878465
 31
0.0
  0
LINE
  5
2D4
330
1F
100
AcDbEntity
  8
0
  6
SLD-Durchgehend
 62
     8
370
     0
100
AcDbLine
 10
355.7222628118
 20
97.3858831038
 30
0.0
 11
361.7222637953
 21
100.8499846847
 31
0.0
  0
LINE
  5
2D5
330
1F
100
AcDbEntity
  8
0
  6
SLD-Durchgehend
 62
     8
370
     0
100
AcDbLine
 10
349.722263691
 20
100.8499846847
 30
0.0
 11
355.7222628118
 21
97.3858831038
 31
0.0
  0
LINE
  5
2D6
330
1F
100
AcDbEntity
  8
0
  6
SLD-Durchgehend
 62
     8
370
     0
100
AcDbLine
 10
349.722263691
 20
107.7781878465
 30
0.0
 11
349.722263691
 21
100.8499846847
 31
0.0
  0
LWPOLYLINE
  5
2D7
330
1F
100
AcDbEntity
  8
0
  6
SLD-Durchgehend
 62
     8
370
     0
100
AcDbPolyline
 90
        9
 70
   128
 43
0.0
 10
361.9722624393
 20
108.2112006896
 10
361.9674586775
 20
108.2028802538
 10
361.9532336565
 20
108.1782395539
 10
361.930129406
 20
108.1382248138
 10
361.8990399958
 20
108.0843741128
 10
361.8611556561
 20
108.0187568494
 10
361.8179329755
 20
107.9438945798
 10
361.7710352959
 20
107.862664392
 10
361.7222637953
 20
107.7781878465
  0
LINE
  5
2D8
330
1F
100
AcDbEntity
  8
0
  6
SLD-Durchgehend
 62
     8
370
     0
100
AcDbLine
 10
362.2222629459
 20
100.8499846847
 30
0.0
 11
361.7222637953
 21
100.8499846847
 31
0.0
  0
LINE
  5
2D9
330
1F
100
AcDbEntity
  8
0
  6
SLD-Durchgehend
 62
     8
370
     0
100
AcDbLine
 10
362.2222629459
 20
107.7781878465
 30
0.0
 11
361.7222637953
 21
107.7781878465
 31
0.0
  0
LINE
  5
2DA
330
1F
100
AcDbEntity
  8
0
  6
SLD-Durchgehend
 62
     8
370
     0
100
AcDbLine
 10
349.722263691
 20
107.7781878465
 30
0.0
 11
349.2222626777
 21
107.7781878465
 31
0.0
  0
LINE
  5
2DB
330
1F
100
AcDbEntity
  8
0
  6
SLD-Durchgehend
 62
     8
370
     0
100
AcDbLine
 10
349.722263691
 20
100.8499846847
 30
0.0
 11
349.2222626777
 21
100.8499846847
 31
0.0
  0
LWPOLYLINE
  5
2DC
330
1F
100
AcDbEntity
  8
0
  6
SLD-Durchgehend
 62
     8
370
     0
100
AcDbPolyline
 90
        9
 70
   128
 43
0.0
 10
361.7222637953
 20
100.8499846847
 10
361.7710352959
 20
100.7655081393
 10
361.8179329755
 20
100.6842779515
 10
361.8611556561
 20
100.6094156818
 10
361.8990399958
 20
100.5437984185
 10
361.930129406
 20
100.4899477174
 10
361.9532336565
 20
100.4499329773
 10
361.9674586775
 20
100.4252922775
 10
361.9722624393
 20
100.4169718416
  0
LWPOLYLINE
  5
2DD
330
1F
100
AcDbEntity
  8
0
  6
SLD-Durchgehend
 62
     8
370
     0
100
AcDbPolyline
 90
        9
 70
   128
 43
0.0
 10
355.7222628118
 20
97.3858831038
 10
355.7710361751
 20
97.3014065583
 10
355.8179338546
 20
97.2201761377
 10
355.8611546727
 20
97.1453141009
 10
355.8990390124
 20
97.0796968376
 10
355.9301302852
 20
97.0258459036
 10
355.953232673
 20
96.9858316292
 10
355.9674595566
 20
96.9611906966
 10
355.9722633185
 20
96.9528702607
  0
LWPOLYLINE
  5
2DE
330
1F
100
AcDbEntity
  8
0
  6
SLD-Durchgehend
 62
     8
370
     0
100
AcDbPolyline
 90
        9
 70
   128
 43
0.0
 10
355.7222628118
 20
97.3858831038
 10
355.6734894486
 20
97.3014065583
 10
355.626591769
 20
97.2201761377
 10
355.583370951
 20
97.1453141009
 10
355.5454866113
 20
97.0796968376
 10
355.5143953385
 20
97.0258459036
 10
355.4912929507
 20
96.9858316292
 10
355.477066067
 20
96.9611906966
 10
355.4722623052
 20
96.9528702607
  0
LWPOLYLINE
  5
2DF
330
1F
100
AcDbEntity
  8
0
  6
SLD-Durchgehend
 62
     8
370
     0
100
AcDbPolyline
 90
        9
 70
   128
 43
0.0
 10
349.722263691
 20
100.8499846847
 10
349.6734903278
 20
100.7655081393
 10
349.6265926482
 20
100.6842779515
 10
349.5833699675
 20
100.6094156818
 10
349.5454856278
 20
100.5437984185
 10
349.5143962176
 20
100.4899477174
 10
349.4912938298
 20
100.4499329773
 10
349.4770669462
 20
100.4252922775
 10
349.4722631844
 20
100.4169718416
  0
ARC
  5
2E0
330
1F
100
AcDbEntity
  8
0
  6
SLD-Durchgehend
 62
     8
370
     0
100
AcDbCircle
 10
355.722262931
 20
111.2422894959
 30
0.0
 40
1.000000000000024
100
AcDbArc
 50
60.0
 51
120.0
  0
LWPOLYLINE
  5
2E1
330
1F
100
AcDbEntity
  8
0
  6
SLD-Durchgehend
 62
     8
370
     0
100
AcDbPolyline
 90
        9
 70
   128
 43
0.0
 10
356.2222638251
 20
112.1083151137
 10
356.1734904619
 20
112.0238381026
 10
356.1265927823
 20
111.9426081476
 10
356.0833701016
 20
111.8677461108
 10
356.0454857619
 20
111.8021288474
 10
356.0143963517
 20
111.7482779135
 10
355.991293964
 20
111.7082631734
 10
355.9770670803
 20
111.6836222408
 10
355.9722633185
 20
111.6753022705
  0
LWPOLYLINE
  5
2E2
330
1F
100
AcDbEntity
  8
0
  6
SLD-Durchgehend
 62
     8
370
     0
100
AcDbPolyline
 90
        9
 70
   128
 43
0.0
 10
355.2222636612
 20
112.1083151137
 10
355.2710351618
 20
112.0238381026
 10
355.317934704
 20
111.9426081476
 10
355.361155522
 20
111.8677461108
 10
355.3990398617
 20
111.8021288474
 10
355.4301311346
 20
111.7482779135
 10
355.4532335223
 20
111.7082631734
 10
355.4674585433
 20
111.6836222408
 10
355.4722623052
 20
111.6753022705
  0
LINE
  5
2E3
330
1F
100
AcDbEntity
  8
0
  6
SLD-Durchgehend
 62
     8
370
     0
100
AcDbLine
 10
356.2222638251
 20
112.1083151137
 30
0.0
 11
362.2222629459
 21
108.6442132999
 31
0.0
  0
LWPOLYLINE
  5
2E4
330
1F
100
AcDbEntity
  8
0
  6
SLD-Durchgehend
 62
     8
370
     0
100
AcDbPolyline
 90
        9
 70
   128
 43
0.0
 10
362.2222629459
 20
108.6442132999
 10
362.1734895827
 20
108.5597367545
 10
362.1265919031
 20
108.4785063339
 10
362.0833710851
 20
108.403644297
 10
362.0454867454
 20
108.3380270337
 10
362.0143954726
 20
108.2841765655
 10
361.9912930848
 20
108.2441618254
 10
361.9770662011
 20
108.2195208927
 10
361.9722624393
 20
108.2112006896
  0
LINE
  5
2E5
330
1F
100
AcDbEntity
  8
0
  6
SLD-Durchgehend
 62
     8
370
     0
100
AcDbLine
 10
349.2222626777
 20
108.6442132999
 30
0.0
 11
355.2222636612
 21
112.1083151137
 31
0.0
  0
LWPOLYLINE
  5
2E6
330
1F
100
AcDbEntity
  8
0
  6
SLD-Durchgehend
 62
     8
370
     0
100
AcDbPolyline
 90
        9
 70
   128
 43
0.0
 10
349.2222626777
 20
108.6442132999
 10
349.2710351096
 20
108.5597367545
 10
349.3179337205
 20
108.4785063339
 10
349.3611564012
 20
108.403644297
 10
349.3990388782
 20
108.3380270337
 10
349.4301301511
 20
108.2841765655
 10
349.4532325389
 20
108.2441618254
 10
349.4674594225
 20
108.2195208927
 10
349.4722631844
 20
108.2112006896
  0
ARC
  5
2E7
330
1F
100
AcDbEntity
  8
0
  6
SLD-Durchgehend
 62
     8
370
     0
100
AcDbCircle
 10
361.722262931
 20
107.7781878807
 30
0.0
 40
1.0
100
AcDbArc
 50
0.0
 51
60.0
  0
LINE
  5
2E8
330
1F
100
AcDbEntity
  8
0
  6
SLD-Durchgehend
 62
     8
370
     0
100
AcDbLine
 10
362.7222620966
 20
107.7781878465
 30
0.0
 11
362.2222629459
 21
107.7781878465
 31
0.0
  0
LINE
  5
2E9
330
1F
100
AcDbEntity
  8
0
  6
SLD-Durchgehend
 62
     8
370
     0
100
AcDbLine
 10
362.7222620966
 20
107.7781878465
 30
0.0
 11
362.7222620966
 21
100.8499846847
 31
0.0
  0
LINE
  5
2EA
330
1F
100
AcDbEntity
  8
0
  6
SLD-Durchgehend
 62
     8
370
     0
100
AcDbLine
 10
362.7222620966
 20
100.8499846847
 30
0.0
 11
362.2222629459
 21
100.8499846847
 31
0.0
  0
LINE
  5
2EB
330
1F
100
AcDbEntity
  8
0
  6
SLD-Durchgehend
 62
     8
370
     0
100
AcDbLine
 10
349.2222626777
 20
100.8499846847
 30
0.0
 11
348.7222625958
 21
100.8499846847
 31
0.0
  0
LINE
  5
2EC
330
1F
100
AcDbEntity
  8
0
  6
SLD-Durchgehend
 62
     8
370
     0
100
AcDbLine
 10
348.7222625958
 20
100.8499846847
 30
0.0
 11
348.7222625958
 21
107.7781878465
 31
0.0
  0
LINE
  5
2ED
330
1F
100
AcDbEntity
  8
0
  6
SLD-Durchgehend
 62
     8
370
     0
100
AcDbLine
 10
349.2222626777
 20
107.7781878465
 30
0.0
 11
348.7222625958
 21
107.7781878465
 31
0.0
  0
ARC
  5
2EE
330
1F
100
AcDbEntity
  8
0
  6
SLD-Durchgehend
 62
     8
370
     0
100
AcDbCircle
 10
349.722262931
 20
107.7781878807
 30
0.0
 40
1.000000000000008
100
AcDbArc
 50
120.0
 51
180.0
  0
LWPOLYLINE
  5
2EF
330
1F
100
AcDbEntity
  8
0
  6
SLD-Durchgehend
 62
     8
370
     0
100
AcDbPolyline
 90
        9
 70
   128
 43
0.0
 10
361.9722624393
 20
100.4169718416
 10
361.9770662011
 20
100.4086516385
 10
361.9912930848
 20
100.3840107058
 10
362.0143954726
 20
100.3439959658
 10
362.0454867454
 20
100.2901454975
 10
362.0833710851
 20
100.2245282342
 10
362.1265919031
 20
100.1496661973
 10
362.1734895827
 20
100.0684357767
 10
362.2222629459
 20
99.9839592313
  0
LINE
  5
2F0
330
1F
100
AcDbEntity
  8
0
  6
SLD-Durchgehend
 62
     8
370
     0
100
AcDbLine
 10
362.2222629459
 20
99.9839592313
 30
0.0
 11
356.2222638251
 21
96.5198574175
 31
0.0
  0
LWPOLYLINE
  5
2F1
330
1F
100
AcDbEntity
  8
0
  6
SLD-Durchgehend
 62
     8
370
     0
100
AcDbPolyline
 90
        9
 70
   128
 43
0.0
 10
355.9722633185
 20
96.9528702607
 10
355.9770670803
 20
96.9445502904
 10
355.991293964
 20
96.9199093578
 10
356.0143963517
 20
96.8798946177
 10
356.0454857619
 20
96.8260436838
 10
356.0833701016
 20
96.7604264205
 10
356.1265927823
 20
96.6855643836
 10
356.1734904619
 20
96.6043344287
 10
356.2222638251
 20
96.5198574175
  0
ARC
  5
2F2
330
1F
100
AcDbEntity
  8
0
  6
SLD-Durchgehend
 62
     8
370
     0
100
AcDbCircle
 10
361.722262931
 20
100.8499846505
 30
0.0
 40
1.000000000000008
100
AcDbArc
 50
300.0
 51
0.0
  0
LWPOLYLINE
  5
2F3
330
1F
100
AcDbEntity
  8
0
  6
SLD-Durchgehend
 62
     8
370
     0
100
AcDbPolyline
 90
        9
 70
   128
 43
0.0
 10
355.4722623052
 20
96.9528702607
 10
355.4674585433
 20
96.9445502904
 10
355.4532335223
 20
96.9199093578
 10
355.4301311346
 20
96.8798946177
 10
355.3990398617
 20
96.8260436838
 10
355.361155522
 20
96.7604264205
 10
355.317934704
 20
96.6855643836
 10
355.2710351618
 20
96.6043344287
 10
355.2222636612
 20
96.5198574175
  0
LINE
  5
2F4
330
1F
100
AcDbEntity
  8
0
  6
SLD-Durchgehend
 62
     8
370
     0
100
AcDbLine
 10
355.2222636612
 20
96.5198574175
 30
0.0
 11
349.2222626777
 21
99.9839592313
 31
0.0
  0
LWPOLYLINE
  5
2F5
330
1F
100
AcDbEntity
  8
0
  6
SLD-Durchgehend
 62
     8
370
     0
100
AcDbPolyline
 90
        9
 70
   128
 43
0.0
 10
349.4722631844
 20
100.4169718416
 10
349.4674594225
 20
100.4086516385
 10
349.4532325389
 20
100.3840107058
 10
349.4301301511
 20
100.3439959658
 10
349.3990388782
 20
100.2901454975
 10
349.3611564012
 20
100.2245282342
 10
349.3179337205
 20
100.1496661973
 10
349.2710351096
 20
100.0684357767
 10
349.2222626777
 20
99.9839592313
  0
ARC
  5
2F6
330
1F
100
AcDbEntity
  8
0
  6
SLD-Durchgehend
 62
     8
370
     0
100
AcDbCircle
 10
349.722262931
 20
100.8499846505
 30
0.0
 40
1.0
100
AcDbArc
 50
180.0
 51
240.0
  0
ARC
  5
2F7
330
1F
100
AcDbEntity
  8
0
  6
SLD-Durchgehend
 62
     8
370
     0
100
AcDbCircle
 10
355.722262931
 20
97.3858830353
 30
0.0
 40
1.00000000000002
100
AcDbArc
 50
240.0
 51
300.0
  0
CIRCLE
  5
2F8
330
1F
100
AcDbEntity
  8
0
  6
SLD-Durchgehend
 62
     8
370
     0
100
AcDbCircle
 10
355.722262931
 20
104.3140862656
 30
0.0
 40
9.250000000000014
  0
LINE
  5
2F9
330
1F
100
AcDbEntity
  8
0
  6
SLD-Durchgehend
 62
     8
370
     0
100
AcDbLine
 10
376.2222633781
 20
122.814086504
 30
0.0
 11
376.2222633781
 21
85.8140860272
 31
0.0
  0
LINE
  5
2FA
330
1F
100
AcDbEntity
  8
0
  6
SLD-Durchgehend
 62
     8
370
     0
100
AcDbLine
 10
291.222262484
 20
85.8140860272
 30
0.0
 11
291.222262484
 21
122.814086504
 31
0.0
  0
DIMENSION
  5
2FB
330
1F
100
AcDbEntity
  8
0
  6
SLD-Durchgehend
 62
     7
370
     0
100
AcDbDimension
  2
_D_7
 10
385.722262931
 20
75.8140862656
 30
0.0
 11
333.722262931
 21
75.8140862656
 31
0.0
 70
   160
  1
<>
 71
     2
 42
-1.0
  3
SLDDIMSTYLE2
100
AcDbAlignedDimension
 13
281.722262931
 23
98.8140862656
 33
0.0
 14
385.722262931
 24
98.8140862656
 34
0.0
 50
0.0
100
AcDbRotatedDimension
  0
DIMENSION
  5
305
330
1F
100
AcDbEntity
  8
0
  6
SLD-Durchgehend
 62
     7
370
     0
100
AcDbDimension
  2
_D_8
 10
259.0881934854
 20
99.8140862656
 30
0.0
 11
259.0881934854
 21
104.3140862656
 31
0.0
 70
   160
  1
<>
 71
     2
 42
-1.0
  3
SLDDIMSTYLE3
100
AcDbAlignedDimension
 13
269.722262931
 23
108.8140862656
 33
0.0
 14
269.722262931
 24
99.8140862656
 34
0.0
 50
90.0
100
AcDbRotatedDimension
  0
DIMENSION
  5
312
330
1F
100
AcDbEntity
  8
0
  6
SLD-Durchgehend
 62
     7
370
     0
100
AcDbDimension
  2
_D_9
 10
247.9432261979
 20
85.8140862656
 30
0.0
 11
247.9432261979
 21
104.3140862656
 31
0.0
 70
   160
  1
<>
 71
     2
 42
-1.0
  3
SLDDIMSTYLE2
100
AcDbAlignedDimension
 13
269.722262931
 23
122.8140862656
 33
0.0
 14
269.722262931
 24
85.8140862656
 34
0.0
 50
90.0
100
AcDbRotatedDimension
  0
INSERT
  5
327
330
1F
100
AcDbEntity
  8
0
  6
SLD-Durchgehend
 62
     7
370
     0
100
AcDbBlockReference
  2
SW_CENTERMARKSYMBOL_1
 10
281.722262931
 20
104.3140862656
 30
0.0
  0
INSERT
  5
333
330
1F
100
AcDbEntity
  8
0
  6
SLD-Durchgehend
 62
     7
370
     0
100
AcDbBlockReference
  2
SW_CENTERMARKSYMBOL_2
 10
385.722262931
 20
104.3140862656
 30
0.0
  0
INSERT
  5
33F
330
1F
100
AcDbEntity
  8
0
  6
SLD-Durchgehend
 62
     7
370
     0
100
AcDbBlockReference
  2
SW_CENTERMARKSYMBOL_3
 10
355.722262931
 20
104.3140862656
 30
0.0
  0
INSERT
  5
34B
330
1F
100
AcDbEntity
  8
0
  6
SLD-Durchgehend
 62
     7
370
     0
100
AcDbBlockReference
  2
SW_CENTERMARKSYMBOL_4
 10
313.422262931
 20
104.3140862656
 30
0.0
  0
SPLINE
  5
34C
330
1F
100
AcDbEntity
  8
0
  6
SLD-Durchgehend
 62
     7
370
    15
100
AcDbSpline
210
0.0
220
0.0
230
1.0
 70
     8
 71
     3
 72
    13
 73
     9
 74
     0
 42
0.000000001
 43
0.00000001
 40
0.0
 40
0.0
 40
0.0
 40
0.0
 40
0.1459137340523568
 40
0.3240426290441342
 40
0.5059086800402499
 40
0.69287721621811
 40
0.8828959818309821
 40
1.0
 40
1.0
 40
1.0
 40
1.0
 10
139.6123055426914
 20
112.0549048795461
 30
0.0
 10
139.593357489505
 20
112.238773737778
 30
0.0
 10
139.5512779895205
 20
112.6471064324881
 30
0.0
 10
139.251210471208
 20
113.2516213391208
 30
0.0
 10
138.7733668375526
 20
113.854639758909
 30
0.0
 10
138.1077595730313
 20
114.4035311468005
 30
0.0
 10
137.4035306913983
 20
114.8375845645185
 30
0.0
 10
136.8747294841299
 20
115.0490575661825
 30
0.0
 10
136.6731008539735
 20
115.1296909139406
 30
0.0
  0
SPLINE
  5
34D
330
1F
100
AcDbEntity
  8
0
  6
SLD-Durchgehend
 62
     7
370
    15
100
AcDbSpline
210
0.0
220
0.0
230
1.0
 70
     8
 71
     3
 72
    13
 73
     9
 74
     0
 42
0.000000001
 43
0.00000001
 40
0.0
 40
0.0
 40
0.0
 40
0.0
 40
0.1258606989383979
 40
0.3039362686755732
 40
0.4827686900586486
 40
0.6612694025566909
 40
0.8367515603696298
 40
1.0
 40
1.0
 40
1.0
 40
1.0
 10
127.6725996695016
 20
115.1645641078242
 30
0.0
 10
127.4395200999935
 20
115.0714484581612
 30
0.0
 10
126.8766650129145
 20
114.8465869775512
 30
0.0
 10
126.1362833442877
 20
114.3912476694947
 30
0.0
 10
125.456931342664
 20
113.8230807899335
 30
0.0
 10
124.9682544328494
 20
113.1872747001548
 30
0.0
 10
124.6678810088363
 20
112.5151597851032
 30
0.0
 10
124.6472033511461
 20
112.0548439943298
 30
0.0
 10
124.6372379232261
 20
111.8329985656966
 30
0.0
  0
LINE
  5
34E
330
1F
100
AcDbEntity
  8
0
  6
SLD-Durchgehend
 62
     7
370
    15
100
AcDbLine
 10
139.6320244494
 20
91.4679589989
 30
0.0
 11
139.6320244494
 21
111.9081023233
 31
0.0
  0
LINE
  5
34F
330
1F
100
AcDbEntity
  8
0
  6
SLD-Durchgehend
 62
     7
370
    15
100
AcDbLine
 10
124.6320244494
 20
96.4131549644
 30
0.0
 11
124.6320244494
 21
91.4679589989
 31
0.0
  0
LINE
  5
350
330
1F
100
AcDbEntity
  8
0
  6
SLD-Durchgehend
 62
     7
370
    15
100
AcDbLine
 10
124.6320244494
 20
101.6880306611
 30
0.0
 11
124.6320244494
 21
97.7318738886
 31
0.0
  0
LINE
  5
351
330
1F
100
AcDbEntity
  8
0
  6
SLD-Durchgehend
 62
     7
370
    15
100
AcDbLine
 10
124.6320244494
 20
106.9629063577
 30
0.0
 11
124.6320244494
 21
103.0067495852
 31
0.0
  0
LINE
  5
352
330
1F
100
AcDbEntity
  8
0
  6
SLD-Durchgehend
 62
     7
370
    15
100
AcDbLine
 10
124.6320244494
 20
111.9081023233
 30
0.0
 11
124.6320244494
 21
108.2816252819
 31
0.0
  0
ARC
  5
353
330
1F
100
AcDbEntity
  8
0
  6
SLD-Durchgehend
 62
     7
370
    15
100
AcDbCircle
 10
126.8064944643
 20
113.7817698495
 30
0.0
 40
0.3846153846153726
100
AcDbArc
 50
134.305033619
 51
180.0
  0
LINE
  5
354
330
1F
100
AcDbEntity
  8
0
  6
SLD-Durchgehend
 62
     7
370
    15
100
AcDbLine
 10
129.0250494041
 20
116.4845965101
 30
0.0
 11
126.5378490186
 21
114.0570126852
 31
0.0
  0
LINE
  5
355
330
1F
100
AcDbEntity
  8
0
  6
SLD-Durchgehend
 62
     7
370
    15
100
AcDbLine
 10
126.4218790797
 20
113.7817698495
 30
0.0
 11
126.4218790797
 21
112.4630509253
 31
0.0
  0
ARC
  5
356
330
1F
100
AcDbEntity
  8
0
  6
SLD-Durchgehend
 62
     7
370
    15
100
AcDbCircle
 10
137.4575544345
 20
113.9905915696
 30
0.0
 40
0.3846153846153679
100
AcDbArc
 50
0.0
 51
50.6996723379
  0
LINE
  5
357
330
1F
100
AcDbEntity
  8
0
  6
SLD-Durchgehend
 62
     7
370
    15
100
AcDbLine
 10
137.7011641645
 20
114.2882210263
 30
0.0
 11
134.8628345649
 21
116.6113939912
 31
0.0
  0
LINE
  5
358
330
1F
100
AcDbEntity
  8
0
  6
SLD-Durchgehend
 62
     7
370
    15
100
AcDbLine
 10
137.8421698191
 20
112.6718726454
 30
0.0
 11
137.8421698191
 21
113.9905915696
 31
0.0
  0
SPLINE
  5
359
330
1F
100
AcDbEntity
  8
0
  6
SLD-Durchgehend
 62
     7
370
    15
100
AcDbSpline
210
0.0
220
0.0
230
1.0
 70
     8
 71
     3
 72
    10
 73
     6
 74
     0
 42
0.000000001
 43
0.00000001
 40
0.0
 40
0.0
 40
0.0
 40
0.0
 40
0.3754510077391882
 40
0.9088900695993775
 40
1.0
 40
1.0
 40
1.0
 40
1.0
 10
126.4156592339183
 20
112.4636008282989
 30
0.0
 10
126.4166668536345
 20
112.4455220845933
 30
0.0
 10
126.4191060948007
 20
112.4017571451305
 30
0.0
 10
126.3945461700808
 20
112.372490424053
 30
0.0
 10
126.394899727678
 20
112.3728363068854
 30
0.0
 10
126.3949513050698
 20
112.3728867646736
 30
0.0
  0
SPLINE
  5
35A
330
1F
100
AcDbEntity
  8
0
  6
SLD-Durchgehend
 62
     7
370
    15
100
AcDbSpline
210
0.0
220
0.0
230
1.0
 70
     8
 71
     3
 72
    10
 73
     6
 74
     0
 42
0.000000001
 43
0.00000001
 40
0.0
 40
0.0
 40
0.0
 40
0.0
 40
0.2011679015099193
 40
0.6884898128635171
 40
1.0
 40
1.0
 40
1.0
 40
1.0
 10
137.8656269842072
 20
112.5853927592693
 30
0.0
 10
137.866415368739
 20
112.5846232226057
 30
0.0
 10
137.8691135860723
 20
112.5819895114149
 30
0.0
 10
137.8426444726803
 20
112.6198183632054
 30
0.0
 10
137.8467778322594
 20
112.6568730191267
 30
0.0
 10
137.8483896648565
 20
112.6713227424442
 30
0.0
  0
LINE
  5
35B
330
1F
100
AcDbEntity
  8
0
  6
SLD-Durchgehend
 62
     7
370
    15
100
AcDbLine
 10
134.6116856214
 20
116.6983060203
 30
0.0
 11
129.2861556363
 21
116.5938951602
 31
0.0
  0
ARC
  5
35C
330
1F
100
AcDbEntity
  8
0
  6
SLD-Durchgehend
 62
     7
370
    15
100
AcDbCircle
 10
129.2936948498
 20
116.2093536744
 30
0.0
 40
0.3846153846154172
100
AcDbArc
 50
91.123181225
 51
134.305033619
  0
ARC
  5
35D
330
1F
100
AcDbEntity
  8
0
  6
SLD-Durchgehend
 62
     7
370
    15
100
AcDbCircle
 10
134.6192248349
 20
116.3137645344
 30
0.0
 40
0.3846153846153851
100
AcDbArc
 50
50.6996723379
 51
74.7954868413
  0
ARC
  5
35E
330
1F
100
AcDbEntity
  8
0
  6
SLD-Durchgehend
 62
     7
370
    15
100
AcDbCircle
 10
134.6192248349
 20
116.3137645344
 30
0.0
 40
0.3846153846153867
100
AcDbArc
 50
74.7954868413
 51
91.123181225
  0
SPLINE
  5
35F
330
1F
100
AcDbEntity
  8
0
  6
SLD-Durchgehend
 62
     7
370
    15
100
AcDbSpline
210
0.0
220
0.0
230
1.0
 70
     8
 71
     3
 72
    17
 73
    13
 74
     0
 42
0.000000001
 43
0.00000001
 40
0.0
 40
0.0
 40
0.0
 40
0.0
 40
0.0504350577531581
 40
0.1576114819362707
 40
0.2648893864186845
 40
0.3723861694680431
 40
0.4802277365532622
 40
0.5885289203836198
 40
0.6973046874253196
 40
0.8060139411767041
 40
0.9131058180082884
 40
1.0
 40
1.0
 40
1.0
 40
1.0
 10
132.1768230002086
 20
87.4318313472209
 30
0.0
 10
132.3686806063397
 20
87.4296618752699
 30
0.0
 10
132.9682429538455
 20
87.42288219255614
 30
0.0
 10
133.965447348601
 20
87.52431594570398
 30
0.0
 10
135.1284975175695
 20
87.72862638274066
 30
0.0
 10
136.2137525296564
 20
88.03722510980602
 30
0.0
 10
137.1936996057647
 20
88.43670218513219
 30
0.0
 10
138.0423668388503
 20
88.92200214133881
 30
0.0
 10
138.7378752171491
 20
89.48434653262136
 30
0.0
 10
139.2483310704923
 20
90.1130785449057
 30
0.0
 10
139.5633086926369
 20
90.75350348249998
 30
0.0
 10
139.5996424523634
 20
91.18589135118783
 30
0.0
 10
139.6159178092075
 20
91.37957532198801
 30
0.0
  0
SPLINE
  5
360
330
1F
100
AcDbEntity
  8
0
  6
SLD-Durchgehend
 62
     7
370
    15
100
AcDbSpline
210
0.0
220
0.0
230
1.0
 70
     8
 71
     3
 72
    18
 73
    14
 74
     0
 42
0.000000001
 43
0.00000001
 40
0.0
 40
0.0
 40
0.0
 40
0.0
 40
0.0073675945645011
 40
0.1070218644872955
 40
0.2066321530299712
 40
0.308549783960604
 40
0.4132504889863264
 40
0.5194860938068074
 40
0.6259829471956287
 40
0.7322366520804588
 40
0.8382274944812826
 40
0.9440366559353822
 40
1.0
 40
1.0
 40
1.0
 40
1.0
 10
124.6396474186276
 20
91.41535100975231
 30
0.0
 10
124.637718170663
 20
91.39879496769667
 30
0.0
 10
124.6096938660645
 20
91.15830148317977
 30
0.0
 10
124.7459953152576
 20
90.69218118850178
 30
0.0
 10
125.051626236341
 20
90.05270536224022
 30
0.0
 10
125.5606656002761
 20
89.45578775803814
 30
0.0
 10
126.2393658149074
 20
88.91058837162214
 30
0.0
 10
127.0822276299506
 20
88.4311804882244
 30
0.0
 10
128.0621797972664
 20
88.03307360659262
 30
0.0
 10
129.1500281485975
 20
87.72535292222375
 30
0.0
 10
130.3152461706795
 20
87.5217357157747
 30
0.0
 10
131.3374028067415
 20
87.42049793450403
 30
0.0
 10
131.9610718448904
 20
87.4289183878873
 30
0.0
 10
132.1768230002086
 20
87.4318313472209
 30
0.0
  0
ARC
  5
361
330
1F
100
AcDbEntity
  8
0
  6
SLD-Durchgehend
 62
     7
370
    15
100
AcDbCircle
 10
132.1795875982
 20
119.8022681619
 30
0.0
 40
11.29428706219126
100
AcDbArc
 50
237.7800848456
 51
298.7506249066
  0
LINE
  5
362
330
1F
100
AcDbEntity
  8
0
  6
SLD-Durchgehend
 62
     7
370
    15
100
AcDbLine
 10
139.6278640883
 20
112.0367465322
 30
0.0
 11
139.6320244494
 21
111.9081023233
 31
0.0
  0
LINE
  5
363
330
1F
100
AcDbEntity
  8
0
  6
SLD-Durchgehend
 62
     7
370
    15
100
AcDbLine
 10
124.6331463007
 20
111.8412931061
 30
0.0
 11
124.6320244494
 21
111.9081023233
 31
0.0
  0
LINE
  5
364
330
1F
100
AcDbEntity
  8
0
  6
SLD-Durchgehend
 62
     7
370
    15
100
AcDbLine
 10
128.6318090324
 20
94.3155563376
 30
0.0
 11
128.6318090324
 21
92.9968374134
 31
0.0
  0
LWPOLYLINE
  5
365
330
1F
100
AcDbEntity
  8
0
  6
SLD-Durchgehend
 62
     7
370
    15
100
AcDbPolyline
 90
        8
 70
   128
 43
0.0
 10
124.6320244494
 20
97.7318738886
 10
124.6374525338
 20
97.5849373956
 10
124.8008524418
 20
96.9168894806
 10
125.1870063015
 20
96.2736044544
 10
125.7841810233
 20
95.6746282071
 10
126.5742317554
 20
95.1381603288
 10
127.5331532061
 20
94.6805011245
 10
128.6318090324
 20
94.3155563376
  0
LWPOLYLINE
  5
366
330
1F
100
AcDbEntity
  8
0
  6
SLD-Durchgehend
 62
     7
370
    15
100
AcDbPolyline
 90
        9
 70
   128
 43
0.0
 10
124.7420955195
 20
97.0725144265
 10
124.7017714011
 20
96.9387309774
 10
124.6374525338
 20
96.2662184714
 10
124.8008524418
 20
95.5981705564
 10
125.1870063015
 20
94.9548855303
 10
125.7841810233
 20
94.3559092829
 10
126.5742317554
 20
93.8194414046
 10
127.5331532061
 20
93.3617822003
 10
128.6318090324
 20
92.9968374134
  0
LINE
  5
367
330
1F
100
AcDbEntity
  8
0
  6
SLD-Durchgehend
 62
     7
370
    15
100
AcDbLine
 10
139.6305254902
 20
91.3907339538
 30
0.0
 11
139.6320244494
 21
91.4679589989
 31
0.0
  0
LWPOLYLINE
  5
368
330
1F
100
AcDbEntity
  8
0
  6
SLD-Durchgehend
 62
     7
370
    15
100
AcDbPolyline
 90
        9
 70
   128
 43
0.0
 10
124.7420955195
 20
102.3473901232
 10
124.7017714011
 20
102.213606674
 10
124.6374525338
 20
101.5410941681
 10
124.8008524418
 20
100.8730462531
 10
125.1870063015
 20
100.2297612269
 10
125.7841810233
 20
99.6307849796
 10
126.5742317554
 20
99.0943171012
 10
127.5331532061
 20
98.636657897
 10
128.6318090324
 20
98.27171311
  0
LINE
  5
369
330
1F
100
AcDbEntity
  8
0
  6
SLD-Durchgehend
 62
     7
370
    15
100
AcDbLine
 10
128.6318090324
 20
98.27171311
 30
0.0
 11
128.6318090324
 21
99.5904320342
 31
0.0
  0
LWPOLYLINE
  5
36A
330
1F
100
AcDbEntity
  8
0
  6
SLD-Durchgehend
 62
     7
370
    15
100
AcDbPolyline
 90
        8
 70
   128
 43
0.0
 10
124.6320244494
 20
103.0067495852
 10
124.6374525338
 20
102.8598130922
 10
124.8008524418
 20
102.1917651772
 10
125.1870063015
 20
101.548480151
 10
125.7841810233
 20
100.9495039037
 10
126.5742317554
 20
100.4130360254
 10
127.5331532061
 20
99.9553768211
 10
128.6318090324
 20
99.5904320342
  0
LWPOLYLINE
  5
36B
330
1F
100
AcDbEntity
  8
0
  6
SLD-Durchgehend
 62
     7
370
    15
100
AcDbPolyline
 90
        9
 70
   128
 43
0.0
 10
124.7420955195
 20
107.6222658198
 10
124.7017714011
 20
107.4884823707
 10
124.6374525338
 20
106.8159698647
 10
124.8008524418
 20
106.1479219497
 10
125.1870063015
 20
105.5046369235
 10
125.7841810233
 20
104.9056606762
 10
126.5742317554
 20
104.3691927979
 10
127.5331532061
 20
103.9115335936
 10
128.6318090324
 20
103.5465888067
  0
LINE
  5
36C
330
1F
100
AcDbEntity
  8
0
  6
SLD-Durchgehend
 62
     7
370
    15
100
AcDbLine
 10
128.6318090324
 20
103.5465888067
 30
0.0
 11
128.6318090324
 21
104.8653077308
 31
0.0
  0
LWPOLYLINE
  5
36D
330
1F
100
AcDbEntity
  8
0
  6
SLD-Durchgehend
 62
     7
370
    15
100
AcDbPolyline
 90
        8
 70
   128
 43
0.0
 10
124.6320244494
 20
108.2816252819
 10
124.6374525338
 20
108.1346887888
 10
124.8008524418
 20
107.4666408738
 10
125.1870063015
 20
106.8233558477
 10
125.7841810233
 20
106.2243796003
 10
126.5742317554
 20
105.687911722
 10
127.5331532061
 20
105.2302525177
 10
128.6318090324
 20
104.8653077308
  0
ARC
  5
36E
330
1F
100
AcDbEntity
  8
0
  6
SLD-Durchgehend
 62
     7
370
    15
100
AcDbCircle
 10
129.6166026431
 20
108.474675732
 30
0.0
 40
4.466087518827098
100
AcDbArc
 50
209.6598629055
 51
257.2613175888
  0
ARC
  5
36F
330
1F
100
AcDbEntity
  8
0
  6
SLD-Durchgehend
 62
     7
370
    15
100
AcDbCircle
 10
129.6166026431
 20
103.1998000354
 30
0.0
 40
4.466087518894947
100
AcDbArc
 50
209.659862907
 51
257.2613175886
  0
ARC
  5
370
330
1F
100
AcDbEntity
  8
0
  6
SLD-Durchgehend
 62
     7
370
    15
100
AcDbCircle
 10
129.6166026431
 20
97.9249243388
 30
0.0
 40
4.466087518842749
100
AcDbArc
 50
209.6598629059
 51
257.2613175888
  0
LWPOLYLINE
  5
371
330
1F
100
AcDbEntity
  8
0
  6
SLD-Durchgehend
 62
     7
370
    15
100
AcDbPolyline
 90
       37
 70
   128
 43
0.0
 10
125.6824153046
 20
73.9492578168
 10
124.4708974256
 20
73.029554255
 10
123.1875491035
 20
71.796713341
 10
122.0651348033
 20
70.4090645004
 10
121.1138192826
 20
68.8791744962
 10
120.3422178023
 20
67.220898249
 10
119.7573181047
 20
65.4492533654
 10
119.364417132
 20
63.5802841358
 10
119.1670730565
 20
61.6309162349
 10
119.1670730565
 20
59.6188034403
 10
119.364417132
 20
57.562167757
 10
119.7573181047
 20
55.4796343964
 10
120.3422178023
 20
53.3900631029
 10
121.1138192826
 20
51.3123773579
 10
122.0651348033
 20
49.2653930051
 10
123.1875491035
 20
47.2676478518
 10
124.4708974256
 20
45.3372337875
 10
125.9035575685
 20
43.4916329409
 10
127.4725551401
 20
41.7475593591
 10
129.1636810553
 20
40.1208076424
 10
130.961620216
 20
38.6261099064
 10
132.8500902067
 20
37.2770023652
 10
134.8119887509
 20
36.0857027456
 10
136.8295485914
 20
35.0629996415
 10
138.8844983939
 20
34.2181548104
 10
140.9582282147
 20
33.5588192982
 10
143.0319580356
 20
33.0909641491
 10
145.0869078381
 20
32.818826332
 10
147.1044676786
 20
32.744870369
 10
149.0663662228
 20
32.8697660168
 10
150.9548362135
 20
33.1923822011
 10
152.7527753742
 20
33.7097972597
 10
154.4439012894
 20
34.4173254017
 10
156.012898861
 20
35.3085591428
 10
157.4455590038
 20
36.3754273321
 10
158.728907326
 20
37.6082682461
 10
159.8287940896
 20
38.9643128661
  0
ARC
  5
372
330
1F
100
AcDbEntity
  8
0
  6
SLD-Durchgehend
 62
     7
370
    15
100
AcDbCircle
 10
136.7785707083
 20
61.2244365504
 30
0.0
 40
15.20709016586659
100
AcDbArc
 50
97.6204381952
 51
111.887310881
  0
ARC
  5
373
330
1F
100
AcDbEntity
  8
0
  6
SLD-Durchgehend
 62
     7
370
    15
100
AcDbCircle
 10
147.3435679137
 20
50.3781812948
 30
0.0
 40
15.24191307010545
100
AcDbArc
 50
335.7477644748
 51
350.9635024611
  0
LWPOLYLINE
  5
374
330
1F
100
AcDbEntity
  8
0
  6
SLD-Durchgehend
 62
     7
370
    15
100
AcDbPolyline
 90
       19
 70
   128
 43
0.0
 10
128.2699493406
 20
61.64227264
 10
128.2050762418
 20
60.6863012677
 10
128.2557917919
 20
59.0145431263
 10
128.5084794674
 20
57.3053439232
 10
128.9595920872
 20
55.5826970688
 10
129.6027970188
 20
53.8707847486
 10
130.4290650751
 20
52.1936384592
 10
131.4267972636
 20
50.5748016581
 10
132.5819876115
 20
49.0369992655
 10
133.8784197786
 20
47.601818656
 10
135.2978946991
 20
46.2894066194
 10
136.8204860565
 20
45.1181865439
 10
138.4248200058
 20
44.104599792
 10
140.088375215
 20
43.2628748999
 10
141.7877990157
 20
42.60482784
 10
143.4992352228
 20
42.1396961506
 10
145.1986590234
 20
41.874009261
 10
146.8622142327
 20
41.8114968326
 10
147.1624347477
 20
41.8222370195
  0
LINE
  5
375
330
1F
100
AcDbEntity
  8
0
  6
SLD-Durchgehend
 62
     7
370
    15
100
AcDbLine
 10
160.1869933035
 20
71.2701399917
 30
0.0
 11
161.5476365676
 21
70.9003463076
 31
0.0
  0
LINE
  5
376
330
1F
100
AcDbEntity
  8
0
  6
SLD-Durchgehend
 62
     7
370
    15
100
AcDbLine
 10
160.1869933035
 20
65.9952642951
 30
0.0
 11
160.1869933035
 21
71.2701399917
 31
0.0
  0
LINE
  5
377
330
1F
100
AcDbEntity
  8
0
  6
SLD-Durchgehend
 62
     7
370
    15
100
AcDbLine
 10
158.8263500394
 20
66.3650579792
 30
0.0
 11
160.1869933035
 21
65.9952642951
 31
0.0
  0
LINE
  5
378
330
1F
100
AcDbEntity
  8
0
  6
SLD-Durchgehend
 62
     7
370
    15
100
AcDbLine
 10
160.8673149356
 20
61.8542106805
 30
0.0
 11
158.8263500394
 21
66.3650579792
 31
0.0
  0
LINE
  5
379
330
1F
100
AcDbEntity
  8
0
  6
SLD-Durchgehend
 62
     7
370
    15
100
AcDbLine
 10
162.9082798317
 20
65.2556769268
 30
0.0
 11
160.8673149356
 21
61.8542106805
 31
0.0
  0
LINE
  5
37A
330
1F
100
AcDbEntity
  8
0
  6
SLD-Durchgehend
 62
     7
370
    15
100
AcDbLine
 10
161.5476365676
 20
65.6254706109
 30
0.0
 11
162.9082798317
 21
65.2556769268
 31
0.0
  0
LINE
  5
37B
330
1F
100
AcDbEntity
  8
0
  6
SLD-Durchgehend
 62
     7
370
    15
100
AcDbLine
 10
161.5476365676
 20
70.9003463076
 30
0.0
 11
161.5476365676
 21
65.6254706109
 31
0.0
  0
LINE
  5
37C
330
1F
100
AcDbEntity
  8
0
  6
SLD-Durchgehend
 62
     7
370
    15
100
AcDbLine
 10
120.728338644
 20
72.7631243623
 30
0.0
 11
120.728338644
 21
78.038000059
 31
0.0
  0
LINE
  5
37D
330
1F
100
AcDbEntity
  8
0
  6
SLD-Durchgehend
 62
     7
370
    15
100
AcDbLine
 10
120.728338644
 20
78.038000059
 30
0.0
 11
122.0889819082
 21
77.6682063748
 31
0.0
  0
LINE
  5
37E
330
1F
100
AcDbEntity
  8
0
  6
SLD-Durchgehend
 62
     7
370
    15
100
AcDbLine
 10
122.0889819082
 20
77.6682063748
 30
0.0
 11
120.048017012
 21
82.1790536735
 31
0.0
  0
LINE
  5
37F
330
1F
100
AcDbEntity
  8
0
  6
SLD-Durchgehend
 62
     7
370
    15
100
AcDbLine
 10
120.048017012
 20
82.1790536735
 30
0.0
 11
118.0070521158
 21
78.7775874272
 31
0.0
  0
LINE
  5
380
330
1F
100
AcDbEntity
  8
0
  6
SLD-Durchgehend
 62
     7
370
    15
100
AcDbLine
 10
118.0070521158
 20
78.7775874272
 30
0.0
 11
119.3676953799
 21
78.4077937431
 31
0.0
  0
LINE
  5
381
330
1F
100
AcDbEntity
  8
0
  6
SLD-Durchgehend
 62
     7
370
    15
100
AcDbLine
 10
119.3676953799
 20
78.4077937431
 30
0.0
 11
119.3676953799
 21
73.1329180465
 31
0.0
  0
LINE
  5
382
330
1F
100
AcDbEntity
  8
0
  6
SLD-Durchgehend
 62
     7
370
    15
100
AcDbLine
 10
119.3676953799
 20
73.1329180465
 30
0.0
 11
120.728338644
 21
72.7631243623
 31
0.0
  0
LWPOLYLINE
  5
383
330
1F
100
AcDbEntity
  8
0
  6
SLD-Durchgehend
 62
     7
370
    15
100
AcDbPolyline
 90
       17
 70
   128
 43
0.0
 10
120.728338644
 20
39.7951512584
 10
120.6765522434
 20
40.0615516346
 10
120.5290770514
 20
40.3155438365
 10
120.3083648293
 20
40.5184598539
 10
120.048017012
 20
40.6394075625
 10
119.7876691947
 20
40.6599737702
 10
119.5669569726
 20
40.5770274582
 10
119.4194817806
 20
40.4031964506
 10
119.3676953799
 20
40.1649449425
 10
119.4194817806
 20
39.8985445664
 10
119.5669569726
 20
39.6445523644
 10
119.7876691947
 20
39.441636347
 10
120.048017012
 20
39.3206886384
 10
120.3083648293
 20
39.3001224307
 10
120.5290770514
 20
39.3830687427
 10
120.6765522434
 20
39.5568997503
 10
120.728338644
 20
39.7951512584
  0
LWPOLYLINE
  5
384
330
1F
100
AcDbEntity
  8
0
  6
SLD-Durchgehend
 62
     7
370
    15
100
AcDbPolyline
 90
       17
 70
   128
 43
0.0
 10
161.5476365676
 20
28.7013407345
 10
161.4958501669
 20
28.9677411107
 10
161.348374975
 20
29.2217333126
 10
161.1276627528
 20
29.42464933
 10
160.8673149356
 20
29.5455970387
 10
160.6069671183
 20
29.5661632463
 10
160.3862548961
 20
29.4832169343
 10
160.2387797042
 20
29.3093859267
 10
160.1869933035
 20
29.0711344187
 10
160.2387797042
 20
28.8047340425
 10
160.3862548961
 20
28.5507418406
 10
160.6069671183
 20
28.3478258232
 10
160.8673149356
 20
28.2268781145
 10
161.1276627528
 20
28.2063119069
 10
161.348374975
 20
28.2892582189
 10
161.4958501669
 20
28.4630892265
 10
161.5476365676
 20
28.7013407345
  0
LWPOLYLINE
  5
385
330
1F
100
AcDbEntity
  8
0
  6
SLD-Durchgehend
 62
     7
370
    15
100
AcDbPolyline
 90
       67
 70
   128
 43
0.0
 10
118.5172933398
 20
60.1768498575
 10
118.6166410459
 20
62.1711535557
 10
118.9137844559
 20
64.0933953753
 10
119.406032593
 20
65.9261671967
 10
120.088927582
 20
67.6528711546
 10
120.95628502
 20
69.2578699503
 10
122.0002499839
 20
70.7266284664
 10
123.2113681651
 20
72.0458453983
 10
124.5786714899
 20
73.203573713
 10
126.0897774477
 20
74.1893288439
 10
127.7310012289
 20
74.9941836396
 10
129.4874796568
 20
75.6108492106
 10
131.3433057908
 20
76.033740938
 10
133.281672982
 20
76.2590290487
 10
135.2850270769
 20
76.2846732988
 10
137.3352253907
 20
76.11044145
 10
139.41370101
 20
75.7379113729
 10
141.5016309376
 20
75.1704567575
 10
143.5801065568
 20
74.4132165607
 10
145.6303048706
 20
73.473048467
 10
147.6336589656
 20
72.3584667842
 10
149.5720261568
 20
71.0795653367
 10
151.4278522907
 20
69.647926054
 10
153.1843307186
 20
68.0765140832
 10
154.8255544999
 20
66.3795603743
 10
156.3366604576
 20
64.572432803
 10
157.7039637825
 20
62.6714969964
 10
158.9150819637
 20
60.6939681235
 10
159.9590469275
 20
58.657754992
 10
160.8264043655
 20
56.5812978633
 10
161.5092993545
 20
54.4834014549
 10
162.0015474917
 20
52.3830646413
 10
162.2986909016
 20
50.299308398
 10
162.3980386077
 20
48.2510035443
 10
162.2986909016
 20
46.2566998461
 10
162.0015474917
 20
44.3344580265
 10
161.5092993545
 20
42.501686205
 10
160.8264043655
 20
40.7749822472
 10
159.9590469275
 20
39.1699834515
 10
158.9150819637
 20
37.7012249354
 10
157.7039637825
 20
36.3820080035
 10
156.3366604576
 20
35.2242796887
 10
154.8255544999
 20
34.2385245579
 10
153.1843307186
 20
33.4336697622
 10
151.4278522907
 20
32.8170041912
 10
149.5720261568
 20
32.3941124638
 10
147.6336589656
 20
32.168824353
 10
145.6303048706
 20
32.1431801029
 10
143.5801065568
 20
32.3174119517
 10
141.5016309376
 20
32.6899420289
 10
139.41370101
 20
33.2573966443
 10
137.3352253907
 20
34.0146368411
 10
135.2850270769
 20
34.9548049348
 10
133.281672982
 20
36.0693866175
 10
131.3433057908
 20
37.348288065
 10
129.4874796568
 20
38.7799273477
 10
127.7310012289
 20
40.3513393186
 10
126.0897774477
 20
42.0482930275
 10
124.5786714899
 20
43.8554205988
 10
123.2113681651
 20
45.7563564054
 10
122.0002499839
 20
47.7338852783
 10
120.95628502
 20
49.7700984098
 10
120.088927582
 20
51.8465555384
 10
119.406032593
 20
53.9444519469
 10
118.9137844559
 20
56.0447887605
 10
118.6166410459
 20
58.1285450038
 10
118.5172933398
 20
60.1768498575
  0
LINE
  5
386
330
1F
100
AcDbEntity
  8
0
  6
SLD-Durchgehend
 62
     7
370
    15
100
AcDbLine
 10
96.917081522
 20
50.2226975031
 30
0.0
 11
96.917081522
 21
39.6729461099
 31
0.0
  0
LINE
  5
387
330
1F
100
AcDbEntity
  8
0
  6
SLD-Durchgehend
 62
     7
370
    15
100
AcDbLine
 10
96.917081522
 20
50.2226975031
 30
0.0
 11
111.5439966112
 21
46.2474153987
 31
0.0
  0
ARC
  5
388
330
1F
100
AcDbEntity
  8
0
  6
SLD-Durchgehend
 62
     7
370
    15
100
AcDbCircle
 10
111.9948136378
 20
47.4134499343
 30
0.0
 40
1.250149002970087
100
AcDbArc
 50
248.862298024
 51
0.9222550965
  0
LINE
  5
389
330
1F
100
AcDbEntity
  8
0
  6
SLD-Durchgehend
 62
     7
370
    15
100
AcDbLine
 10
113.2448006914
 20
47.4335719488
 30
0.0
 11
113.2448006914
 21
87.9841788666
 31
0.0
  0
LINE
  5
38A
330
1F
100
AcDbEntity
  8
0
  6
SLD-Durchgehend
 62
     7
370
    15
100
AcDbLine
 10
167.6705312562
 20
73.1924315014
 30
0.0
 11
113.2448006914
 21
87.9841788666
 31
0.0
  0
LINE
  5
38B
330
1F
100
AcDbEntity
  8
0
  6
SLD-Durchgehend
 62
     7
370
    15
100
AcDbLine
 10
167.6705312562
 20
73.1924315014
 30
0.0
 11
167.6705312562
 21
32.6418245836
 31
0.0
  0
ARC
  5
38C
330
1F
100
AcDbEntity
  8
0
  6
SLD-Durchgehend
 62
     7
370
    15
100
AcDbCircle
 10
170.0020162462
 20
32.779995759
 30
0.0
 40
2.335575631954815
100
AcDbArc
 50
183.391562315
 51
254.3338098233
  0
LINE
  5
38D
330
1F
100
AcDbEntity
  8
0
  6
SLD-Durchgehend
 62
     7
370
    15
100
AcDbLine
 10
169.3713353363
 20
30.5311838233
 30
0.0
 11
183.9982504256
 21
26.5559017189
 31
0.0
  0
LINE
  5
38E
330
1F
100
AcDbEntity
  8
0
  6
SLD-Durchgehend
 62
     7
370
    15
100
AcDbLine
 10
183.9982504256
 20
16.0061503256
 30
0.0
 11
183.9982504256
 21
26.5559017189
 31
0.0
  0
LINE
  5
38F
330
1F
100
AcDbEntity
  8
0
  6
SLD-Durchgehend
 62
     7
370
    15
100
AcDbLine
 10
161.5476365676
 20
22.1077461137
 30
0.0
 11
183.9982504256
 21
16.0061503256
 31
0.0
  0
LINE
  5
390
330
1F
100
AcDbEntity
  8
0
  6
SLD-Durchgehend
 62
     7
370
    15
100
AcDbLine
 10
161.5476365676
 20
22.1077461137
 30
0.0
 11
161.5476365676
 21
22.4374258448
 31
0.0
  0
LINE
  5
391
330
1F
100
AcDbEntity
  8
0
  6
SLD-Durchgehend
 62
     7
370
    15
100
AcDbLine
 10
161.5476365676
 20
22.4374258448
 30
0.0
 11
119.3676953799
 21
33.9010300528
 31
0.0
  0
LINE
  5
392
330
1F
100
AcDbEntity
  8
0
  6
SLD-Durchgehend
 62
     7
370
    15
100
AcDbLine
 10
119.3676953799
 20
33.9010300528
 30
0.0
 11
119.3676953799
 21
33.5713503217
 31
0.0
  0
LINE
  5
393
330
1F
100
AcDbEntity
  8
0
  6
SLD-Durchgehend
 62
     7
370
    15
100
AcDbLine
 10
96.917081522
 20
39.6729461099
 30
0.0
 11
119.3676953799
 21
33.5713503217
 31
0.0
  0
LINE
  5
394
330
1F
100
AcDbEntity
  8
0
  6
SLD-Durchgehend
 62
     7
370
    15
100
AcDbLine
 10
124.6320244494
 20
99.0984583459
 30
0.0
 11
113.2448006914
 21
87.9841788666
 31
0.0
  0
LINE
  5
395
330
1F
100
AcDbEntity
  8
0
  6
SLD-Durchgehend
 62
     7
370
    15
100
AcDbLine
 10
180.953400018
 20
86.1569186182
 30
0.0
 11
139.6320244494
 21
97.3871830878
 31
0.0
  0
LINE
  5
396
330
1F
100
AcDbEntity
  8
0
  6
SLD-Durchgehend
 62
     7
370
    15
100
AcDbLine
 10
180.953400018
 20
86.1569186182
 30
0.0
 11
167.6705312562
 21
73.1924315014
 31
0.0
  0
LWPOLYLINE
  5
397
330
1F
100
AcDbEntity
  8
0
  6
SLD-Durchgehend
 62
     7
370
    15
100
AcDbPolyline
 90
       31
 70
   128
 43
0.0
 10
163.322983141
 20
85.672650001
 10
164.2211218263
 20
85.3627487275
 10
164.974532406
 20
84.9634446611
 10
165.5502872225
 20
84.4921893058
 10
165.9232230276
 20
83.9695787817
 10
166.077040737
 20
83.4184536766
 10
166.0050177787
 20
82.8629008022
 10
165.7103019016
 20
82.3272004849
 10
165.2057736038
 20
81.8347653992
 10
164.5134831928
 20
81.4071173212
 10
163.6636870816
 20
81.0629465241
 10
162.693525438
 20
80.8172949232
 10
161.6453989811
 20
80.6808986723
 10
160.5651158668
 20
80.6597189419
 10
159.4998896507
 20
80.754681388
 10
158.4962758301
 20
80.961635696
 10
157.5981371447
 20
81.2715369695
 10
156.844726565
 20
81.6708410358
 10
156.2689717485
 20
82.1420963912
 10
155.8960359434
 20
82.6647069153
 10
155.742218234
 20
83.2158320204
 10
155.8142411923
 20
83.7713848948
 10
156.1089570694
 20
84.3070852121
 10
156.6134853672
 20
84.7995202978
 10
157.3057757782
 20
85.2271683757
 10
158.1555718894
 20
85.5713391728
 10
159.1257335331
 20
85.8169907737
 10
160.1738599899
 20
85.9533870247
 10
161.2541431042
 20
85.9745667551
 10
162.3193693203
 20
85.879604309
 10
163.322983141
 20
85.672650001
  0
LINE
  5
398
330
1F
100
AcDbEntity
  8
0
  6
SLD-Durchgehend
 62
     7
370
    15
100
AcDbLine
 10
180.953400018
 20
86.1569186182
 30
0.0
 11
180.953400018
 21
45.6063117004
 31
0.0
  0
LINE
  5
399
330
1F
100
AcDbEntity
  8
0
  6
SLD-Durchgehend
 62
     7
370
    15
100
AcDbLine
 10
160.8968197701
 20
61.9033833532
 30
0.0
 11
158.8853597085
 21
66.3490204155
 31
0.0
  0
LINE
  5
39A
330
1F
100
AcDbEntity
  8
0
  6
SLD-Durchgehend
 62
     7
370
    15
100
AcDbLine
 10
160.2228929488
 20
66.0303034494
 30
0.0
 11
160.2228929488
 21
71.2603832373
 31
0.0
  0
ARC
  5
39B
330
1F
100
AcDbEntity
  8
0
  6
SLD-Durchgehend
 62
     7
370
    15
100
AcDbCircle
 10
135.1466893238
 20
61.2145523283
 30
0.0
 40
16.09904862785806
100
AcDbArc
 50
136.8428465851
 51
181.8229019899
  0
LWPOLYLINE
  5
39C
330
1F
100
AcDbEntity
  8
0
  6
SLD-Durchgehend
 62
     7
370
    15
100
AcDbPolyline
 90
       27
 70
   128
 43
0.0
 10
158.0510767288
 20
36.7271104449
 10
156.8751551372
 20
35.7498670043
 10
155.3640491794
 20
34.7641118735
 10
153.7228253982
 20
33.9592570777
 10
151.9663469703
 20
33.3425915067
 10
150.1105208363
 20
32.9196997793
 10
148.1721536451
 20
32.6944116686
 10
146.1687995502
 20
32.6687674185
 10
144.1186012364
 20
32.8429992673
 10
142.0401256171
 20
33.2155293444
 10
139.9521956895
 20
33.7829839598
 10
137.8737200703
 20
34.5402241566
 10
135.8235217565
 20
35.4803922503
 10
133.8201676615
 20
36.5949739331
 10
131.8818004703
 20
37.8738753806
 10
130.0259743363
 20
39.3055146633
 10
128.2694959084
 20
40.8769266341
 10
126.6282721272
 20
42.573880343
 10
125.1171661694
 20
44.3810079143
 10
123.7498628446
 20
46.2819437209
 10
122.5387446634
 20
48.2594725939
 10
121.4947796996
 20
50.2956857253
 10
120.6274222615
 20
52.372142854
 10
119.9445272726
 20
54.4700392625
 10
119.4522791354
 20
56.570376076
 10
119.1551357254
 20
58.6541323193
 10
119.0557880194
 20
60.702437173
  0
LINE
  5
39D
330
1F
100
AcDbEntity
  8
0
  6
SLD-Durchgehend
 62
     7
370
    15
100
AcDbLine
 10
160.2228929488
 20
66.0303034494
 30
0.0
 11
160.1869933035
 21
65.9952642951
 31
0.0
  0
LWPOLYLINE
  5
39E
330
1F
100
AcDbEntity
  8
0
  6
SLD-Durchgehend
 62
     7
370
    15
100
AcDbPolyline
 90
       13
 70
   128
 43
0.0
 10
162.9639866879
 20
84.6628989952
 10
162.0107912282
 20
84.8528590813
 10
160.998231854
 20
84.9244820685
 10
159.9808959031
 20
84.873906743
 10
159.01362822
 20
84.7038596337
 10
158.1485744559
 20
84.4235080244
 10
157.4323698832
 20
84.0479657427
 10
156.9036252756
 20
83.5974783704
 10
156.5908453919
 20
83.0963317983
 10
156.5108922766
 20
82.5715429678
 10
156.6680762228
 20
82.0514033806
 10
157.0539234033
 20
81.5639538964
 10
157.1178592411
 20
81.5061917439
  0
LWPOLYLINE
  5
39F
330
1F
100
AcDbEntity
  8
0
  6
SLD-Durchgehend
 62
     7
370
    15
100
AcDbPolyline
 90
        8
 70
   128
 43
0.0
 10
164.7013997299
 20
81.5061917439
 10
165.1003598568
 20
81.963970373
 10
165.2980631553
 20
82.4804301909
 10
165.2591848587
 20
83.0064511654
 10
164.9858209061
 20
83.5136753697
 10
164.492708419
 20
83.9747582157
 10
163.8064312191
 20
84.3648426077
 10
162.9639866879
 20
84.6628989952
  0
LINE
  5
3A0
330
1F
100
AcDbEntity
  8
0
  6
SLD-Durchgehend
 62
     7
370
    15
100
AcDbLine
 10
197.2811191874
 20
39.5203888356
 30
0.0
 11
192.2551688451
 21
34.6149072239
 31
0.0
  0
LINE
  5
3A1
330
1F
100
AcDbEntity
  8
0
  6
SLD-Durchgehend
 62
     7
370
    15
100
AcDbLine
 10
192.2551688451
 20
34.6149072239
 30
0.0
 11
184.0913092604
 21
36.8336693286
 31
0.0
  0
LWPOLYLINE
  5
3A2
330
1F
100
AcDbEntity
  8
0
  6
SLD-Durchgehend
 62
     7
370
    15
100
AcDbPolyline
 90
       13
 70
   128
 43
0.0
 10
184.0913092604
 20
36.8336693286
 10
183.2439020984
 20
36.9952891766
 10
182.3441517665
 20
37.0384411782
 10
181.453374763
 20
36.9601845956
 10
180.6322760686
 20
36.7658524857
 10
179.9368122024
 20
36.4686882607
 10
179.4143778775
 20
36.0889431713
 10
179.1005761299
 20
35.6524962179
 10
179.01679203
 20
35.1890905391
 10
179.1687353258
 20
34.730306466
 10
179.5460513328
 20
34.3074093752
 10
180.1230265887
 20
33.9492190043
 10
180.8603411832
 20
33.6801454354
  0
LINE
  5
3A3
330
1F
100
AcDbEntity
  8
0
  6
SLD-Durchgehend
 62
     7
370
    15
100
AcDbLine
 10
180.8603411832
 20
33.6801454354
 30
0.0
 11
189.0242007679
 21
31.4613833306
 31
0.0
  0
LINE
  5
3A4
330
1F
100
AcDbEntity
  8
0
  6
SLD-Durchgehend
 62
     7
370
    15
100
AcDbLine
 10
189.0242007679
 20
31.4613833306
 30
0.0
 11
183.9982504256
 21
26.5559017189
 31
0.0
  0
LINE
  5
3A5
330
1F
100
AcDbEntity
  8
0
  6
SLD-Durchgehend
 62
     7
370
    15
100
AcDbLine
 10
182.6542040982
 20
43.49567094
 30
0.0
 11
197.2811191874
 21
39.5203888356
 31
0.0
  0
LINE
  5
3A6
330
1F
100
AcDbEntity
  8
0
  6
SLD-Durchgehend
 62
     7
370
    15
100
AcDbLine
 10
189.0242007679
 20
20.9116319374
 30
0.0
 11
189.0242007679
 21
31.4613833306
 31
0.0
  0
LINE
  5
3A7
330
1F
100
AcDbEntity
  8
0
  6
SLD-Durchgehend
 62
     7
370
    15
100
AcDbLine
 10
183.9982504256
 20
16.0061503256
 30
0.0
 11
189.0242007679
 21
20.9116319374
 31
0.0
  0
LINE
  5
3A8
330
1F
100
AcDbEntity
  8
0
  6
SLD-Durchgehend
 62
     7
370
    15
100
AcDbLine
 10
118.0429517611
 20
78.8126265816
 30
0.0
 11
119.4035950252
 21
78.4428328975
 31
0.0
  0
LINE
  5
3A9
330
1F
100
AcDbEntity
  8
0
  6
SLD-Durchgehend
 62
     7
370
    15
100
AcDbLine
 10
120.0544118227
 20
82.1649201552
 30
0.0
 11
118.0429517611
 21
78.8126265816
 31
0.0
  0
LINE
  5
3AA
330
1F
100
AcDbEntity
  8
0
  6
SLD-Durchgehend
 62
     7
370
    15
100
AcDbLine
 10
120.7642382893
 20
78.0730392133
 30
0.0
 11
122.0658718844
 21
77.7192830928
 31
0.0
  0
LINE
  5
3AB
330
1F
100
AcDbEntity
  8
0
  6
SLD-Durchgehend
 62
     7
370
    15
100
AcDbLine
 10
119.4035950252
 20
73.1679572008
 30
0.0
 11
120.728338644
 21
72.8079202711
 31
0.0
  0
LINE
  5
3AC
330
1F
100
AcDbEntity
  8
0
  6
SLD-Durchgehend
 62
     7
370
    15
100
AcDbLine
 10
119.4035950252
 20
78.4428328975
 30
0.0
 11
119.4035950252
 21
73.1679572008
 31
0.0
  0
ARC
  5
3AD
330
1F
100
AcDbEntity
  8
0
  6
SLD-Durchgehend
 62
     7
370
    15
100
AcDbCircle
 10
183.2848850081
 20
45.7444828758
 30
0.0
 40
2.335575631954737
100
AcDbArc
 50
183.391562315
 51
254.3338098233
  0
LINE
  5
3AE
330
1F
100
AcDbEntity
  8
0
  6
SLD-Durchgehend
 62
     7
370
    15
100
AcDbLine
 10
118.0429517611
 20
78.8126265816
 30
0.0
 11
118.0070521158
 21
78.7775874272
 31
0.0
  0
LINE
  5
3AF
330
1F
100
AcDbEntity
  8
0
  6
SLD-Durchgehend
 62
     7
370
    15
100
AcDbLine
 10
120.7642382893
 20
78.0730392133
 30
0.0
 11
120.728338644
 21
78.038000059
 31
0.0
  0
LINE
  5
3B0
330
1F
100
AcDbEntity
  8
0
  6
SLD-Durchgehend
 62
     7
370
    15
100
AcDbLine
 10
119.4035950252
 20
78.4428328975
 30
0.0
 11
119.3676953799
 21
78.4077937431
 31
0.0
  0
LINE
  5
3B1
330
1F
100
AcDbEntity
  8
0
  6
SLD-Durchgehend
 62
     7
370
    15
100
AcDbLine
 10
119.4035950252
 20
73.1679572008
 30
0.0
 11
119.3676953799
 21
73.1329180465
 31
0.0
  0
ARC
  5
3B2
330
1F
100
AcDbEntity
  8
0
  6
SLD-Durchgehend
 62
     7
370
    15
100
AcDbCircle
 10
161.2033124629
 20
29.2141814638
 30
0.0
 40
0.8262886648499308
100
AcDbArc
 50
158.9150567412
 51
289.6950104968
  0
LINE
  5
3B3
330
1F
100
AcDbEntity
  8
0
  6
SLD-Durchgehend
 62
     7
370
    15
100
AcDbLine
 10
192.2551688451
 20
24.0651558306
 30
0.0
 11
192.2551688451
 21
34.6149072239
 31
0.0
  0
LINE
  5
3B4
330
1F
100
AcDbEntity
  8
0
  6
SLD-Durchgehend
 62
     7
370
    15
100
AcDbLine
 10
192.2551688451
 20
24.0651558306
 30
0.0
 11
189.0242007679
 21
24.9432637227
 31
0.0
  0
LINE
  5
3B5
330
1F
100
AcDbEntity
  8
0
  6
SLD-Durchgehend
 62
     7
370
    15
100
AcDbLine
 10
192.2551688451
 20
24.0651558306
 30
0.0
 11
197.2811191874
 21
28.9706374423
 31
0.0
  0
LINE
  5
3B6
330
1F
100
AcDbEntity
  8
0
  6
SLD-Durchgehend
 62
     7
370
    15
100
AcDbLine
 10
197.2811191874
 20
28.9706374423
 30
0.0
 11
197.2811191874
 21
39.5203888356
 31
0.0
  0
ARC
  5
3B7
330
1F
100
AcDbEntity
  8
0
  6
SLD-Durchgehend
 62
     7
370
    15
100
AcDbCircle
 10
120.3840145393
 20
40.3079919877
 30
0.0
 40
0.8262886648498444
100
AcDbArc
 50
158.9150567412
 51
289.6950104968
  0
LINE
  5
3B8
330
1F
100
AcDbEntity
  8
0
  6
SLD-Durchgehend
 62
     7
370
    15
100
AcDbLine
 10
101.9430318643
 20
55.1281791149
 30
0.0
 11
96.917081522
 21
50.2226975031
 31
0.0
  0
LINE
  5
3B9
330
1F
100
AcDbEntity
  8
0
  6
SLD-Durchgehend
 62
     7
370
    15
100
AcDbLine
 10
101.9430318643
 20
55.1281791149
 30
0.0
 11
110.106891449
 21
52.9094170101
 31
0.0
  0
ARC
  5
3BA
330
1F
100
AcDbEntity
  8
0
  6
SLD-Durchgehend
 62
     7
370
    15
100
AcDbCircle
 10
111.7240183845
 20
59.0987939218
 30
0.0
 40
6.397146713999241
100
AcDbArc
 50
255.3574003989
 51
283.7524968128
  0
LINE
  5
3BB
330
1F
100
AcDbEntity
  8
0
  6
SLD-Durchgehend
 62
     7
370
    15
100
AcDbLine
 10
113.2448006914
 20
56.0882323007
 30
0.0
 11
105.1739999415
 21
58.2817030081
 31
0.0
  0
LINE
  5
3BC
330
1F
100
AcDbEntity
  8
0
  6
SLD-Durchgehend
 62
     7
370
    15
100
AcDbLine
 10
110.1999502838
 20
63.1871846199
 30
0.0
 11
105.1739999415
 21
58.2817030081
 31
0.0
  0
LINE
  5
3BD
330
1F
100
AcDbEntity
  8
0
  6
SLD-Durchgehend
 62
     7
370
    15
100
AcDbLine
 10
110.1999502838
 20
63.1871846199
 30
0.0
 11
113.2448006914
 21
62.3596595223
 31
0.0
  0
LINE
  5
3BE
330
1F
100
AcDbEntity
  8
0
  6
SLD-Durchgehend
 62
     7
370
    15
100
AcDbLine
 10
119.6319022181
 20
33.8292242954
 30
0.0
 11
119.3676953799
 21
33.5713503217
 31
0.0
  0
LINE
  5
3BF
330
1F
100
AcDbEntity
  8
0
  6
SLD-Durchgehend
 62
     7
370
    15
100
AcDbLine
 10
105.1739999415
 20
54.2500712228
 30
0.0
 11
105.1739999415
 21
58.2817030081
 31
0.0
  0
LWPOLYLINE
  5
3C0
330
1F
100
AcDbEntity
  8
0
  6
SLD-Durchgehend
 62
     8
370
     0
100
AcDbPolyline
 90
       10
 70
   128
 43
0.0
 10
127.5437013645
 20
115.0387554106
 10
127.1732075223
 20
114.86593172
 10
126.34175299
 20
114.3676656204
 10
125.6964025466
 20
113.8009433106
 10
125.2578982865
 20
113.1839797118
 10
125.0403340972
 20
112.5366045418
 10
125.050702671
 20
111.8796249712
 10
125.2886707532
 20
111.2341568639
 10
125.746589854
 20
110.620946096
 10
126.1578084096
 20
110.2472121366
  0
LWPOLYLINE
  5
3C1
330
1F
100
AcDbEntity
  8
0
  6
SLD-Durchgehend
 62
     8
370
     0
100
AcDbPolyline
 90
       10
 70
   128
 43
0.0
 10
137.6121208257
 20
109.9003237581
 10
138.2696795254
 20
110.3837960405
 10
138.8137973355
 20
110.9780312109
 10
139.1431574672
 20
111.6127558099
 10
139.247174015
 20
112.2675692667
 10
139.1225038014
 20
112.921425338
 10
138.7731538296
 20
113.5533085516
 10
138.2103524952
 20
114.1429096612
 10
137.4521886961
 20
114.671278402
 10
136.8607174133
 20
114.9761267477
  0
LWPOLYLINE
  5
3C2
330
1F
100
AcDbEntity
  8
0
  6
SLD-Durchgehend
 62
     8
370
     0
100
AcDbPolyline
 90
       20
 70
   128
 43
0.0
 10
139.6320244494
 20
111.9081023233
 10
139.5622774977
 20
111.3825263103
 10
139.2721941515
 20
110.7259831655
 10
138.765160362
 20
110.1053581132
 10
138.0565820943
 20
109.5395085314
 10
137.1679891405
 20
109.0456274734
 10
136.1263809479
 20
108.6387212653
 10
134.9634062544
 20
108.3311535462
 10
133.7144014575
 20
108.1322696057
 10
132.4173169359
 20
108.0481124316
 10
131.1115639464
 20
108.0812390972
 10
129.836817133
 20
108.2306430654
 10
128.6318090324
 20
108.4917847723
 10
127.5331532061
 20
108.8567295592
 10
126.5742317554
 20
109.3143887635
 10
125.7841810233
 20
109.8508566418
 10
125.1870063015
 20
110.4498328891
 10
124.8008524418
 20
111.0931179153
 10
124.6374525338
 20
111.7611658303
 10
124.6331463007
 20
111.8412931061
  0
LWPOLYLINE
  5
3C3
330
1F
100
AcDbEntity
  8
0
  6
SLD-Durchgehend
 62
     8
370
     0
100
AcDbPolyline
 90
       20
 70
   128
 43
0.0
 10
124.6320244494
 20
91.4679589989
 10
124.6374525338
 20
91.3210225058
 10
124.8008524418
 20
90.6529745908
 10
125.1870063015
 20
90.0096895647
 10
125.7841810233
 20
89.4107133173
 10
126.5742317554
 20
88.874245439
 10
127.5331532061
 20
88.4165862347
 10
128.6318090324
 20
88.0516414478
 10
129.836817133
 20
87.790499741
 10
131.1115639464
 20
87.6410957728
 10
132.4173169359
 20
87.6079691072
 10
133.7144014575
 20
87.6921262813
 10
134.9634062544
 20
87.8910102218
 10
136.1263809479
 20
88.1985779408
 10
137.1679891405
 20
88.605484149
 10
138.0565820943
 20
89.099365207
 10
138.765160362
 20
89.6652147887
 10
139.2721941515
 20
90.2858398411
 10
139.5622774977
 20
90.9423829859
 10
139.6305254902
 20
91.3907339538
  0
LINE
  5
3C4
330
1F
100
AcDbEntity
  8
0
  6
SLD-Durchgehend
 62
     8
370
     0
100
AcDbLine
 10
137.8421698191
 20
112.7712781141
 30
0.0
 11
138.1086152987
 21
112.5531924715
 31
0.0
  0
LINE
  5
3C5
330
1F
100
AcDbEntity
  8
0
  6
SLD-Durchgehend
 62
     8
370
     0
100
AcDbLine
 10
126.1261728322
 20
112.3182680363
 30
0.0
 11
126.4218790797
 21
112.6068863991
 31
0.0
  0
ARC
  5
3C6
330
1F
100
AcDbEntity
  8
0
  6
SLD-Durchgehend
 62
     8
370
     0
100
AcDbCircle
 10
126.2867680719
 20
112.1311081232
 30
0.0
 40
0.246616431119192
100
AcDbArc
 50
130.6317154106
 51
237.8223937649
  0
LINE
  5
3C7
330
1F
100
AcDbEntity
  8
0
  6
SLD-Durchgehend
 62
     8
370
     0
100
AcDbLine
 10
128.9937631997
 20
109.5991986724
 30
0.0
 11
126.1554336001
 21
111.9223716372
 31
0.0
  0
ARC
  5
3C8
330
1F
100
AcDbEntity
  8
0
  6
SLD-Durchgehend
 62
     8
370
     0
100
AcDbCircle
 10
129.6033525078
 20
110.4981032102
 30
0.0
 40
1.086107035612433
100
AcDbArc
 50
235.8569643362
 51
273.7340093465
  0
LINE
  5
3C9
330
1F
100
AcDbEntity
  8
0
  6
SLD-Durchgehend
 62
     8
370
     0
100
AcDbLine
 10
134.9996148168
 20
109.5187126904
 30
0.0
 11
129.6740848317
 21
109.4143018303
 31
0.0
  0
ARC
  5
3CA
330
1F
100
AcDbEntity
  8
0
  6
SLD-Durchgehend
 62
     8
370
     0
100
AcDbCircle
 10
135.0370476447
 20
110.5131672981
 30
0.0
 40
0.9951588735073156
100
AcDbArc
 50
267.8443149248
 51
308.0692275463
  0
LINE
  5
3CB
330
1F
100
AcDbEntity
  8
0
  6
SLD-Durchgehend
 62
     8
370
     0
100
AcDbLine
 10
138.1378760666
 20
112.1572960723
 30
0.0
 11
135.6506756811
 21
109.7297122474
 31
0.0
  0
ARC
  5
3CC
330
1F
100
AcDbEntity
  8
0
  6
SLD-Durchgehend
 62
     8
370
     0
100
AcDbCircle
 10
137.9772808268
 20
112.3444559854
 30
0.0
 40
0.2466164311191889
100
AcDbArc
 50
310.6317154106
 51
57.8223937649
  0
LINE
  5
3CD
330
1F
100
AcDbEntity
  8
0
  6
SLD-Durchgehend
 62
     8
370
     0
100
AcDbLine
 10
134.9849844329
 20
111.3650595451
 30
0.0
 11
129.6594544478
 21
111.2606486851
 31
0.0
  0
ARC
  5
3CE
330
1F
100
AcDbEntity
  8
0
  6
SLD-Durchgehend
 62
     8
370
     0
100
AcDbCircle
 10
120.8106189789
 20
111.2792996698
 30
0.0
 40
8.848855124498389
100
AcDbArc
 50
359.8792359593
 51
3.2974135805
  0
LINE
  5
3CF
330
1F
100
AcDbEntity
  8
0
  6
SLD-Durchgehend
 62
     8
370
     0
100
AcDbLine
 10
129.6448240639
 20
111.7882766157
 30
0.0
 11
134.970354049
 21
111.8926874757
 31
0.0
  0
ARC
  5
3D0
330
1F
100
AcDbEntity
  8
0
  6
SLD-Durchgehend
 62
     8
370
     0
100
AcDbCircle
 10
126.1361489641
 20
111.3837105299
 30
0.0
 40
8.84885512443906
100
AcDbArc
 50
359.8792359593
 51
3.2974135805
  0
LINE
  5
3D1
330
1F
100
AcDbEntity
  8
0
  6
SLD-Durchgehend
 62
     8
370
     0
100
AcDbLine
 10
134.9849844329
 20
110.046340621
 30
0.0
 11
134.9849844329
 21
111.3650595451
 31
0.0
  0
LINE
  5
3D2
330
1F
100
AcDbEntity
  8
0
  6
SLD-Durchgehend
 62
     8
370
     0
100
AcDbLine
 10
129.6594544478
 20
109.9419297609
 30
0.0
 11
134.9849844329
 21
110.046340621
 31
0.0
  0
LINE
  5
3D3
330
1F
100
AcDbEntity
  8
0
  6
SLD-Durchgehend
 62
     8
370
     0
100
AcDbLine
 10
129.6594544478
 20
111.2606486851
 30
0.0
 11
129.6594544478
 21
109.9419297609
 31
0.0
  0
LINE
  5
3D4
330
1F
100
AcDbEntity
  8
0
  6
SLD-Durchgehend
 62
     8
370
     0
100
AcDbLine
 10
126.8064944643
 20
114.1114495805
 30
0.0
 11
129.6448240639
 21
111.7882766157
 31
0.0
  0
LINE
  5
3D5
330
1F
100
AcDbEntity
  8
0
  6
SLD-Durchgehend
 62
     8
370
     0
100
AcDbLine
 10
129.2936948498
 20
116.5390334054
 30
0.0
 11
126.8064944643
 21
114.1114495805
 31
0.0
  0
LINE
  5
3D6
330
1F
100
AcDbEntity
  8
0
  6
SLD-Durchgehend
 62
     8
370
     0
100
AcDbLine
 10
134.6192248349
 20
116.6434442655
 30
0.0
 11
129.2936948498
 21
116.5390334054
 31
0.0
  0
LINE
  5
3D7
330
1F
100
AcDbEntity
  8
0
  6
SLD-Durchgehend
 62
     8
370
     0
100
AcDbLine
 10
137.4575544345
 20
114.3202713006
 30
0.0
 11
134.6192248349
 21
116.6434442655
 31
0.0
  0
LINE
  5
3D8
330
1F
100
AcDbEntity
  8
0
  6
SLD-Durchgehend
 62
     8
370
     0
100
AcDbLine
 10
134.970354049
 20
111.8926874757
 30
0.0
 11
137.4575544345
 21
114.3202713006
 31
0.0
  0
ARC
  5
3D9
330
1F
100
AcDbEntity
  8
0
  6
SLD-Durchgehend
 62
     8
370
     0
100
AcDbCircle
 10
138.5082899167
 20
109.9232787762
 30
0.0
 40
8.84885512452256
100
AcDbArc
 50
179.8792359593
 51
183.2974135805
  0
ARC
  5
3DA
330
1F
100
AcDbEntity
  8
0
  6
SLD-Durchgehend
 62
     8
370
     0
100
AcDbCircle
 10
143.8338199017
 20
110.0276896362
 30
0.0
 40
8.848855124441393
100
AcDbArc
 50
179.8792359593
 51
183.2974135805
  0
ARC
  5
3DB
330
1F
100
AcDbEntity
  8
0
  6
SLD-Durchgehend
 62
     8
370
     0
100
AcDbCircle
 10
129.8056154321
 20
111.3286545217
 30
0.0
 40
0.4869356562973132
100
AcDbArc
 50
109.2815651499
 51
177.1227292512
  0
ARC
  5
3DC
330
1F
100
AcDbEntity
  8
0
  6
SLD-Durchgehend
 62
     8
370
     0
100
AcDbCircle
 10
129.6240882859
 20
111.802549375
 30
0.0
 40
0.5430535178061832
100
AcDbArc
 50
235.8569643362
 51
273.7340093465
  0
LINE
  5
3DD
330
1F
100
AcDbEntity
  8
0
  6
SLD-Durchgehend
 62
     8
370
     0
100
AcDbLine
 10
129.3192936318
 20
111.3530971061
 30
0.0
 11
126.4809640322
 21
113.6762700709
 31
0.0
  0
ARC
  5
3DE
330
1F
100
AcDbEntity
  8
0
  6
SLD-Durchgehend
 62
     8
370
     0
100
AcDbCircle
 10
126.9672858325
 20
113.6518274865
 30
0.0
 40
0.4869356562972769
100
AcDbArc
 50
109.2815651499
 51
177.1227292513
  0
ARC
  5
3DF
330
1F
100
AcDbEntity
  8
0
  6
SLD-Durchgehend
 62
     8
370
     0
100
AcDbCircle
 10
134.844217867
 20
111.4429250886
 30
0.0
 40
0.4671151263909068
100
AcDbArc
 50
3.391562315
 51
74.3338098233
  0
ARC
  5
3E0
330
1F
100
AcDbEntity
  8
0
  6
SLD-Durchgehend
 62
     8
370
     0
100
AcDbCircle
 10
135.0037008468
 20
111.862286849
 30
0.0
 40
0.4975794367533625
100
AcDbArc
 50
267.8443149248
 51
308.0692275464
  0
LINE
  5
3E1
330
1F
100
AcDbEntity
  8
0
  6
SLD-Durchgehend
 62
     8
370
     0
100
AcDbLine
 10
129.3192936318
 20
110.0343781819
 30
0.0
 11
129.3192936318
 21
111.3530971061
 31
0.0
  0
ARC
  5
3E2
330
1F
100
AcDbEntity
  8
0
  6
SLD-Durchgehend
 62
     8
370
     0
100
AcDbCircle
 10
129.6240882859
 20
110.4838304509
 30
0.0
 40
0.5430535178064528
100
AcDbArc
 50
235.8569643362
 51
273.7340093465
  0
LINE
  5
3E3
330
1F
100
AcDbEntity
  8
0
  6
SLD-Durchgehend
 62
     8
370
     0
100
AcDbLine
 10
135.310514865
 20
111.4705593237
 30
0.0
 11
135.310514865
 21
110.1518403995
 31
0.0
  0
ARC
  5
3E4
330
1F
100
AcDbEntity
  8
0
  6
SLD-Durchgehend
 62
     8
370
     0
100
AcDbCircle
 10
135.0037008468
 20
110.5435679249
 30
0.0
 40
0.4975794367540602
100
AcDbArc
 50
267.8443149248
 51
308.0692275463
  0
ARC
  5
3E5
330
1F
100
AcDbEntity
  8
0
  6
SLD-Durchgehend
 62
     8
370
     0
100
AcDbCircle
 10
137.3314182525
 20
113.8705089135
 30
0.0
 40
0.4671151263909922
100
AcDbArc
 50
3.391562315
 51
74.3338098233
  0
LINE
  5
3E6
330
1F
100
AcDbEntity
  8
0
  6
SLD-Durchgehend
 62
     8
370
     0
100
AcDbLine
 10
137.7977152505
 20
113.8981431486
 30
0.0
 11
135.310514865
 21
111.4705593237
 31
0.0
  0
LINE
  5
3E7
330
1F
100
AcDbEntity
  8
0
  6
SLD-Durchgehend
 62
     8
370
     0
100
AcDbLine
 10
126.4809640322
 20
112.3575511468
 30
0.0
 11
129.3192936318
 21
110.0343781819
 31
0.0
  0
LINE
  5
3E8
330
1F
100
AcDbEntity
  8
0
  6
SLD-Durchgehend
 62
     8
370
     0
100
AcDbLine
 10
126.4809640322
 20
113.6762700709
 30
0.0
 11
126.4809640322
 21
112.3575511468
 31
0.0
  0
LINE
  5
3E9
330
1F
100
AcDbEntity
  8
0
  6
SLD-Durchgehend
 62
     8
370
     0
100
AcDbLine
 10
137.7977152505
 20
112.5794242244
 30
0.0
 11
137.7977152505
 21
113.8981431486
 31
0.0
  0
LINE
  5
3EA
330
1F
100
AcDbEntity
  8
0
  6
SLD-Durchgehend
 62
     8
370
     0
100
AcDbLine
 10
135.310514865
 20
110.1518403995
 30
0.0
 11
137.7977152505
 21
112.5794242244
 31
0.0
  0
ARC
  5
3EB
330
1F
100
AcDbEntity
  8
0
  6
SLD-Durchgehend
 62
     8
370
     0
100
AcDbCircle
 10
128.8329718315
 20
110.0588207664
 30
0.0
 40
0.4869356562973663
100
AcDbArc
 50
289.2815651499
 51
357.1227292512
  0
ARC
  5
3EC
330
1F
100
AcDbEntity
  8
0
  6
SLD-Durchgehend
 62
     8
370
     0
100
AcDbCircle
 10
135.776811863
 20
110.1794746346
 30
0.0
 40
0.4671151263909957
100
AcDbArc
 50
183.391562315
 51
254.3338098233
  0
ARC
  5
3ED
330
1F
100
AcDbEntity
  8
0
  6
SLD-Durchgehend
 62
     8
370
     0
100
AcDbCircle
 10
125.9946422319
 20
112.3819937312
 30
0.0
 40
0.4869356562973521
100
AcDbArc
 50
289.2815651499
 51
357.1227292512
  0
ARC
  5
3EE
330
1F
100
AcDbEntity
  8
0
  6
SLD-Durchgehend
 62
     8
370
     0
100
AcDbCircle
 10
138.2640122485
 20
112.6070584595
 30
0.0
 40
0.4671151263910867
100
AcDbArc
 50
183.391562315
 51
254.3338098233
  0
ARC
  5
3EF
330
1F
100
AcDbEntity
  8
0
  6
SLD-Durchgehend
 62
     8
370
     0
100
AcDbCircle
 10
126.7195612144
 20
113.850364635
 30
0.0
 40
0.2751776494173583
100
AcDbArc
 50
71.583829316
 51
131.326192755
  0
ARC
  5
3F0
330
1F
100
AcDbEntity
  8
0
  6
SLD-Durchgehend
 62
     8
370
     0
100
AcDbCircle
 10
126.5609714901
 20
113.7903731948
 30
0.0
 40
0.1393582297286335
100
AcDbArc
 50
183.5394323833
 51
234.9624178368
  0
ARC
  5
3F1
330
1F
100
AcDbEntity
  8
0
  6
SLD-Durchgehend
 62
     8
370
     0
100
AcDbCircle
 10
129.2067615998
 20
116.2779484598
 30
0.0
 40
0.275177649417565
100
AcDbArc
 50
71.583829316
 51
131.326192755
  0
ARC
  5
3F2
330
1F
100
AcDbEntity
  8
0
  6
SLD-Durchgehend
 62
     8
370
     0
100
AcDbCircle
 10
126.5580548206
 20
112.4700207953
 30
0.0
 40
0.1363539933759533
100
AcDbArc
 50
182.9300076591
 51
235.571842561
  0
ARC
  5
3F3
330
1F
100
AcDbEntity
  8
0
  6
SLD-Durchgehend
 62
     8
370
     0
100
AcDbCircle
 10
137.5509949048
 20
114.0886522974
 30
0.0
 40
0.2497568500661573
100
AcDbArc
 50
53.0396771642
 51
111.9702895085
  0
ARC
  5
3F4
330
1F
100
AcDbEntity
  8
0
  6
SLD-Durchgehend
 62
     8
370
     0
100
AcDbCircle
 10
137.7124807471
 20
113.9960412261
 30
0.0
 40
0.1298035213273242
100
AcDbArc
 50
311.0443075171
 51
357.5937931886
  0
ARC
  5
3F5
330
1F
100
AcDbEntity
  8
0
  6
SLD-Durchgehend
 62
     8
370
     0
100
AcDbCircle
 10
134.7126653051
 20
116.4118252622
 30
0.0
 40
0.249756850065878
100
AcDbArc
 50
53.0396771641
 51
111.9702895085
  0
ARC
  5
3F6
330
1F
100
AcDbEntity
  8
0
  6
SLD-Durchgehend
 62
     8
370
     0
100
AcDbCircle
 10
137.7124807471
 20
112.6773223019
 30
0.0
 40
0.129803521327359
100
AcDbArc
 50
311.0443075171
 51
357.5937931886
  0
ARC
  5
3F7
330
1F
100
AcDbEntity
  8
0
  6
SLD-Durchgehend
 62
     8
370
     0
100
AcDbCircle
 10
126.2139768763
 20
112.575055623
 30
0.0
 40
0.2713842568009656
100
AcDbArc
 50
251.12277008
 51
311.7872519911
  0
ARC
  5
3F8
330
1F
100
AcDbEntity
  8
0
  6
SLD-Durchgehend
 62
     8
370
     0
100
AcDbCircle
 10
138.0158118163
 20
112.7887814685
 30
0.0
 40
0.2532087318130159
100
AcDbArc
 50
232.9593761749
 51
291.5005281417
  0
ARC
  5
3F9
330
1F
100
AcDbEntity
  8
0
  6
SLD-Durchgehend
 62
     8
370
     0
100
AcDbCircle
 10
129.1315512915
 20
116.5447002137
 30
0.0
 40
0.162242553643441
100
AcDbArc
 50
357.9983657607
 51
17.6510176952
  0
ARC
  5
3FA
330
1F
100
AcDbEntity
  8
0
  6
SLD-Durchgehend
 62
     8
370
     0
100
AcDbCircle
 10
134.4570812766
 20
116.6491110737
 30
0.0
 40
0.1622425536448312
100
AcDbArc
 50
357.9983657608
 51
17.6510176951
  0
LWPOLYLINE
  5
3FB
330
1F
100
AcDbEntity
  8
0
  6
SLD-Durchgehend
 62
     8
370
     0
100
AcDbPolyline
 90
       39
 70
   128
 43
0.0
 10
131.1096368362
 20
75.3353819499
 10
129.6868891943
 20
74.6663223806
 10
128.2217719215
 20
73.7469666591
 10
126.8992906796
 20
72.6540089489
 10
125.7325888814
 20
71.3983115549
 10
124.7332617334
 20
69.9923541619
 10
123.9112409979
 20
68.4501098061
 10
123.2746962862
 20
66.7869060047
 10
122.8299538656
 20
65.0192724245
 10
122.5814337861
 20
63.164776602
 10
122.531605952
 20
61.2418493499
 10
122.6809655746
 20
59.2696015832
 10
123.0280282509
 20
57.2676343862
 10
123.569344716
 20
55.2558442083
 10
124.2995351238
 20
53.2542251242
 10
125.211342514
 20
51.2826701236
 10
126.295704935
 20
49.3607734059
 10
127.541845506
 20
47.507635644
 10
128.937379522
 20
45.7416741537
 10
130.4684375391
 20
44.0804398536
 10
132.1198032149
 20
42.5404428365
 10
133.8750645352
 20
41.1369882846
 10
135.7167769247
 20
39.8840243599
 10
137.626636618
 20
38.7940035806
 10
139.5856625716
 20
37.8777590631
 10
141.5743851054
 20
37.144396857
 10
143.5730394013
 20
36.6012054454
 10
145.5617619351
 20
36.2535833085
 10
147.5207878887
 20
36.1049852713
 10
149.430647582
 20
36.1568881679
 10
151.2723599715
 20
36.408776164
 10
153.0276212918
 20
36.8581458835
 10
154.6789869676
 20
37.5005312883
 10
156.2100449847
 20
38.3295480635
 10
157.6055790007
 20
39.3369570681
 10
158.8517195717
 20
40.5127462187
 10
159.9360819927
 20
41.8452299945
 10
160.8478893829
 20
43.3211655731
 10
161.2403214583
 20
44.1174980287
  0
LWPOLYLINE
  5
3FC
330
1F
100
AcDbEntity
  8
0
  6
SLD-Durchgehend
 62
     8
370
     0
100
AcDbPolyline
 90
       46
 70
   128
 43
0.0
 10
137.8365093514
 20
76.0383512808
 10
136.9278550122
 20
76.0323241087
 10
135.079376061
 20
75.8711936905
 10
133.3096410354
 20
75.5108211916
 10
131.6368098115
 20
74.9549045217
 10
130.0780479013
 20
74.209148138
 10
128.6493503114
 20
73.2812045102
 10
127.3653774124
 20
72.1805955956
 10
126.2393045037
 20
70.918615131
 10
125.2826866172
 20
69.5082127438
 10
124.505339947
 20
67.963861071
 10
123.9152411217
 20
66.3014072506
 10
123.5184453539
 20
64.5379103085
 10
123.3190243051
 20
62.6914661097
 10
123.3190243051
 20
60.7810216704
 10
123.5184453539
 20
58.8261807356
 10
123.9152411217
 20
56.8470026187
 10
124.505339947
 20
54.8637963655
 10
125.2826866172
 20
52.8969123558
 10
126.2393045037
 20
50.9665334812
 10
127.3653774124
 20
49.0924680412
 10
128.6493503114
 20
47.2939464831
 10
130.0780479013
 20
45.589424072
 10
131.6368098115
 20
43.9963915144
 10
133.3096410354
 20
42.53119548
 10
135.079376061
 20
41.2088708628
 10
136.9278550122
 20
40.042986503
 10
138.8361099934
 20
39.0455059516
 10
140.7845597262
 20
38.2266647089
 10
142.7532104799
 20
37.5948651942
 10
144.7218612335
 20
37.1565905254
 10
146.6703109663
 20
36.9163379937
 10
148.5785659475
 20
36.8765729153
 10
150.4270448987
 20
37.0377033335
 10
152.1967799243
 20
37.3980758324
 10
153.8696111483
 20
37.9539925023
 10
155.4283730585
 20
38.699748886
 10
156.8570706484
 20
39.6276925138
 10
158.1410435474
 20
40.7283014284
 10
159.267116456
 20
41.990281893
 10
160.2237343425
 20
43.4006842802
 10
161.0010810127
 20
44.945035953
 10
161.591179838
 20
46.6074897734
 10
161.9879756058
 20
48.3709867155
 10
162.1873966546
 20
50.2174309143
 10
162.2120889451
 20
51.0641566349
  0
LWPOLYLINE
  5
3FD
330
1F
100
AcDbEntity
  8
0
  6
SLD-Durchgehend
 62
     8
370
     0
100
AcDbPolyline
 90
       55
 70
   128
 43
0.0
 10
142.7532104799
 20
70.928597869
 10
141.0194432099
 20
71.3019296429
 10
139.3091221681
 20
71.4744747051
 10
137.6453765124
 20
71.4438996796
 10
136.0507055486
 20
71.2106180413
 10
134.5466744661
 20
70.7777845241
 10
133.1536227049
 20
70.1512524587
 10
131.8903889005
 20
69.3394946167
 10
130.7740561229
 20
68.3534886301
 10
129.819720858
 20
67.2065685386
 10
129.040288853
 20
65.9142444687
 10
128.4463005887
 20
64.4939928867
 10
128.0457887374
 20
62.9650202588
 10
127.8441695349
 20
61.3480033167
 10
127.8441695349
 20
59.6648094408
 10
128.0457887374
 20
57.9382009405
 10
128.4463005887
 20
56.1915272341
 10
129.040288853
 20
54.4484090869
 10
129.819720858
 20
52.7324191816
 10
130.7740561229
 20
51.0667633379
 10
131.8903889005
 20
49.4739666937
 10
133.1536227049
 20
47.9755690911
 10
134.5466744661
 20
46.5918337874
 10
136.0507055486
 20
45.3414734287
 10
137.6453765124
 20
44.2413969938
 10
139.3091221681
 20
43.3064811294
 10
141.0194432099
 20
42.5493689688
 10
142.7532104799
 20
41.980299155
 10
144.4869777498
 20
41.6069673811
 10
146.1972987916
 20
41.4344223189
 10
147.8610444474
 20
41.4649973444
 10
149.4557154111
 20
41.6982789827
 10
150.9597464936
 20
42.1311124999
 10
152.3527982548
 20
42.7576445653
 10
153.6160320592
 20
43.5694024073
 10
154.7323648368
 20
44.5554083939
 10
155.6867001017
 20
45.7023284854
 10
156.4661321067
 20
46.9946525553
 10
157.060120371
 20
48.4149041373
 10
157.4606322223
 20
49.9438767652
 10
157.6622514248
 20
51.5608937073
 10
157.6622514248
 20
53.2440875832
 10
157.4606322223
 20
54.9706960835
 10
157.060120371
 20
56.7173697899
 10
156.4661321067
 20
58.4604879371
 10
155.6867001017
 20
60.1764778424
 10
154.7323648368
 20
61.8421336861
 10
153.6160320592
 20
63.4349303303
 10
152.3527982548
 20
64.9333279329
 10
150.9597464936
 20
66.3170632366
 10
149.4557154111
 20
67.5674235953
 10
147.8610444474
 20
68.6675000302
 10
146.1972987916
 20
69.6024158946
 10
144.4869777498
 20
70.3595280552
 10
142.7532104799
 20
70.928597869
  0
LWPOLYLINE
  5
3FE
330
1F
100
AcDbEntity
  8
0
  6
SLD-Durchgehend
 62
     8
370
     0
100
AcDbPolyline
 90
       36
 70
   128
 43
0.0
 10
140.7787299882
 20
60.4615301804
 10
139.6854449255
 20
60.6632960338
 10
138.6272989442
 20
60.667845766
 10
137.6383017269
 20
60.4750331448
 10
136.7502404578
 20
60.0910553265
 10
135.9916581569
 20
59.5282536742
 10
135.3869362835
 20
58.8047170959
 10
134.9555110961
 20
57.9437006527
 10
134.7112489553
 20
56.9728781215
 10
134.6620006472
 20
55.9234525373
 10
134.809349053
 20
54.8291533017
 10
135.1485582737
 20
53.7251520926
 10
135.6687258458
 20
52.6469324173
 10
136.3531331556
 20
51.6291491432
 10
137.179782789
 20
50.7045146623
 10
138.1221055465
 20
49.9027474875
 10
139.1498143996
 20
49.2496170756
 10
140.2298779399
 20
48.7661155754
 10
141.3275820366
 20
48.4677831228
 10
142.4076455769
 20
48.3642083685
 10
143.4353544299
 20
48.4587202902
 10
144.3776771875
 20
48.748281197
 10
145.2043268209
 20
49.2235843632
 10
145.8887341306
 20
49.8693531538
 10
146.4089017028
 20
50.6648320286
 10
146.7481109234
 20
51.584453642
 10
146.8954593292
 20
52.5986605988
 10
146.8462110212
 20
53.6748554528
 10
146.6019488804
 20
54.7784484159
 10
146.170523693
 20
55.8739691023
 10
145.5658018196
 20
56.9262065757
 10
144.8072195187
 20
57.901341058
 10
143.9191582496
 20
58.7680309244
 10
142.9301610323
 20
59.4984200497
 10
141.872015051
 20
60.0690331262
 10
140.7787299882
 20
60.4615301804
  0
LWPOLYLINE
  5
3FF
330
1F
100
AcDbEntity
  8
0
  6
SLD-Durchgehend
 62
     8
370
     0
100
AcDbPolyline
 90
       14
 70
   128
 43
0.0
 10
142.6435171192
 20
70.3470941085
 10
140.9350866532
 20
70.7131462839
 10
139.250638806
 20
70.8775346529
 10
137.613819533
 20
70.8379515633
 10
136.0476061889
 20
70.5949526748
 10
134.5739849759
 20
70.1519491593
 10
133.2136423055
 20
69.5151598149
 10
131.9856744069
 20
68.6935237682
 10
130.9073192578
 20
67.6985749882
 10
129.9937146006
 20
66.544280375
 10
129.257685442
 20
65.2468436945
 10
128.7095640181
 20
63.8244781138
 10
128.3570447521
 20
62.2971505277
 10
128.2699493406
 20
61.64227264
  0
LWPOLYLINE
  5
400
330
1F
100
AcDbEntity
  8
0
  6
SLD-Durchgehend
 62
     8
370
     0
100
AcDbPolyline
 90
       25
 70
   128
 43
0.0
 10
147.1624347477
 20
41.8222370195
 10
148.466548182
 20
41.9530364031
 10
149.9891395394
 20
42.2966410671
 10
151.4086144598
 20
42.8374873683
 10
152.7050466269
 20
43.5679830101
 10
153.8602369748
 20
44.4778734351
 10
154.8579691634
 20
45.5543857761
 10
155.6842372196
 20
46.7824081597
 10
156.3274421513
 20
48.1447018434
 10
156.778554771
 20
49.6221432102
 10
157.0312424465
 20
51.1939922217
 10
157.0819579967
 20
52.8381835634
 10
156.9299894864
 20
54.5316363931
 10
156.5774702204
 20
56.250578345
 10
156.0293487964
 20
57.9708792421
 10
155.2933196379
 20
59.6683898308
 10
154.3797149806
 20
61.3192807834
 10
153.3013598315
 20
62.9003772097
 10
152.0733919329
 20
64.3894839817
 10
150.7130492626
 20
65.7656973045
 10
149.2394280495
 20
67.0096981597
 10
147.6732147054
 20
68.1040235022
 10
146.0363954324
 20
69.033311403
 10
144.3519475852
 20
69.784516697
 10
142.6435171192
 20
70.3470941085
  0
LINE
  5
401
330
1F
100
AcDbEntity
  8
0
  6
SLD-Durchgehend
 62
     8
370
     0
100
AcDbLine
 10
167.6705312562
 20
32.6418245836
 30
0.0
 11
180.953400018
 21
45.6063117004
 31
0.0
  0
LINE
  5
402
330
1F
100
AcDbEntity
  8
0
  6
SLD-Durchgehend
 62
     8
370
     0
100
AcDbLine
 10
182.6542040982
 20
43.49567094
 30
0.0
 11
169.3713353363
 21
30.5311838233
 31
0.0
  0
LINE
  5
403
330
1F
100
AcDbEntity
  8
0
  6
SLD-Durchgehend
 62
     8
370
     0
100
AcDbLine
 10
184.0913092604
 20
32.8020375433
 30
0.0
 11
184.0913092604
 21
36.8336693286
 31
0.0
  0
LINE
  5
404
330
1F
100
AcDbEntity
  8
0
  6
SLD-Durchgehend
 62
     8
370
     0
100
AcDbLine
 10
111.5439966112
 20
46.2474153987
 30
0.0
 11
113.2448006914
 21
47.9074523215
 31
0.0
  0
ENDSEC
  0
SECTION
  2
OBJECTS
  0
DICTIONARY
  5
C
330
0
100
AcDbDictionary
281
     1
  3
ACAD_GROUP
350
D
  3
ACAD_LAYOUT
350
1A
  3
ACAD_MLINESTYLE
350
17
  3
ACAD_PLOTSETTINGS
350
19
  3
ACAD_PLOTSTYLENAME
350
E
  3
ACAD_SCALELIST
350
47
  0
DICTIONARY
  5
D
102
{ACAD_REACTORS
330
C
102
}
330
C
100
AcDbDictionary
281
     1
  0
DICTIONARY
  5
1A
102
{ACAD_REACTORS
330
C
102
}
330
C
100
AcDbDictionary
281
     1
  3
Layout1
350
1E
  3
Layout2
350
26
  3
Model
350
22
  0
DICTIONARY
  5
17
102
{ACAD_REACTORS
330
C
102
}
330
C
100
AcDbDictionary
281
     1
  3
Standard
350
18
  0
DICTIONARY
  5
19
102
{ACAD_REACTORS
330
C
102
}
330
C
100
AcDbDictionary
281
     1
  0
ACDBDICTIONARYWDFLT
  5
E
102
{ACAD_REACTORS
330
C
102
}
330
C
100
AcDbDictionary
281
     1
  3
Normal
350
F
100
AcDbDictionaryWithDefault
340
F
  0
DICTIONARY
  5
47
102
{ACAD_REACTORS
330
C
102
}
330
C
100
AcDbDictionary
281
     1
  3
A0
350
48
  3
A1
350
49
  3
A2
350
4A
  3
A3
350
4B
  3
A4
350
4C
  3
A5
350
4D
  3
A6
350
4E
  3
A7
350
4F
  3
A8
350
50
  3
A9
350
51
  3
B0
350
52
  3
B1
350
53
  3
B2
350
54
  3
B3
350
55
  3
B4
350
56
  3
B5
350
57
  3
B6
350
58
  3
B7
350
59
  3
B8
350
5A
  3
B9
350
5B
  3
C0
350
5C
  3
C1
350
5D
  3
C2
350
5E
  3
C3
350
5F
  3
C4
350
60
  3
C5
350
61
  3
C6
350
62
  3
C7
350
63
  3
C8
350
64
  3
C9
350
65
  3
D0
350
66
  3
D1
350
67
  3
D2
350
68
  0
LAYOUT
  5
1E
102
{ACAD_REACTORS
330
1A
102
}
330
1A
100
AcDbPlotSettings
  1

  2
none_device
  4

  6

 40
0.0
 41
0.0
 42
0.0
 43
0.0
 44
0.0
 45
0.0
 46
0.0
 47
0.0
 48
0.0
 49
0.0
140
0.0
141
0.0
142
1.0
143
1.0
 70
   688
 72
     1
 73
     0
 74
     5
  7

 75
    16
147
1.0
148
0.0
149
0.0
100
AcDbLayout
  1
Layout1
 70
     1
 71
     1
 10
0.0
 20
0.0
 11
420.0
 21
297.0
 12
0.0
 22
0.0
 32
0.0
 14
1.0000000000E+20
 24
1.0000000000E+20
 34
1.0000000000E+20
 15
-1.0000000000E+20
 25
-1.0000000000E+20
 35
-1.0000000000E+20
146
0.0
 13
0.0
 23
0.0
 33
0.0
 16
1.0
 26
0.0
 36
0.0
 17
0.0
 27
1.0
 37
0.0
 76
     0
330
1B
  0
LAYOUT
  5
26
102
{ACAD_REACTORS
330
1A
102
}
330
1A
100
AcDbPlotSettings
  1

  2
none_device
  4

  6

 40
0.0
 41
0.0
 42
0.0
 43
0.0
 44
0.0
 45
0.0
 46
0.0
 47
0.0
 48
0.0
 49
0.0
140
0.0
141
0.0
142
1.0
143
1.0
 70
   688
 72
     1
 73
     0
 74
     5
  7

 75
    16
147
1.0
148
0.0
149
0.0
100
AcDbLayout
  1
Layout2
 70
     1
 71
     2
 10
0.0
 20
0.0
 11
0.0
 21
0.0
 12
0.0
 22
0.0
 32
0.0
 14
0.0
 24
0.0
 34
0.0
 15
0.0
 25
0.0
 35
0.0
146
0.0
 13
0.0
 23
0.0
 33
0.0
 16
1.0
 26
0.0
 36
0.0
 17
0.0
 27
1.0
 37
0.0
 76
     0
330
23
  0
LAYOUT
  5
22
102
{ACAD_REACTORS
330
1A
102
}
330
1A
100
AcDbPlotSettings
  1

  2
none_device
  4
Letter_(8.50_x_11.00_Inches)
  6

 40
6.35
 41
6.35
 42
6.35000508
 43
6.35000508
 44
215.9
 45
279.4
 46
0.0
 47
0.0
 48
0.0
 49
0.0
140
0.0
141
0.0
142
1.0
143
1.0
 70
  1712
 72
     1
 73
     0
 74
     0
  7

 75
     0
147
1.0
148
0.0
149
0.0
100
AcDbLayout
  1
Model
 70
     1
 71
     0
 10
0.0
 20
0.0
 11
420.0
 21
297.0
 12
0.0
 22
0.0
 32
0.0
 14
0.0
 24
0.0
 34
0.0
 15
420.0
 25
297.0
 35
0.0
146
0.0
 13
0.0
 23
0.0
 33
0.0
 16
1.0
 26
0.0
 36
0.0
 17
0.0
 27
1.0
 37
0.0
 76
     0
330
1F
331
29
  0
MLINESTYLE
  5
18
102
{ACAD_REACTORS
330
17
102
}
330
17
100
AcDbMlineStyle
  2
Standard
 70
     0
  3

 62
   256
 51
90.0
 52
90.0
 71
     2
 49
0.5
 62
   256
  6
BYLAYER
 49
-0.5
 62
   256
  6
BYLAYER
  0
ACDBPLACEHOLDER
  5
F
102
{ACAD_REACTORS
330
E
102
}
330
E
  0
SCALE
  5
48
102
{ACAD_REACTORS
330
47
102
}
330
47
100
AcDbScale
 70
     0
300
1:1
140
1.0
141
1.0
290
     1
  0
SCALE
  5
49
102
{ACAD_REACTORS
330
47
102
}
330
47
100
AcDbScale
 70
     0
300
1:2
140
1.0
141
2.0
290
     0
  0
SCALE
  5
4A
102
{ACAD_REACTORS
330
47
102
}
330
47
100
AcDbScale
 70
     0
300
1:4
140
1.0
141
4.0
290
     0
  0
SCALE
  5
4B
102
{ACAD_REACTORS
330
47
102
}
330
47
100
AcDbScale
 70
     0
300
1:5
140
1.0
141
5.0
290
     0
  0
SCALE
  5
4C
102
{ACAD_REACTORS
330
47
102
}
330
47
100
AcDbScale
 70
     0
300
1:8
140
1.0
141
8.0
290
     0
  0
SCALE
  5
4D
102
{ACAD_REACTORS
330
47
102
}
330
47
100
AcDbScale
 70
     0
300
1:10
140
1.0
141
10.0
290
     0
  0
SCALE
  5
4E
102
{ACAD_REACTORS
330
47
102
}
330
47
100
AcDbScale
 70
     0
300
1:16
140
1.0
141
16.0
290
     0
  0
SCALE
  5
4F
102
{ACAD_REACTORS
330
47
102
}
330
47
100
AcDbScale
 70
     0
300
1:20
140
1.0
141
20.0
290
     0
  0
SCALE
  5
50
102
{ACAD_REACTORS
330
47
102
}
330
47
100
AcDbScale
 70
     0
300
1:30
140
1.0
141
30.0
290
     0
  0
SCALE
  5
51
102
{ACAD_REACTORS
330
47
102
}
330
47
100
AcDbScale
 70
     0
300
1:40
140
1.0
141
40.0
290
     0
  0
SCALE
  5
52
102
{ACAD_REACTORS
330
47
102
}
330
47
100
AcDbScale
 70
     0
300
1:50
140
1.0
141
50.0
290
     0
  0
SCALE
  5
53
102
{ACAD_REACTORS
330
47
102
}
330
47
100
AcDbScale
 70
     0
300
1:100
140
1.0
141
100.0
290
     0
  0
SCALE
  5
54
102
{ACAD_REACTORS
330
47
102
}
330
47
100
AcDbScale
 70
     0
300
2:1
140
2.0
141
1.0
290
     0
  0
SCALE
  5
55
102
{ACAD_REACTORS
330
47
102
}
330
47
100
AcDbScale
 70
     0
300
4:1
140
4.0
141
1.0
290
     0
  0
SCALE
  5
56
102
{ACAD_REACTORS
330
47
102
}
330
47
100
AcDbScale
 70
     0
300
8:1
140
8.0
141
1.0
290
     0
  0
SCALE
  5
57
102
{ACAD_REACTORS
330
47
102
}
330
47
100
AcDbScale
 70
     0
300
10:1
140
10.0
141
1.0
290
     0
  0
SCALE
  5
58
102
{ACAD_REACTORS
330
47
102
}
330
47
100
AcDbScale
 70
     0
300
100:1
140
100.0
141
1.0
290
     0
  0
SCALE
  5
59
102
{ACAD_REACTORS
330
47
102
}
330
47
100
AcDbScale
 70
     0
300
1/128" = 1'-0"
140
0.0078125
141
12.0
290
     0
  0
SCALE
  5
5A
102
{ACAD_REACTORS
330
47
102
}
330
47
100
AcDbScale
 70
     0
300
1/64" = 1'-0"
140
0.015625
141
12.0
290
     0
  0
SCALE
  5
5B
102
{ACAD_REACTORS
330
47
102
}
330
47
100
AcDbScale
 70
     0
300
1/32" = 1'-0"
140
0.03125
141
12.0
290
     0
  0
SCALE
  5
5C
102
{ACAD_REACTORS
330
47
102
}
330
47
100
AcDbScale
 70
     0
300
1/16" = 1'-0"
140
0.0625
141
12.0
290
     0
  0
SCALE
  5
5D
102
{ACAD_REACTORS
330
47
102
}
330
47
100
AcDbScale
 70
     0
300
3/32" = 1'-0"
140
0.09375
141
12.0
290
     0
  0
SCALE
  5
5E
102
{ACAD_REACTORS
330
47
102
}
330
47
100
AcDbScale
 70
     0
300
1/8" = 1'-0"
140
0.125
141
12.0
290
     0
  0
SCALE
  5
5F
102
{ACAD_REACTORS
330
47
102
}
330
47
100
AcDbScale
 70
     0
300
3/16" = 1'-0"
140
0.1875
141
12.0
290
     0
  0
SCALE
  5
60
102
{ACAD_REACTORS
330
47
102
}
330
47
100
AcDbScale
 70
     0
300
1/4" = 1'-0"
140
0.25
141
12.0
290
     0
  0
SCALE
  5
61
102
{ACAD_REACTORS
330
47
102
}
330
47
100
AcDbScale
 70
     0
300
3/8" = 1'-0"
140
0.375
141
12.0
290
     0
  0
SCALE
  5
62
102
{ACAD_REACTORS
330
47
102
}
330
47
100
AcDbScale
 70
     0
300
1/2" = 1'-0"
140
0.5
141
12.0
290
     0
  0
SCALE
  5
63
102
{ACAD_REACTORS
330
47
102
}
330
47
100
AcDbScale
 70
     0
300
3/4" = 1'-0"
140
0.75
141
12.0
290
     0
  0
SCALE
  5
64
102
{ACAD_REACTORS
330
47
102
}
330
47
100
AcDbScale
 70
     0
300
1" = 1'-0"
140
1.0
141
12.0
290
     0
  0
SCALE
  5
65
102
{ACAD_REACTORS
330
47
102
}
330
47
100
AcDbScale
 70
     0
300
1-1/2" = 1'-0"
140
1.5
141
12.0
290
     0
  0
SCALE
  5
66
102
{ACAD_REACTORS
330
47
102
}
330
47
100
AcDbScale
 70
     0
300
3" = 1'-0"
140
3.0
141
12.0
290
     0
  0
SCALE
  5
67
102
{ACAD_REACTORS
330
47
102
}
330
47
100
AcDbScale
 70
     0
300
6" = 1'-0"
140
6.0
141
12.0
290
     0
  0
SCALE
  5
68
102
{ACAD_REACTORS
330
47
102
}
330
47
100
AcDbScale
 70
     0
300
1'-0" = 1'-0"
140
12.0
141
12.0
290
     0
  0
ENDSEC
  0
EOF
